osu file format v14

[General]
AudioFilename: Magna Idea.mp3
AudioLeadIn: 0
PreviewTime: 59449
Countdown: 0
SampleSet: Soft
StackLeniency: 0.3
Mode: 0
LetterboxInBreaks: 0
WidescreenStoryboard: 0

[Editor]
DistanceSpacing: 1.2
BeatDivisor: 4
GridSize: 4
TimelineZoom: 1

[Metadata]
Title:Magna Idea
TitleUnicode:マグナ・イデア
Artist:fortuna
ArtistUnicode:fortuna
Creator:Andrea
Version:Normal
Source:聖剣使いの禁呪詠唱
Tags:osuplayer111 Gero Vicho Seiken Tsukai no World Break Kinshuu Eishou ワールドブレイク Ranjou Satsuki Urushibara Shizuno Momochi Haruka Shimon Maya Taketatsu Ayana Yuuki Aoi Uchida Maaya Ogura Yui
BeatmapID:640457
BeatmapSetID:282185

[Difficulty]
HPDrainRate:4
CircleSize:3
OverallDifficulty:4
ApproachRate:5
SliderMultiplier:1.4
SliderTickRate:2

[Events]
//Background and Video events
0,0,"BG.jpg",0,0
//Break Periods
//Storyboard Layer 0 (Background)
//Storyboard Layer 1 (Fail)
//Storyboard Layer 2 (Pass)
//Storyboard Layer 3 (Foreground)
//Storyboard Sound Samples

[TimingPoints]
2085,405.405405405405,4,2,1,60,1,0
15057,-100,4,1,1,60,0,0
16882,-100,4,2,2,60,0,0
18301,-100,4,2,1,60,0,0
19922,-100,4,2,1,40,0,0
20328,-100,4,2,1,60,0,0
21544,-100,4,2,1,40,0,0
21949,-100,4,2,1,60,0,0
23166,-100,4,2,1,40,0,0
23571,-100,4,2,1,60,0,0
26409,-100,4,2,1,40,0,0
26814,-100,4,2,1,60,0,0
28030,-100,4,2,1,40,0,0
28841,-100,4,2,1,60,0,0
29652,-100,4,2,1,40,0,0
29855,-100,4,2,1,60,0,0
30057,-100,4,2,1,40,0,0
30463,-100,4,2,1,60,0,0
30868,-100,4,2,1,40,0,0
31071,-100,4,2,1,60,0,0
31274,-100,4,2,1,80,0,0
50733,-100,4,2,3,60,0,0
51949,-100,4,2,2,60,0,0
52355,-100,4,2,3,60,0,0
53368,-100,4,2,2,60,0,0
53774,-100,4,2,1,80,0,0
57220,-100,4,2,3,60,0,0
58030,-100,4,2,1,60,0,0
58436,-100,4,2,1,40,0,0
58841,-100,4,2,1,60,0,0
60463,-100,4,2,1,80,0,1
71814,-100,4,2,2,60,0,1
73436,-100,4,2,1,80,0,1
83571,-100,4,2,2,60,0,1
84787,-100,4,2,1,80,0,0
85395,-100,4,2,1,60,0,0
86409,-100,4,2,1,80,0,0
87625,-100,4,2,2,60,0,0
87828,-100,4,2,1,80,0,0
88030,-100,4,2,1,40,0,0
88436,-100,4,2,1,30,0,0
88841,-100,4,2,1,20,0,0
89247,-100,4,2,1,10,0,0
89652,-100,4,2,1,5,0,0

[Colours]
Combo1 : 240,209,84
Combo2 : 219,116,142
Combo3 : 181,32,69
Combo4 : 139,116,160

[HitObjects]
64,320,2085,6,0,P|168:320|244:248,1,210,2|0,0:0|0:0,0:0:0:0:
292,184,2895,2,0,L|396:224,2,105,2|0|0,0:0|0:0|0:0,0:0:0:0:
212,156,3706,1,2,0:0:0:0:
496,332,4517,5,2,0:0:0:0:
412,332,4720,2,0,B|340:332|340:332|280:296,1,140
216,244,5328,2,0,B|172:196|172:196|28:196,1,210,2|0,0:0|0:0,0:0:0:0:
24,112,6139,1,2,0:0:0:0:
172,32,6544,1,0,0:0:0:0:
340,32,6949,5,2,0:0:0:0:
488,112,7355,2,0,L|400:224,1,140,2|2,0:0|0:0,0:0:0:0:
344,284,7963,2,0,L|296:336,1,70,0|2,0:0|0:0,0:0:0:0:
136,284,8571,6,0,P|80:200|104:96,1,210,4|0,1:0|1:0,0:0:0:0:
172,52,9382,2,0,P|256:106|340:52,1,210,4|0,1:0|0:0,0:0:0:0:
410,98,10193,2,0,P|432:198|376:284,1,210,4|0,1:0|1:0,0:0:0:0:
300,316,11003,1,4,1:0:0:0:
136,352,11409,1,0,0:0:0:0:
100,188,11814,6,0,L|148:136,1,70,4|0,1:0|0:0,0:0:0:0:
228,168,12220,2,0,L|328:68,1,140,2|0,0:0|1:0,0:0:0:0:
496,84,13030,2,0,L|448:140,1,70,2|2,0:0|1:0,0:0:0:0:
396,200,13436,1,4,1:0:0:0:
200,352,14044,5,0,0:0:0:0:
136,300,14247,2,0,P|88:248|76:180,1,140,2|0,0:0|0:0,0:0:0:0:
96,100,14855,1,2,0:0:0:0:
172,136,15057,6,0,P|240:112|272:56,1,140,4|0,0:0|0:0,0:0:0:0:
440,60,15868,1,0,0:0:0:0:
508,216,16274,5,4,0:0:0:0:
460,284,16476,2,0,P|388:284|340:328,1,140,4|8,0:0|0:0,0:0:0:0:
171,327,17287,2,0,P|120:282|52:284,1,140,8|8,0:0|0:0,0:0:0:0:
124,40,18301,6,0,B|196:40|196:40|252:80,1,140,4|0,0:0|0:0,0:0:0:0:
416,56,19112,2,0,P|440:196|348:288,1,280,2|0,0:0|1:0,0:0:0:0:
256,148,20328,1,0,0:0:0:0:
161,287,20733,2,0,P|69:188|96:56,1,280,2|0,0:0|1:0,0:0:0:0:
256,104,21949,5,0,0:0:0:0:
416,56,22355,2,0,B|416:192|416:192|328:316,1,280,2|0,0:0|1:0,0:0:0:0:
168,348,23571,1,0,0:0:0:0:
124,184,23976,2,0,B|176:132|176:132|176:64,1,140,2|0,0:0|0:0,0:0:0:0:
256,36,24584,1,0,0:0:0:0:
336,65,24787,6,0,B|336:132|336:132|388:184,1,140,2|0,0:0|0:0,0:0:0:0:
472,328,25598,2,0,B|416:284|416:284|280:284|280:284|212:244,1,280,2|0,0:0|1:0,0:0:0:0:
108,120,26814,2,0,L|4:220,2,140,0|2|0,0:0|0:0|0:0,0:0:0:0:
244,20,28030,6,0,B|308:80|380:80|380:80|512:80,1,280,0|2,1:0|0:0,0:0:0:0:
508,248,29247,1,0,0:0:0:0:
368,344,29652,2,0,L|320:288,1,70,2|0,1:0|0:0,0:0:0:0:
264,228,30057,2,0,P|192:228|132:192,1,140,4|2,0:0|0:0,0:0:0:0:
36,60,30868,2,0,L|106:61,1,70,0|0,1:0|0:0,0:0:0:0:
188,40,31274,6,0,B|244:40|244:40|268:24|268:24|324:24,1,140,4|0,0:0|1:0,0:0:0:0:
396,64,31882,1,0,0:0:0:0:
468,104,32084,2,0,B|468:176|468:176|432:236,1,140,2|0,0:0|1:0,0:0:0:0:
320,360,32895,1,2,0:0:0:0:
188,252,33301,1,0,1:0:0:0:
296,124,33706,6,0,B|248:96|248:96|160:96,1,140,2|0,0:0|1:0,0:0:0:0:
88,128,34314,1,0,0:0:0:0:
16,172,34517,1,2,0:0:0:0:
88,324,34922,2,0,B|160:324|204:272|204:272|352:272,1,280,0|0,1:0|1:0,0:0:0:0:
488,172,36139,1,2,0:0:0:0:
352,72,36544,6,0,P|292:32|224:32,1,140,0|2,1:0|0:0,0:0:0:0:
80,116,37355,1,0,1:0:0:0:
12,164,37557,2,0,P|80:256|168:256,1,210,4|0,0:0|1:0,0:0:0:0:
240,212,38368,2,0,P|341:218|395:304,1,210,4|0,0:0|1:0,0:0:0:0:
472,340,39179,2,0,L|508:280,1,70,2|4,0:0|0:0,0:0:0:0:
412,140,39787,5,0,1:0:0:0:
360,76,39990,2,0,B|296:36|296:36|160:36,1,210,4|0,0:0|1:0,0:0:0:0:
76,36,40801,2,0,B|76:140|76:140|28:236,1,210,4|0,0:0|1:0,0:0:0:0:
92,292,41612,2,0,B|164:292|164:292|224:324|224:324|296:324,1,210,4|0,0:0|1:0,0:0:0:0:
460,320,42625,2,0,P|488:224|424:144,2,210,4|2|0,0:0|0:0|1:0,0:0:0:0:
376,332,44044,1,2,0:0:0:0:
292,340,44247,6,0,P|220:340|168:300,1,140,4|0,0:0|1:0,0:0:0:0:
132,136,45057,2,0,P|204:136|256:176,1,140,2|0,0:0|1:0,0:0:0:0:
396,268,45868,1,2,0:0:0:0:
500,136,46274,1,0,1:0:0:0:
360,44,46679,1,2,0:0:0:0:
256,176,47084,6,0,L|172:288,1,140,0|2,1:0|0:0,0:0:0:0:
28,200,47895,2,0,P|100:76|224:36,1,280,0|0,1:0|1:0,0:0:0:0:
392,36,49112,1,2,0:0:0:0:
456,192,49517,1,2,1:0:0:0:
392,348,49922,1,2,0:0:0:0:
256,248,50328,6,0,L|196:292,1,70,2|0,1:0|0:0,0:0:0:0:
132,340,50733,2,0,P|56:268|72:172,1,210,8|8,0:0|0:0,0:0:0:0:
140,124,51544,2,0,L|260:40,1,140,8|8,0:0|0:0,0:0:0:0:
316,104,52152,1,8,0:0:0:0:
388,56,52355,6,0,P|456:108|464:228,1,210,8|8,0:0|0:0,0:0:0:0:
408,288,53166,1,8,0:0:0:0:
352,352,53368,2,0,P|284:352|224:312,1,140,8|2,0:0|0:0,0:0:0:0:
164,260,53976,5,4,0:0:0:0:
28,160,54382,1,0,1:0:0:0:
140,32,54787,1,2,0:0:0:0:
280,124,55193,2,0,L|360:124,1,70,0|0,1:0|0:0,0:0:0:0:
408,64,55598,2,0,P|432:124|408:192,1,140,2|0,0:0|1:0,0:0:0:0:
340,344,56409,1,2,0:0:0:0:
172,344,56814,1,0,1:0:0:0:
104,192,57220,6,0,P|79:128|104:63,2,140,8|8|2,0:0|0:0|0:0,0:0:0:0:
162,124,58233,2,0,L|232:124,1,70,2|0,0:0|1:0,0:0:0:0:
376,36,58841,1,2,1:0:0:0:
424,104,59044,2,0,B|424:208|424:208|364:300,1,210,2|2,1:0|0:0,0:0:0:0:
32,320,60463,5,4,0:0:0:0:
32,152,60868,2,0,L|88:96,1,70,0|0,1:0|0:0,0:0:0:0:
144,44,61274,1,2,0:0:0:0:
256,168,61679,1,0,1:0:0:0:
368,44,62084,6,0,P|436:44|492:84,2,140,2|0|2,0:0|1:0|0:0,0:0:0:0:
308,104,63098,1,0,0:0:0:0:
256,168,63301,2,0,L|112:168,1,140,0|2,1:0|0:0,0:0:0:0:
40,320,64112,2,0,L|112:320,1,70,0|0,1:0|0:0,0:0:0:0:
196,320,64517,2,0,B|268:320|268:320|328:284,1,140,2|0,0:0|1:0,0:0:0:0:
468,192,65328,1,2,0:0:0:0:
326,98,65733,6,0,B|268:64|268:64|196:64,1,140,0|2,1:0|0:0,0:0:0:0:
118,97,66341,1,0,0:0:0:0:
80,172,66544,2,0,B|80:244|80:244|120:304,1,140,0|4,1:0|0:0,0:0:0:0:
256,204,67355,1,0,1:0:0:0:
394,300,67760,6,0,B|432:244|432:244|432:172,1,140,2|0,0:0|1:0,0:0:0:0:
384,104,68368,1,0,0:0:0:0:
328,40,68571,2,0,B|280:40|280:40|244:20|244:20|192:20,1,140,4|0,0:0|1:0,0:0:0:0:
48,108,69382,1,2,0:0:0:0:
48,276,69787,1,0,1:0:0:0:
192,364,70193,6,0,P|280:300|376:312,2,210,4|2|0,0:0|0:0|1:0,0:0:0:0:
48,276,71814,2,0,L|4:216,2,70,8|0|8,0:0|0:0|0:0,0:0:0:0:
100,116,72625,2,0,L|56:56,2,70,8|0|8,0:0|0:0|0:0,0:0:0:0:
256,52,73436,6,0,P|328:52|384:88,1,140,6|0,0:0|1:0,0:0:0:0:
424,160,74044,1,0,0:0:0:0:
460,236,74247,2,0,B|416:280|416:280|336:280,1,140,2|0,0:0|1:0,0:0:0:0:
172,280,75057,6,0,B|94:280|94:280|50:324,2,140,2|0|2,0:0|1:0|0:0,0:0:0:0:
256,280,76071,1,0,0:0:0:0:
256,196,76274,2,0,L|256:52,1,140,0|2,1:0|0:0,0:0:0:0:
88,40,77084,2,0,L|88:116,1,70,0|0,1:0|0:0,0:0:0:0:
88,196,77490,2,0,P|88:268|136:316,1,140,2|0,0:0|1:0,0:0:0:0:
256,196,78301,1,2,0:0:0:0:
379,314,78706,6,0,P|425:264|424:196,1,140,0|2,1:0|0:0,0:0:0:0:
372,128,79314,1,0,0:0:0:0:
308,72,79517,2,0,P|248:28|184:28,1,140,0|4,1:0|0:0,0:0:0:0:
48,128,80328,1,0,1:0:0:0:
152,264,80733,2,0,P|224:264|276:304,1,140,4|0,0:0|1:0,0:0:0:0:
344,356,81341,1,2,0:0:0:0:
412,308,81544,6,0,L|484:180,1,140,4|0,0:0|1:0,0:0:0:0:
408,32,82355,2,0,L|336:160,1,140,4|0,0:0|1:0,0:0:0:0:
256,300,83166,1,4,0:0:0:0:
172,154,83571,6,0,L|104:32,1,140,8|8,0:0|0:0,0:0:0:0:
32,184,84382,2,0,L|72:252,1,70,8|0,0:0|0:0,0:0:0:0:
112,316,84787,1,4,0:0:0:0:
356,372,85395,5,0,0:0:0:0:
392,296,85598,2,0,P|464:296|512:252,1,140,2|0,0:0|1:0,0:0:0:0:
408,124,86409,5,4,0:0:0:0:
256,56,86814,1,0,1:0:0:0:
104,124,87220,1,0,0:0:0:0:
256,192,87625,5,8,0:0:0:0:
256,192,87828,1,4,0:0:0:0:
256,192,88030,12,0,89652,0:0:0:0:
