osu file format v6

[General]
AudioFilename: forfun - 7x1.mp3
AudioLeadIn: 0
PreviewTime: -1
Countdown: 1
SampleSet: Soft
StackLeniency: 0.7
Mode: 0
LetterboxInBreaks: 1

[Editor]
DistanceSpacing: 0.800000011920929
BeatDivisor: 4
GridSize: 8

[Metadata]
Title:7x1
Artist:forfun
Creator:shyyo
Version:Normal
Source:Marcelo santos
Tags:7x1

[Difficulty]
HPDrainRate:4
CircleSize:5
OverallDifficulty:5
SliderMultiplier:1.4
SliderTickRate:1

[Events]
//Background and Video events
0,0,"forfun-bbb66.jpg"
//Break Periods
2,84200,98300
//Storyboard Layer 0 (Background)
//Storyboard Layer 1 (Fail)
//Storyboard Layer 2 (Pass)
//Storyboard Layer 3 (Foreground)
//Storyboard Sound Samples
//Background Colour Transformations
3,100,136,74,187

[TimingPoints]
0,800,4,2,0,100,1,0

[HitObjects]
88,80,2500,1,0
264,80,3500,1,0
264,176,4750,1,0
216,152,5500,1,0
152,88,6500,1,0
144,224,7500,1,0
272,224,8250,1,0
272,104,9000,1,0
224,216,10000,1,0
176,112,11000,5,0
104,208,12000,1,0
200,232,12750,1,0
240,104,14000,1,0
144,48,14750,1,0
128,192,15500,1,0
224,176,16000,1,0
280,72,17000,1,0
72,96,17750,6,0,B|280:280,1,245
400,64,20000,1,0
248,56,21000,1,0
320,168,21750,1,0
352,80,23000,1,0
208,72,24000,1,0
216,208,25000,5,0
200,80,26000,1,0
104,208,27000,1,0
280,216,28000,1,0
328,104,29000,1,0
184,56,30000,1,0
256,208,30750,12,0,32500
384,64,34500,5,0
224,56,35500,1,0
224,240,36500,1,0
224,152,37000,1,0
152,208,37500,1,0
224,240,38000,1,0
328,176,39000,1,0
280,72,40000,1,0
272,248,41000,1,0
248,208,41500,1,0
200,144,42000,1,0
104,80,43000,1,0
104,248,44000,5,0
216,256,45000,1,0
344,256,46000,1,0
336,80,47000,1,0
112,48,48000,1,0
120,280,50000,1,0
288,280,51500,1,0
288,96,52750,1,0
248,72,53250,1,0
176,56,53750,1,0
112,72,54500,1,0
112,160,55250,5,0
160,192,56000,1,0
224,216,56500,1,0
272,184,57000,1,0
288,88,57500,1,0
168,64,58250,1,0
176,264,59000,1,0
320,272,59500,1,0
336,104,60000,1,0
200,64,61000,1,0
72,64,62000,1,0
120,272,63000,1,0
264,96,64000,5,0
256,96,66000,1,0
360,272,67000,1,0
360,112,68000,1,0
184,48,69000,1,0
184,96,69500,1,0
176,160,70000,1,0
80,56,71000,1,0
144,280,72000,1,0
168,256,72500,1,0
208,216,73000,1,0
296,48,74000,1,0
112,48,75000,5,0
160,184,76000,1,0
200,192,76500,1,0
248,192,77000,1,0
352,64,78000,1,0
160,48,79000,1,0
144,104,79500,1,0
144,152,80000,1,0
256,208,80750,12,0,82750
320,96,84000,5,0
80,72,99500,5,0
240,64,100500,1,0
392,64,101500,1,0
384,216,102500,1,0
368,128,103500,1,0
288,128,104500,1,0
184,128,105500,1,0
72,120,106500,1,0
72,256,107500,5,0
176,264,108500,1,0
280,256,109500,1,0
392,256,110500,1,0
392,80,111500,1,0
392,80,112500,1,0
408,248,113500,1,0
296,248,114500,1,0
160,248,115500,1,0
56,248,116500,5,0
48,104,117750,1,0
176,96,118750,1,0
304,96,119750,1,0
408,96,120750,1,0
408,96,121500,1,0
288,96,122500,1,0
168,88,123500,1,0
160,168,124500,1,0
160,208,124750,1,0
160,256,125250,1,0
312,256,126500,1,0
328,88,127250,1,0
304,112,127750,1,0
280,144,128250,1,0
128,72,129500,5,0
136,240,130250,1,0
176,248,130750,1,0
216,248,131250,1,0
320,80,132500,1,0
88,80,133500,1,0
88,120,133750,1,0
88,168,134250,1,0
264,256,135500,1,0
304,64,136500,1,0
304,96,136750,1,0
296,128,137250,1,0
96,72,138500,5,0
104,288,140000,1,0
280,280,141000,1,0
272,248,141500,1,0
272,200,142000,1,0
256,160,142500,1,0
224,120,143000,1,0
168,96,143500,1,0
104,264,144500,1,0
280,272,145500,1,0
328,112,146250,1,0
256,168,146750,2,0,B|96:296,1,175
320,64,149750,1,0
112,72,150750,1,0
160,320,152000,5,0
280,184,153000,1,0
304,80,154000,1,0
176,64,155000,1,0
200,232,156000,1,0
304,104,157000,1,0
200,64,158000,1,0
160,208,158750,1,0
304,216,160000,5,0
304,216,161500,1,0
296,80,163000,1,0
144,80,164000,1,0
144,256,166000,1,0
336,256,168000,1,0
328,88,170000,1,0
112,80,172000,1,0
104,272,173000,1,0
296,272,174000,5,0
336,88,175000,1,0
120,80,176000,1,0
120,120,176500,1,0
120,168,177000,1,0
176,312,177750,2,0,B|320:112,1,210
88,64,180500,2,0,B|264:288,1,280
408,56,183250,2,0,B|248:256,1,245
96,48,185750,1,0
352,48,186750,1,0
352,288,187750,1,0
184,304,188250,2,0,B|96:64,1,245
392,88,191000,1,0
160,80,192000,5,0
144,296,192750,1,0
384,288,194000,1,0
352,88,195000,1,0
144,80,196000,1,0
144,280,197000,1,0
136,88,198000,1,0
328,80,198750,1,0
352,272,199750,1,0
200,96,200750,5,0
96,216,201750,1,0
272,304,202750,1,0
360,88,203750,1,0
144,40,205000,1,0
112,280,206000,1,0
312,288,207500,1,0
328,80,208750,1,0
128,80,210250,1,0
128,304,212000,5,0
256,208,213000,12,0,215500
88,56,217000,5,0
336,56,218000,1,0
392,200,219000,1,0
128,208,220750,1,0
144,80,222000,1,0
384,80,223000,1,0
392,296,224000,1,0
240,96,225000,1,0
80,112,226000,1,0
136,320,227000,1,0
296,160,228000,5,0
256,128,228500,1,0
208,104,229000,1,0
160,80,229500,1,0
112,304,230500,1,0
368,312,231500,1,0
368,104,232500,1,0
112,80,233500,1,0
112,120,234000,1,0
112,152,234500,1,0
112,184,235000,1,0
216,288,236000,5,0
344,120,237000,1,0
184,56,238000,1,0
144,264,239000,1,0
376,280,240000,1,0
384,88,241000,1,0
144,80,242000,1,0
144,296,243000,1,0
368,288,244000,5,0
352,80,245000,1,0
152,72,246000,1,0
184,320,247000,1,0
216,304,247500,1,0
240,272,248000,1,0
272,240,248500,1,0
280,184,249000,1,0
248,144,249500,1,0
192,144,250000,1,0
184,216,250500,1,0
192,288,251000,1,0
344,96,252000,5,0
192,72,253000,1,0
152,256,254000,1,0
360,296,255000,1,0
376,104,256000,1,0
144,64,257000,1,0
200,296,258000,1,0
216,144,259000,1,0
216,264,260000,1,0
264,136,261000,5,0
304,304,262000,1,0
192,96,263000,1,0
152,320,264000,1,0
176,296,264500,1,0
192,272,265000,1,0
208,232,265500,1,0
224,184,266000,1,0
272,112,266750,1,0
256,208,268000,12,0,271500
256,208,274000,12,0,276750
256,208,279000,12,0,281500
