osu file format v6

[General]
AudioFilename: forfun - 7x1.mp3
AudioLeadIn: 0
PreviewTime: -1
Countdown: 1
SampleSet: Soft
StackLeniency: 0.7
Mode: 0
LetterboxInBreaks: 1

[Editor]
DistanceSpacing: 0.800000011920929
BeatDivisor: 4
GridSize: 8

[Metadata]
Title:7x1
Artist:forfun
Creator:shyyo
Version:Hard
Source:Marcelo santos
Tags:7x1

[Difficulty]
HPDrainRate:10
CircleSize:6
OverallDifficulty:9
SliderMultiplier:1.4
SliderTickRate:1

[Events]
//Background and Video events
0,0,"forfun-bbb66.jpg"
//Break Periods
2,87661,98480
2,159280,171242
//Storyboard Layer 0 (Background)
//Storyboard Layer 1 (Fail)
//Storyboard Layer 2 (Pass)
//Storyboard Layer 3 (Foreground)
//Storyboard Sound Samples
//Background Colour Transformations
3,100,136,74,187

[TimingPoints]
33,380.952380952381,4,2,0,100,1,0

[HitObjects]
120,56,2318,1,0
144,128,2794,1,0
160,200,3461,1,0
216,216,3937,1,0
248,160,4413,1,0
264,88,4794,1,0
192,56,5461,1,0
232,144,6033,1,0
280,184,6604,1,0
320,120,7271,1,0
232,72,7937,5,0
224,152,8223,1,0
224,224,8604,1,0
288,256,8890,1,0
344,152,9366,1,0
256,96,9937,1,0
256,160,10413,1,0
232,200,10699,1,0
184,72,11175,1,0
168,184,11937,1,0
224,240,12509,1,0
264,224,12699,1,0
272,176,13080,1,0
288,88,13842,1,0
176,80,14604,5,0
160,192,14985,1,0
248,216,15271,1,0
272,152,15556,1,0
288,64,15937,1,0
200,64,16318,1,0
128,80,16509,1,0
128,232,16794,1,0
240,248,17461,1,0
392,64,18318,2,0,B|248:288,1,245
104,64,20509,5,0
104,184,20985,1,0
152,160,21080,1,0
168,120,21175,1,0
168,80,22318,1,0
256,152,22985,1,0
336,96,23556,1,0
288,64,24033,1,0
248,104,24509,1,0
320,144,24985,1,0
304,200,25461,1,0
248,184,25937,1,0
280,56,26699,5,0
288,112,27175,1,0
288,160,27652,1,0
264,144,28128,1,0
240,80,28509,1,0
320,80,28985,1,0
264,144,29556,1,0
208,120,30033,1,0
160,56,30509,1,0
96,136,30890,1,0
152,144,31461,1,0
152,288,32413,2,0,B|384:112|160:120|384:256,1,315
384,56,34890,5,0
392,168,35461,1,0
360,88,35937,1,0
376,128,36509,1,0
296,104,36509,1,0
344,168,36604,1,0
240,56,38413,1,0
272,56,38413,1,0
296,72,38413,1,0
200,56,38509,1,0
192,96,39937,1,0
208,136,40509,1,0
240,168,41080,1,0
288,208,41556,1,0
320,192,42223,5,0
344,144,42699,1,0
344,80,43080,1,0
352,224,44033,1,0
296,184,44509,1,0
248,104,44985,1,0
208,48,45556,1,0
248,104,46033,1,0
304,152,46509,1,0
304,128,47080,1,0
304,80,47556,1,0
304,56,47937,1,0
248,56,48509,1,0
224,128,49080,5,0
224,192,49556,1,0
304,192,50033,1,0
352,72,50985,1,0
296,64,51461,1,0
184,64,51937,1,0
184,96,52413,1,0
184,144,52890,1,0
184,208,53461,1,0
184,184,53937,1,0
184,144,54413,1,0
192,96,55175,5,0
192,72,55652,1,0
192,48,55937,1,0
240,64,56413,1,0
288,96,56985,1,0
336,160,57461,1,0
328,120,57937,1,0
312,160,58509,1,0
280,168,58890,1,0
232,160,59461,1,0
192,152,59937,5,0
160,144,60509,1,0
112,128,60985,1,0
152,64,61556,1,0
272,64,62033,1,0
272,200,62509,1,0
208,144,63080,1,0
176,56,63556,1,0
128,88,64033,1,0
200,96,64604,1,0
256,96,64985,1,0
288,96,65556,1,0
336,104,66033,1,0
360,144,66699,5,0
352,208,67175,1,0
328,240,67556,1,0
256,216,67937,1,0
256,144,68509,1,0
248,80,68985,1,0
176,48,69461,1,0
248,80,70033,1,0
288,184,70509,1,0
256,168,70985,1,0
192,104,71461,1,0
176,152,72033,1,0
176,240,72509,1,0
256,248,73080,1,0
280,168,73937,5,0
296,112,74413,1,0
288,80,74985,1,0
224,72,75461,1,0
256,112,75937,1,0
328,184,76413,1,0
328,272,76890,1,0
248,264,77461,1,0
224,160,77937,1,0
296,112,78509,1,0
288,80,78985,1,0
312,216,79556,1,0
312,296,80033,1,0
264,200,80509,1,0
288,256,80985,1,0
304,192,81556,5,0
304,128,82033,1,0
296,80,82413,1,0
192,80,82985,1,0
224,184,83461,1,0
144,200,84033,1,0
256,208,84985,12,0,87461
96,56,99080,5,0
280,56,99556,1,0
384,56,100033,1,0
384,264,100985,1,0
400,80,101937,1,0
192,72,103080,1,0
208,280,104033,1,0
264,208,104890,1,0
288,80,106033,1,0
272,216,106985,1,0
288,80,107937,1,0
272,216,108985,5,0
240,80,109937,1,0
264,224,110890,1,0
288,96,111842,1,0
192,48,112794,1,0
120,104,112985,2,0,B|136:288|304:80|88:304,2,280
248,136,114985,1,0
248,136,115175,1,0
248,136,115366,1,0
248,136,115461,1,0
248,136,115652,1,0
248,136,115842,1,0
248,136,116033,1,0
248,136,116128,1,0
248,136,116318,1,0
248,136,116509,1,0
248,136,116604,1,0
248,136,116794,1,0
248,136,116985,1,0
248,136,117080,1,0
80,104,117937,2,0,B|264:96|256:96,2,175
368,72,120128,1,0
376,240,120985,1,0
272,96,121937,1,0
288,296,122985,5,0
224,296,123461,1,0
184,288,123937,1,0
192,240,124509,1,0
208,208,124890,1,0
224,176,125366,1,0
248,112,125842,1,0
232,136,126318,1,0
224,176,126794,1,0
208,216,127271,1,0
192,264,127747,1,0
176,208,128413,1,0
168,160,128890,1,0
296,96,129937,5,0
400,96,130413,1,0
400,144,130890,1,0
384,120,131366,1,0
368,104,131842,1,0
344,80,132318,1,0
312,64,132890,1,0
288,48,133366,1,0
224,56,133937,1,0
224,56,134509,1,0
224,56,135461,1,0
224,56,135937,1,0
224,56,136509,1,0
224,56,136890,1,0
224,232,137842,5,0
208,176,138413,1,0
192,96,138890,1,0
160,64,139366,1,0
192,96,139842,1,0
200,136,140318,1,0
200,184,140794,1,0
200,184,141271,1,0
200,136,141842,1,0
200,96,142413,1,0
200,48,142890,1,0
152,40,143366,1,0
136,120,143937,1,0
320,216,144890,5,0
336,168,145461,1,0
344,120,145937,1,0
336,80,146318,1,0
336,144,146890,1,0
328,240,147366,1,0
328,240,148413,1,0
328,240,148890,1,0
328,240,149366,1,0
328,240,149937,1,0
264,104,150413,1,0
144,56,150985,1,0
136,184,151461,1,0
192,208,151937,1,0
344,96,152890,5,0
248,72,153461,1,0
136,40,153937,1,0
192,192,154413,1,0
288,192,154985,1,0
304,120,155556,1,0
224,56,155937,1,0
256,208,156223,12,0,159080
136,104,171842,5,0
136,104,172033,1,0
136,104,172223,1,0
136,104,172413,1,0
136,104,172509,1,0
136,104,172699,1,0
136,104,172890,1,0
136,104,173080,1,0
136,104,173271,1,0
376,80,173937,5,0
376,80,174985,1,0
368,296,175937,1,0
320,304,176604,1,0
320,272,177175,1,0
304,224,177652,1,0
304,192,178128,1,0
304,120,178604,1,0
104,88,179271,1,0
104,88,179366,1,0
104,88,179652,1,0
112,112,180033,1,0
112,112,180223,1,0
112,112,180604,1,0
112,112,180699,1,0
104,136,180890,1,0
360,288,181842,1,0
360,288,182794,1,0
328,104,183937,5,0
232,80,184604,1,0
232,112,185080,1,0
216,160,185556,1,0
216,192,186128,1,0
128,304,187366,1,0
384,296,188890,1,0
368,72,189842,1,0
128,72,190985,1,0
144,96,191175,5,0
144,96,191366,1,0
152,120,191461,1,0
152,144,191842,1,0
152,144,192033,1,0
152,144,192128,1,0
152,144,192318,1,0
152,176,192699,1,0
152,176,192890,1,0
152,176,192985,1,0
160,200,193271,1,0
160,200,193366,1,0
352,104,194318,5,0
160,80,195842,1,0
136,304,197080,1,0
416,296,198699,1,0
416,296,199937,1,0
136,296,201175,1,0
128,64,202699,1,0
408,64,203937,1,0
408,64,205175,1,0
376,312,206318,1,0
352,160,207747,5,0
264,80,208794,1,0
296,248,209937,1,0
128,112,210318,1,0
128,112,210509,1,0
128,112,210699,1,0
128,112,210794,1,0
128,112,210985,1,0
128,112,211175,1,0
256,208,211937,12,0,213747
128,72,216699,5,0
128,104,216890,1,0
136,152,217175,1,0
136,152,217366,1,0
152,128,217556,1,0
128,104,217747,1,0
80,80,217937,1,0
80,80,218128,1,0
168,232,218699,1,0
200,272,219366,1,0
248,256,219937,1,0
264,208,220413,1,0
304,120,220794,1,0
296,152,221461,5,0
296,152,221652,1,0
280,192,221842,1,0
200,128,222509,1,0
152,80,222985,1,0
48,64,223556,1,0
112,200,224033,1,0
216,240,224509,1,0
240,184,224890,1,0
240,184,225175,1,0
240,152,225366,1,0
240,152,225556,1,0
240,112,225747,1,0
240,112,225937,1,0
224,48,226604,5,0
224,72,226985,1,0
232,144,227556,1,0
232,192,227937,1,0
232,232,228509,1,0
136,112,229080,1,0
128,248,229556,1,0
344,256,230509,1,0
368,112,231080,1,0
344,256,231556,1,0
368,112,232033,1,0
272,128,232985,1,0
280,184,233461,1,0
272,128,233937,1,0
280,184,234413,1,0
184,104,234985,1,0
192,184,235556,1,0
240,152,236033,1,0
288,104,236509,1,0
56,88,236890,2,0,B|200:304,1,245
416,48,238413,5,0
264,48,239080,1,0
320,72,239556,1,0
344,112,240033,1,0
344,152,240509,1,0
352,200,240985,1,0
352,224,241461,1,0
352,264,241937,1,0
352,264,242985,1,0
352,232,243461,1,0
344,184,243937,1,0
344,144,244413,1,0
336,104,244794,1,0
312,64,245461,1,0
312,64,246509,1,0
320,88,246890,1,0
328,136,247366,1,0
328,160,247937,1,0
112,88,249175,5,0
328,80,249937,1,0
304,280,251556,1,0
336,168,252128,1,0
344,96,252509,1,0
344,136,252985,1,0
336,168,253461,1,0
344,200,253937,1,0
264,88,254890,1,0
224,80,255366,1,0
192,80,255937,1,0
176,112,256413,1,0
168,152,256985,1,0
168,184,257461,1,0
168,208,257937,1,0
168,240,258413,1,0
168,272,258985,1,0
168,240,260128,5,0
168,216,260509,1,0
168,184,260985,1,0
168,160,261461,1,0
168,112,261937,1,0
200,112,262985,5,0
232,112,263461,1,0
280,112,263937,1,0
320,112,264509,1,0
136,96,265080,1,0
136,96,265271,1,0
136,96,265366,1,0
136,128,265556,1,0
136,128,265747,1,0
128,168,265937,1,0
128,168,266128,1,0
128,168,266318,1,0
128,192,266509,1,0
128,192,266699,1,0
144,208,266890,1,0
256,208,267842,12,0,270509
152,80,272223,5,0
152,80,272413,1,0
152,80,272509,1,0
152,80,272699,1,0
152,104,272890,1,0
152,128,273271,1,0
152,128,273461,1,0
152,128,273652,1,0
152,152,273842,1,0
152,152,274033,1,0
152,184,274223,1,0
152,184,274413,1,0
144,208,274890,1,0
144,208,275080,1,0
152,184,275842,5,0
144,208,276128,1,0
152,184,276413,1,0
152,160,276604,1,0
152,136,276794,1,0
152,136,276985,1,0
160,112,277175,1,0
160,112,277366,1,0
208,112,277747,1,0
208,112,277937,1,0
232,120,278128,1,0
232,144,278413,1,0
232,144,278604,1,0
240,184,278794,1,0
240,184,278985,1,0
232,208,279175,1,0
208,216,279366,1,0
208,216,279556,1,0
176,192,279842,1,0
256,208,281556,12,0,284985
