osu file format v7

[General]
AudioFilename: kanojo.mp3
AudioLeadIn: 0
PreviewTime: 15406
Countdown: 0
SampleSet: Normal
StackLeniency: 0.3
Mode: 0
LetterboxInBreaks: 1

[Editor]
DistanceSpacing: 0.800000011920929
BeatDivisor: 8
GridSize: 16

[Metadata]
Title:Kanojo Ga Ichiban Shoujo Nanoka?
Artist:forestpireo
Creator:Teara
Version:KIRBY Mix
Source:Touhou
Tags:Kana Satuki ga Tenkomori UN Owen Remix Starrodkirby86 sesito71 Metroid Flandre Scarlet

[Difficulty]
HPDrainRate:7
CircleSize:5
OverallDifficulty:8
SliderMultiplier:2.6
SliderTickRate:2

[Events]
//Background and Video events
0,0,"fannie.jpg"
//Break Periods
2,36076,42198
2,70577,76484
2,90934,97055
//Storyboard Layer 0 (Background)
//Storyboard Layer 1 (Fail)
//Storyboard Layer 2 (Pass)
//Storyboard Layer 3 (Foreground)
//Storyboard Sound Samples
//Background Colour Transformations
3,100,163,162,255

[TimingPoints]
15520,428.571428571429,4,1,0,75,1,0
140662,-100,4,1,0,75,0,1
153948,-100,4,1,0,75,0,0
167984,-100,4,1,0,60,0,0
181805,-100,4,2,0,60,0,0

[Colours]
Combo1 : 255,0,0
Combo2 : 128,0,128
Combo3 : 255,0,128

[HitObjects]
320,80,15519,6,0,B|400:80|400:176,1,130,8|0
256,192,15948,1,2
352,256,16162,5,8
416,224,16269,1,0
160,256,16484,1,0
96,224,16591,1,8
256,192,16805,5,2
192,80,17019,6,0,B|112:80|112:176,2,130,8|2|0
256,80,17555,1,0
320,80,17662,6,0,B|400:80|400:176,2,130,2|8|4
304,256,18305,1,2
256,304,18412,1,0
208,256,18519,1,6
256,80,18734,1,0
400,192,18948,5,8
336,96,19162,1,0
256,192,19377,1,2
176,96,19591,1,8
176,96,19698,1,0
112,192,19912,1,0
112,192,20020,1,8
224,304,20234,6,0,B|80:304,1,130,8|0
288,304,20662,6,0,B|432:304,1,130,8|0
288,240,21091,5,8
288,176,21198,1,0
224,176,21305,1,0
224,240,21412,1,8
256,80,21627,1,2
256,80,21841,1,2
352,128,22377,6,0,B|352:256|272:320,1,195,2|0
224,306,22805,6,0,B|160:256|160:128,1,195,2|0
256,128,23234,5,8
256,128,23341,1,0
256,128,23448,1,0
256,128,23555,1,12
464,224,23877,6,8,B|416:224|416:304|320:304,1,130
151,297,24305,6,2,B|96:304|96:224|48:224,1,130
160,64,24734,5,8
224,64,24841,1,0
352,64,25055,5,8
288,64,25162,1,0
256,240,25377,1,4
112,192,25805,5,8
176,288,26020,1,0
256,192,26234,1,2
336,288,26448,1,8
336,288,26555,1,0
400,192,26770,1,0
400,192,26877,1,8
336,80,27091,5,2
176,80,27305,1,2
256,192,27520,12,4,29234
288,64,29448,6,2,B|496:64,1,195
288,128,30091,1,2
288,128,30198,1,0
128,128,30412,1,2
256,256,30734,5,4
256,256,30948,1,4
224,64,31162,6,2,B|16:64,1,195
224,128,31805,1,2
224,128,31912,1,0
384,128,32127,1,2
256,256,32448,5,4
256,256,32662,1,4
256,48,32877,6,2,B|352:112|256:240,1,195
288,352,33520,1,2
224,352,33627,1,0
256,192,33841,1,2
176,304,34162,5,4
336,304,34377,1,4
256,48,34591,6,2,B|160:112|256:240,1,195
352,304,35234,6,2,B|432:304,2,65
160,304,35662,6,2,B|80:304,2,65
64,64,42948,5,0
160,64,43162,5,0
64,160,43377,1,2
160,160,43591,6,0,B|240:160,1,65,8|0
64,240,43912,2,0,B|64:320,1,65,8|0
256,288,44234,2,0,B|144:288|128:208,1,130,2|0
256,96,44662,6,0,B|368:96|384:176,1,130,8|0
304,152,44984,1,0
352,208,45091,2,0,B|240:208|224:128,1,130,2|0
256,96,45412,1,0
192,96,45520,6,0,B|112:96|112:192,2,130,8|2|2
256,192,46162,1,0
448,64,46377,5,0
352,64,46591,5,0
448,160,46806,1,2
352,160,47020,6,0,B|272:160,1,65,8|0
448,240,47341,2,0,B|448:320,1,65,8|0
256,288,47663,2,0,B|368:288|384:208,1,130,2|0
256,96,48091,6,0,B|144:96|128:176,1,130,8|0
208,152,48413,1,0
160,208,48520,2,0,B|272:208|288:128,1,130,2|0
256,96,48841,1,0
320,96,48949,6,0,B|400:96|400:192,2,130,8|2|2
256,192,49591,1,0
208,320,49805,5,8
208,256,49912,1,0
144,288,50020,5,0
80,288,50127,1,0
112,224,50234,1,8
256,96,50448,5,2
304,320,50662,5,8
304,256,50769,1,0
368,288,50877,5,0
432,288,50984,1,0
400,224,51091,1,8
256,96,51305,5,2
224,272,51520,6,0,B|160:224|224:144,1,130
288,112,51841,6,0,B|352:160|288:240,1,130
256,176,52162,1,4
160,320,52377,5,8
352,320,52591,1,8
192,256,52805,5,2
256,256,52912,1,0
320,256,53020,1,2
304,64,53234,5,8
368,48,53341,1,0
432,64,53449,1,0
480,112,53556,1,0
464,176,53663,1,8
256,288,53877,5,2
208,64,54091,5,8
144,48,54198,1,0
80,64,54306,1,0
32,112,54413,1,0
48,176,54520,1,8
256,288,54734,5,2
288,112,54949,6,0,B|352:160|288:240,1,130
224,272,55270,6,0,B|160:224|224:144,1,130
256,208,55591,1,4
352,64,55806,5,8
160,64,56020,1,8
320,128,56234,5,2
256,128,56341,1,0
192,128,56449,1,2
352,192,56662,6,0,B|384:256|320:352,1,130,8|0
160,192,57091,6,0,B|128:128|192:32,1,130,8|0
352,80,57520,5,0
160,304,57734,1,0
352,80,57948,1,0
160,192,58377,6,0,B|128:256|192:352,1,130,8|0
352,192,58806,6,0,B|384:128|320:32,1,130,8|0
160,80,59235,5,0
352,304,59449,1,0
160,80,59663,1,0
352,304,59877,1,0
336,128,60091,5,2
384,80,60198,1,0
448,64,60305,1,0
176,256,60520,5,2
128,304,60627,1,0
64,320,60734,1,0
336,256,60948,5,2
384,304,61055,1,0
448,320,61162,1,0
176,128,61377,5,2
128,80,61484,1,0
64,64,61591,1,0
176,192,61805,5,2
112,192,61912,1,0
48,192,62020,1,0
336,192,62234,5,2
400,192,62341,1,0
464,192,62449,1,0
256,192,62555,12,4,63305
160,192,63520,6,0,B|128:128|192:32,1,130,8|0
352,192,63949,6,0,B|384:256|320:352,1,130,8|0
160,304,64378,5,0
352,80,64592,1,0
160,304,64806,1,0
352,192,65235,6,0,B|384:128|320:32,1,130,8|0
160,192,65662,6,0,B|128:256|192:352,1,130,8|0
352,304,66091,5,0
160,80,66305,1,0
352,304,66521,1,0
160,80,66735,1,0
176,256,66948,5,2
128,304,67055,1,0
64,320,67162,1,0
336,128,67377,5,2
384,80,67484,1,0
448,64,67591,1,0
176,128,67805,5,2
128,80,67912,1,0
64,64,68019,1,0
336,256,68234,5,2
384,304,68341,1,0
448,320,68448,1,0
336,192,68662,5,2
400,192,68769,1,0
464,192,68877,1,0
176,192,69091,5,2
112,192,69198,1,0
48,192,69306,1,0
256,192,69413,12,4,70377
224,112,77234,6,0,L|176:200|224:288,1,195,2|0
290,283,77662,6,0,L|336:200|288:112,1,195,2|0
256,192,78091,5,8
160,112,78305,1,0
96,144,78412,1,8
352,112,78627,5,0
416,144,78734,1,8
256,320,78948,6,8,B|256:240,2,65
352,224,79377,5,8
320,160,79484,1,0
256,128,79591,1,8
192,160,79698,1,8
160,224,79805,1,8
192,96,80020,5,8
256,64,80127,1,0
320,96,80234,1,8
256,128,80341,1,0
256,128,80448,1,8
256,192,80662,12,4,83662
96,64,84091,6,0,B|48:128|80:192,1,130,8|0
128,128,84412,2,0,B|176:192|144:256,1,130,8|0
80,272,84734,1,12
256,336,84948,5,8
192,336,85055,1,0
80,336,85270,1,8
256,64,85591,5,0
416,64,85805,6,0,B|464:128|432:192,1,130,8|0
384,128,86126,2,0,B|336:192|368:256,1,130,8|0
432,272,86448,1,12
256,336,86662,5,8
320,336,86769,1,0
432,336,86984,1,8
256,64,87305,5,0
176,160,87520,6,0,B|176:256|240:288,1,130,12|0
290,276,87841,2,0,B|336:255|336:159,1,130,8|0
256,192,88162,1,8
224,64,88377,5,8
288,64,88484,1,0
256,192,88698,1,8
256,336,89020,5,0
336,160,89234,6,0,B|336:256|272:288,1,130,12|0
221,276,89555,2,0,B|176:255|176:159,1,130,8|0
256,192,89876,1,8
176,64,90091,6,2,B|96:64,2,65
336,64,90520,6,2,B|416:64,2,65
432,64,97805,5,4
320,288,98020,1,8
384,256,98127,1,0
416,192,98234,1,8
256,144,98448,5,0
80,64,98662,5,4
192,288,98877,1,8
128,256,98984,1,0
96,192,99091,1,8
256,144,99305,5,0
288,288,99520,6,0,B|352:160,1,130
224,288,99841,6,0,B|160:160,1,130
256,224,100162,6,2,B|256:80,3,130,2|2|2|6
256,94,101020,1,0
96,64,101234,6,0,B|32:144|80:256,1,195
128,208,101662,2,8,B|192:208|192:208|192:128,1,130
416,64,102091,6,0,B|480:144|432:256,1,195
384,208,102519,2,8,B|320:208|320:208|320:128,1,130
112,320,102948,5,2
400,320,103270,1,2
160,272,103591,5,2
336,272,103805,1,2
208,208,104020,5,0
256,160,104127,1,0
304,208,104234,1,2
256,64,104448,5,4
112,64,104662,6,0,B|80:128|128:192,1,130
400,320,105091,6,0,B|432:256|384:192,1,130,8|0
124,197,105520,6,0,B|80:256|112:320,1,130,0|0
387,186,105949,6,0,B|432:128|400:64,1,130,8|0
256,80,106377,5,8
208,128,106484,1,0
208,192,106591,1,0
208,256,106698,1,0
256,304,106805,1,2
256,304,107020,5,8
304,256,107127,1,0
304,192,107234,1,0
304,128,107341,1,0
256,80,107448,1,2
368,192,107662,5,2
144,192,107877,1,4
208,352,108091,6,2,B|208:256|112:256,1,130
304,352,108520,2,8,B|304:256|400:256,1,130
176,352,108948,6,2,B|176:256|80:256,1,130
336,352,109377,2,8,B|336:256|432:256,1,130
256,192,109805,12,4,111091
192,96,111520,5,8
320,96,111734,1,0
160,192,111948,5,2
352,192,112162,1,0
192,288,112377,6,0,B|336:288,2,130,0|8|2
256,192,113020,5,8
256,192,113127,1,8
320,96,113234,5,8
192,96,113448,1,0
352,192,113662,5,2
160,192,113876,1,0
320,288,114091,6,0,B|176:288,2,130,0|8|2
256,192,114734,5,0
80,160,114948,5,2
80,224,115055,1,0
128,272,115162,1,0
432,160,115377,5,2
432,224,115484,1,0
384,272,115591,1,0
128,160,115805,5,2
128,224,115912,1,0
176,272,116019,1,0
384,160,116234,5,2
384,224,116341,1,0
336,272,116448,1,0
224,48,116662,6,0,B|192:128|240:256,1,195,2|0
288,336,117091,6,0,B|320:256|272:128,1,195,2|0
176,48,117520,6,0,B|144:128|192:256,1,195,2|0
336,336,117949,6,0,B|368:256|320:128,1,195,2|0
192,288,118377,5,8
320,288,118591,1,0
160,192,118805,5,2
352,192,119019,1,0
192,96,119234,6,0,B|336:96,2,130,0|8|2
256,192,119877,5,8
256,192,119984,1,8
320,288,120091,5,8
192,288,120305,1,0
352,192,120519,5,2
160,192,120733,1,0
320,96,120948,6,0,B|176:96,2,130,0|8|2
256,192,121591,5,0
80,224,121805,5,2
80,160,121912,1,0
128,112,122019,1,0
432,224,122234,5,2
432,160,122341,1,0
384,112,122448,1,0
128,224,122662,5,2
128,160,122769,1,0
176,112,122876,1,0
384,224,123091,5,2
384,160,123198,1,0
336,112,123305,1,0
224,336,123519,6,0,B|192:256|240:128,1,195,2|0
288,48,123948,6,0,B|320:128|272:256,1,195,2|0
176,336,124377,6,0,B|144:256|192:128,1,195,2|0
336,48,124806,6,0,B|368:128|320:256,1,195,2|0
256,64,125234,5,8
256,320,125662,1,8
256,128,126091,1,2
256,256,126520,1,2
192,64,126948,6,0,B|128:64|128:128|48:128,2,130
320,64,127591,1,8
320,64,127698,1,8
320,64,127805,2,0,B|384:64|384:128|464:128,2,130
192,64,128448,1,8
192,64,128555,1,8
192,64,128662,6,0,B|240:128|176:208,1,130,2|8
320,64,129091,2,0,B|272:128|336:208,1,130,2|8
256,336,129520,6,0,B|256:192,2,130,2|0|6
256,206,130162,1,0
256,208,130377,1,8
160,272,130591,5,0
96,272,130698,1,0
160,272,130805,1,8
352,224,131020,1,0
416,224,131127,1,0
352,224,131234,1,8
160,176,131448,5,0
96,176,131555,1,0
160,176,131662,1,8
352,128,131877,1,0
416,128,131984,1,0
352,128,132091,1,8
160,112,132305,5,2
352,64,132520,1,2
160,48,132734,1,2
256,88,132948,5,8
256,152,133055,1,0
256,216,133162,1,8
256,280,133270,1,0
256,344,133377,1,8
256,216,133591,1,4
320,320,133805,6,0,B|384:320|384:256|464:256,2,130
192,320,134448,1,8
192,320,134555,1,8
192,320,134662,2,0,B|128:320|128:256|48:256,2,130
320,320,135305,1,8
320,320,135412,1,8
320,320,135519,6,0,B|272:256|336:176,1,130,2|8
192,320,135948,2,0,B|240:256|176:176,1,130,2|8
256,48,136377,6,0,B|256:192,2,130,2|0|6
256,178,137019,1,0
256,176,137234,1,8
352,272,137448,5,0
416,272,137555,1,0
352,272,137662,1,8
160,224,137877,1,0
96,224,137984,1,0
160,224,138091,1,8
352,176,138305,5,0
416,176,138412,1,0
352,176,138519,1,8
160,128,138734,1,0
96,128,138841,1,0
160,128,138948,1,8
352,112,139162,5,2
160,64,139377,1,2
352,48,139591,1,2
256,296,139805,5,8
256,232,139912,1,0
256,168,140019,1,8
256,104,140127,1,0
256,40,140234,1,8
256,40,140448,1,4
176,192,140662,6,0,B|144:240|144:240|96:208|48:240,1,130,8|0
112,160,140984,1,0
48,128,141091,2,0,B|80:80|80:80|128:112|176:80,1,130,2|0
336,192,141520,6,0,B|368:240|368:240|416:208|464:240,1,130,8|0
400,160,141842,1,0
464,128,141949,2,0,B|432:80|432:80|384:112|336:80,1,130,2|0
224,80,142377,5,4
64,192,142591,2,0,B|96:128,1,65,8|0
93,133,142805,2,0,B|160:128,1,65,2|0
157,128,143020,2,8,B|192:192,1,65
188,185,143234,2,0,B|144:240,1,65,0|8
147,235,143448,2,8,B|80:224,2,65
288,80,144091,5,4
448,192,144305,2,0,B|416:128,1,65,8|0
418,133,144519,2,0,B|352:128,1,65,2|0
354,128,144734,2,8,B|320:192,1,65
323,185,144948,2,0,B|368:240,1,65,0|8
364,235,145162,2,8,B|432:224,4,65
256,112,145805,5,2
160,192,146020,1,0
128,256,146127,1,2
256,304,146341,1,0
256,240,146448,1,2
256,176,146555,1,0
384,256,146770,1,2
352,192,146877,1,0
384,256,146984,1,2
256,48,147305,5,4
256,192,147520,12,4,153948
224,320,154591,6,2,B|16:320,1,195
224,256,155234,1,2
224,256,155341,1,0
384,256,155555,1,2
256,128,155877,5,4
256,128,156091,1,4
288,320,156305,6,2,B|496:320,1,195
288,256,156948,1,2
288,256,157055,1,0
128,256,157270,1,2
256,128,157591,5,4
256,128,157805,1,4
256,336,158020,6,2,B|160:272|256:144,1,195
224,32,158663,1,2
288,32,158770,1,0
256,192,158984,1,2
336,80,159305,5,4
176,80,159520,1,4
256,336,159734,6,2,B|352:272|256:144,1,195
160,80,160377,6,2,B|80:80,2,65
352,80,160805,6,2,B|432:80,2,65
416,320,161234,6,0,B|464:256|432:192,1,130,8|0
384,256,161555,2,0,B|336:192|368:128,1,130,8|0
432,112,161877,1,12
256,48,162091,5,8
320,48,162198,1,0
432,48,162413,1,8
256,320,162734,5,0
96,320,162948,6,0,B|48:256|80:192,1,130,8|0
128,256,163269,2,0,B|176:192|144:128,1,130,8|0
80,112,163591,1,12
256,48,163805,5,8
192,48,163912,1,0
80,48,164127,1,8
256,320,164448,5,0
336,224,164663,6,0,B|336:128|272:96,1,130,12|0
222,108,164984,2,0,B|176:129|176:225,1,130,8|0
256,192,165305,1,8
288,320,165520,5,8
224,320,165627,1,0
256,192,165841,1,8
256,48,166163,5,0
176,224,166377,6,0,B|176:128|240:96,1,130,12|0
291,108,166698,2,0,B|336:129|336:225,1,130,8|0
256,192,167019,1,8
336,320,167234,6,2,B|416:320,2,65
176,320,167663,6,2,B|96:320,2,65
128,64,168091,5,0
128,128,168198,1,8
128,192,168305,1,8
128,256,168412,1,0
128,256,168627,2,8,B|208:256,1,65
384,64,168948,5,0
384,128,169055,1,8
384,192,169162,1,8
384,256,169269,1,0
384,256,169484,2,8,B|304:256,1,65
128,320,169805,5,0
128,256,169912,1,8
128,192,170019,1,8
128,128,170126,1,0
128,128,170341,2,8,B|208:128,1,65
384,320,170662,5,0
384,256,170769,1,8
384,192,170876,1,8
384,128,170983,1,0
384,128,171198,2,8,B|304:128,1,65
256,288,171520,5,0
192,304,171627,1,8
128,304,171734,1,8
80,256,171841,1,0
80,256,172055,2,8,B|80:176,1,65
256,96,172377,5,0
320,80,172484,1,8
384,80,172591,1,8
432,128,172698,1,0
432,128,172912,2,8,B|432:208,1,65
256,192,173234,5,0
256,192,173341,1,8
256,192,173448,1,8
256,192,173555,1,0
256,192,173770,2,8,B|256:112,1,65
336,320,174091,6,8,B|400:272,2,65
176,64,174520,6,8,B|112:112,2,65
256,288,174948,5,0
320,304,175055,1,8
384,304,175162,1,8
432,256,175269,1,0
432,256,175483,2,8,B|432:176,1,65
256,96,175805,5,0
192,80,175912,1,8
128,80,176019,1,8
80,128,176126,1,0
80,128,176340,2,8,B|80:208,1,65
256,192,176662,5,0
256,192,176769,1,8
256,192,176876,1,8
256,192,176983,1,0
256,192,177198,2,8,B|256:272,1,65
144,304,177520,5,0
368,304,177734,1,8
144,240,177948,1,0
368,240,178162,1,8
192,64,178377,6,0,B|48:64|48:176|48:176|112:176,1,260,0|8
320,64,179234,2,0,B|464:64|464:176|464:176|400:176,1,260,0|8
256,192,180091,12,0,181805
