osu file format v7

[General]
AudioFilename: kanojo.mp3
AudioLeadIn: 0
PreviewTime: 15406
Countdown: 1
SampleSet: Normal
StackLeniency: 0.5
Mode: 0
LetterboxInBreaks: 1

[Editor]
DistanceSpacing: 1
BeatDivisor: 4
GridSize: 8

[Metadata]
Title:Kanojo Ga Ichiban Shoujo Nanoka?
Artist:forestpireo
Creator:Teara
Version:Hard
Source:Touhou
Tags:Kana Satuki ga Tenkomori UN Owen Remix Starrodkirby86 sesito71 Metroid Flandre Scarlet

[Difficulty]
HPDrainRate:6
CircleSize:5
OverallDifficulty:7
SliderMultiplier:1.8
SliderTickRate:2

[Events]
//Background and Video events
0,0,"blonde_hair-flandre_scarlet-guitar-long_hair-touhou.jpg"
//Break Periods
2,36077,42048
2,90934,96905
//Storyboard Layer 0 (Background)
//Storyboard Layer 1 (Fail)
//Storyboard Layer 2 (Pass)
//Storyboard Layer 3 (Foreground)
//Storyboard Sound Samples
//Background Colour Transformations
3,100,163,162,255

[TimingPoints]
15520,428.571428571429,4,1,0,70,1,0
125226,-100,4,1,0,45,0,1
126511,-100,4,1,0,70,0,1
153520,-100,4,1,0,70,0,0

[Colours]
Combo1 : 255,0,0
Combo2 : 128,0,128
Combo3 : 255,0,128

[HitObjects]
256,48,15519,1,4
256,272,15948,1,0
320,64,16377,5,8
392,112,16591,1,0
440,192,16805,1,0
392,272,17019,1,0
320,328,17234,1,8
256,264,17448,2,0,B|288:216|248:167,2,90,0|0|0
192,328,18091,1,8
120,272,18305,1,0
72,192,18519,1,0
72,192,18948,5,8
104,104,19162,1,0
184,64,19377,1,0
264,112,19591,2,0,B|312:80|360:120,2,90,0|8|0
208,184,20234,5,0
272,248,20448,1,0
336,184,20662,1,8
272,120,20877,1,0
208,248,21091,5,0
336,248,21305,1,0
336,120,21520,1,8
208,120,21734,1,0
272,184,21948,1,0
88,192,22377,5,8
32,120,22591,1,0
120,112,22805,1,0
248,240,23234,5,8
312,304,23448,1,0
336,216,23662,1,0
256,56,24091,5,8
328,112,24305,1,0
400,56,24520,1,0
328,112,24734,1,0
328,112,24841,1,0
192,112,25162,1,0
192,112,25377,1,0
329,224,25805,5,8
240,240,26020,1,0
264,157,26234,1,0
350,137,26448,1,0
414,204,26662,1,8
386,293,26877,1,0
300,313,27091,1,0
329,224,27305,1,0
240,240,27520,1,8
256,192,27627,12,4,28805
256,32,29448,5,8
256,160,29770,1,0
376,96,30091,1,8
376,96,30198,1,0
216,96,30412,1,8
256,160,31162,5,8
256,288,31484,1,0
136,224,31805,1,8
136,224,31912,1,0
296,224,32127,1,8
296,224,32877,5,8
424,224,33198,1,0
360,104,33520,1,8
360,104,33627,1,0
360,256,33841,1,8
360,256,34591,5,8
224,256,34912,1,0
176,128,35234,1,8
136,160,35341,1,8
128,200,35448,1,8
176,128,35662,1,8
208,96,35770,1,8
216,56,35877,1,8
256,336,42948,5,4
96,192,43377,1,0
256,48,43805,1,8
416,192,44234,1,0
256,120,44662,1,8
256,272,44984,1,8
144,200,45305,2,0,B|-8:152|174:85,1,180,8|4
80,272,46162,5,8
80,272,46377,1,8
256,272,46805,1,0
256,88,47234,1,8
256,272,47662,1,0
328,104,48091,5,8
184,104,48412,1,8
256,224,48734,2,0,C|256:96,1,90,8|4
256,312,49377,5,8
128,192,49805,1,0
256,64,50234,1,8
384,192,50662,1,0
200,192,51091,1,8
384,192,51519,5,8
288,96,51841,1,8
288,232,52162,2,0,B|304:352|160:328,1,180,8|4
256,368,52805,5,8
128,240,53234,1,0
256,112,53662,1,8
128,240,54091,1,0
256,112,54519,1,8
384,240,54948,5,8
320,112,55269,1,8
320,248,55591,1,8
320,248,55805,1,8
136,248,56234,1,8
296,304,56662,6,0,B|248:320|200:304,1,90,8|0
72,240,57091,2,0,B|56:192|75:144,1,90,0|0
208,64,57519,2,0,B|256:48|303:65,1,90,8|0
440,144,57948,2,0,B|456:192|440:234,1,90,0|0
256,192,58377,6,0,C|346:192,1,90,8|0
256,192,58805,2,0,C|256:282,1,90,0|0
256,192,59234,2,0,C|166:192,1,90,8|0
104,256,59662,1,4
104,256,59877,1,4
16,192,60091,6,8,B|16:256,1,45
176,192,60519,5,0
176,192,60627,1,0
344,192,60948,6,8,B|344:128,1,45,8|8
496,192,61377,5,0
496,192,61484,1,0
368,32,61805,5,8
144,32,62234,1,0
256,224,62662,1,8
496,192,63091,6,0,B|272:-48|14:205,2,540,0|8|8
496,192,66091,1,8
256,320,66519,1,8
32,192,66948,5,8
96,256,67162,1,0
160,192,67377,1,8
96,128,67591,1,0
32,192,67805,1,8
96,256,68019,1,0
160,192,68234,1,8
96,128,68448,1,0
96,192,68662,5,8
96,192,68769,1,0
96,192,68877,1,0
96,192,68984,1,0
96,192,69091,1,8
96,192,69198,1,0
96,192,69305,1,0
96,192,69412,1,0
96,192,69519,1,8
24,240,69734,6,0,B|120:304|184:200,1,180
256,192,70377,1,4
256,192,70805,1,8
256,192,71234,5,0
256,104,71448,1,0
344,104,71662,1,8
256,104,71877,1,0
168,104,72091,1,0
256,104,72305,1,0
200,32,72519,1,8
336,32,72841,5,4
320,168,73162,5,0
232,176,73377,1,8
160,232,73591,1,0
80,272,73805,1,0
40,192,74019,1,0
120,152,74234,1,8
160,232,74448,2,0,B|192:280|160:328,2,90,0|0|0
256,192,75091,5,8
318,254,75305,1,0
381,190,75519,1,0
317,126,75734,1,0
256,192,75948,2,0,B|232:152|160:160,2,90,8|0|0
318,254,76591,1,0
380,192,76805,1,8
208,80,77234,5,8
296,112,77448,1,0
224,168,77662,1,8
96,295,78091,5,8
184,296,78305,1,0
144,216,78519,1,8
32,80,78948,5,8
120,96,79162,1,0
208,80,79377,1,8
208,80,79591,1,0
208,80,79698,1,4
352,80,80019,1,0
280,136,80234,1,4
368,288,80662,5,8
256,248,80877,1,0
144,280,81091,1,0
256,296,81305,1,0
368,288,81519,1,8
256,248,81734,1,0
144,232,81948,1,0
256,200,82162,1,0
368,232,82377,1,12
256,192,82484,12,4,83662
256,192,84305,5,8
96,192,84627,1,0
176,48,84948,2,0,B|176:112,1,45,8|0
176,208,85269,1,8
176,208,86019,5,8
336,208,86341,1,0
256,64,86662,1,8
256,112,86769,1,0
256,224,86984,1,8
256,224,87734,5,8
416,224,88055,1,0
336,88,88377,2,0,B|336:168,1,45,8|0
336,240,88698,1,8
32,192,89448,5,8
192,192,89769,1,0
352,192,90091,5,8
304,208,90198,1,0
256,224,90305,1,8
352,144,90519,1,8
400,128,90627,1,0
448,112,90734,1,8
80,288,97805,5,12
256,160,98234,1,0
432,288,98662,1,8
144,160,99091,5,0
304,96,99519,1,8
336,224,99841,1,8
176,224,100162,2,0,B|176:352|320:320,1,180,8|4
80,320,101019,5,4
80,208,101234,1,8
256,320,101662,1,0
256,96,102091,1,8
448,208,102519,1,0
224,208,102948,5,8
384,208,103269,1,8
224,208,103591,1,8
112,208,103805,1,4
320,208,104234,1,8
32,64,104662,5,0
256,64,105091,1,8
480,64,105519,1,0
256,128,105948,1,8
32,128,106377,1,8
200,128,106805,2,0,B|200:207|328:208|312:112,2,180,0|0|8
256,56,107877,5,4
256,208,108091,1,8
256,208,108519,1,0
480,208,108948,1,8
256,208,109377,1,0
32,208,109805,5,8
144,80,110127,1,8
256,208,110448,1,8
144,176,110662,1,8
144,176,111091,1,4
368,176,111519,5,8
464,176,111734,1,0
368,176,111948,1,0
464,176,112162,1,0
416,112,112377,5,8
416,240,112591,1,0
416,112,112805,1,0
192,112,113234,5,8
192,240,113448,1,0
192,112,113662,1,0
192,240,113877,1,0
192,176,114091,1,8
368,288,114519,5,8
368,64,114948,5,8
368,64,115055,1,0
256,272,115377,5,8
256,272,115484,1,0
160,64,115805,5,8
160,64,115912,1,0
256,192,116234,5,8
256,192,116341,1,0
96,192,116662,5,8
417,191,117091,1,8
256,112,117519,1,8
256,296,117948,1,8
256,208,118162,1,0
320,144,118377,5,0
408,144,118591,1,0
408,232,118805,1,8
408,144,119019,1,0
408,56,119234,1,0
408,144,119448,1,0
320,144,119662,1,12
256,312,120091,5,8
80,256,120519,1,0
48,80,120948,1,8
224,128,121377,1,0
288,304,121805,5,8
288,304,122019,1,0
224,240,122234,5,0
224,240,122448,1,0
192,320,122662,5,8
192,320,122877,1,0
128,256,123091,5,0
128,256,123305,1,0
64,320,123519,5,8
80,304,123627,1,0
64,288,123734,1,0
80,272,123841,1,0
96,256,123948,1,8
80,240,124055,1,0
96,224,124162,1,0
80,208,124269,1,0
96,192,124377,1,12
448,48,125234,5,8
80,48,125662,1,8
448,160,126091,1,8
80,160,126519,1,8
256,32,126948,5,8
192,96,127162,1,0
320,96,127377,1,0
288,160,127591,2,0,B|240:136|192:168,3,90,0|8|0|0
160,224,128448,5,0
256,216,128662,1,8
352,224,128877,1,0
304,288,129091,1,0
208,288,129305,1,0
256,352,129519,2,0,B|256:240,2,90,8|0|4
80,224,130377,5,8
144,176,130591,1,0
80,128,130805,1,0
160,96,131019,1,0
80,48,131234,1,8
160,96,131448,1,0
80,128,131662,1,0
144,176,131877,6,0,B|67:254,2,90,0|8|0
80,128,132519,1,0
160,96,132734,1,0
224,144,132948,1,8
208,224,133162,1,0
144,176,133377,1,4
496,48,133805,5,8
400,48,134019,1,0
448,128,134234,1,0
400,48,134448,1,0
448,128,134662,1,8
400,48,134877,6,0,B|442:27|515:60,2,90,0|0|0
448,128,135519,1,8
448,128,135734,1,0
432,208,135948,2,0,B|456:216|480:209,2,45,0|0|0
464,288,136377,1,8
384,272,136591,1,0
352,192,136805,1,4
256,96,137234,5,8
352,192,137448,1,0
256,288,137662,1,0
160,192,137877,1,0
256,96,138091,1,8
352,192,138305,1,0
256,288,138519,1,0
160,192,138734,1,0
256,192,138948,12,4,139805
304,288,140019,6,2,B|384:352|464:256,1,180
464,176,140662,1,8
368,176,140877,1,0
272,176,141091,1,0
272,48,141519,5,0
368,48,141734,1,0
464,48,141948,1,8
416,128,142162,2,0,B|368:192|256:96,1,180
256,192,142805,5,8
128,192,143127,1,8
192,64,143448,1,8
192,160,143662,2,0,B|194:273|247:345,1,180,8|4
144,352,144305,5,0
80,288,144519,1,8
208,240,144841,1,8
128,128,145162,1,0
192,72,145377,1,8
280,48,145591,1,0
368,64,145805,6,0,B|432:112|336:224,1,180,8|8
424,256,146448,1,8
368,320,146662,2,0,B|273:320,2,90,0|0|8
256,32,147520,5,4
256,176,147948,1,8
256,176,148162,2,0,B|256:272,1,90,0|0
144,344,148698,1,4
48,256,149020,5,0
112,224,149234,1,8
160,176,149448,1,0
192,112,149662,1,0
320,152,149984,1,8
312,288,150305,2,0,B|273:321|228:285,1,90,8|0
384,304,150948,5,8
464,240,151162,1,0
384,176,151377,1,0
272,64,151698,5,4
160,176,152020,5,0
80,112,152234,1,8
176,64,152448,1,0
160,176,152662,2,2,C|144:320|80:240|224:240,1,360,8|0
256,48,154591,5,8
256,208,154912,1,0
112,128,155234,2,0,B|48:128,1,45,8|0
176,128,155555,1,8
480,336,156305,5,8
368,224,156627,1,0
256,112,156948,2,0,B|256:176,1,45,8|0
256,48,157270,1,8
16,336,158020,5,8
128,224,158341,1,0
256,112,158662,2,0,B|256:176,1,45,8|0
256,48,158984,1,8
256,352,159734,5,8
256,192,160055,1,0
256,32,160377,1,8
224,64,160484,1,0
192,96,160591,1,8
255,159,160805,1,8
287,127,160912,1,0
319,95,161020,1,8
128,96,161448,5,8
16,208,161770,1,0
176,256,162091,2,0,B|224:320,1,45,8|0
128,208,162412,1,8
368,96,163162,5,8
480,208,163484,1,0
320,240,163805,2,0,B|256:288,1,45,8|0
368,208,164127,1,8
256,48,164877,5,8
256,208,165198,1,0
112,128,165520,2,0,B|32:128,1,45,8|0
176,128,165841,1,8
467,51,166591,5,8
384,128,166805,1,0
336,112,166912,1,0
288,128,167020,1,8
336,224,167234,1,8
336,64,167555,1,8
64,320,168305,5,8
64,160,168627,1,0
200,160,168948,2,0,B|155:160,1,45,8|0
176,48,169270,1,8
432,320,170020,5,8
432,320,170341,1,0
432,160,170662,1,8
432,160,170770,1,0
432,160,170984,1,8
64,64,171734,5,8
64,64,172055,1,0
64,224,172377,1,8
64,224,172484,1,0
64,224,172698,1,8
448,224,173448,5,8
336,112,173770,1,0
176,48,174091,1,8
144,80,174198,1,0
176,112,174305,1,8
266,112,174520,1,8
298,80,174627,1,0
336,112,174734,1,8
256,352,175162,6,0,B|304:304|208:256|288:192,1,135,8|8
256,352,175805,2,0,B|176:352,1,45,8|0
320,352,176127,1,8
304,80,176877,6,0,B|240:144|160:64,1,135,8|8
304,80,177520,2,0,B|349:80,1,45,8|0
240,80,177841,1,8
48,320,178591,6,0,B|105:379|169:315,1,135,8|8
112,160,179234,2,0,B|112:240,1,45,8|0
112,96,179555,1,8
467,51,180305,5,8
384,128,180520,1,8
368,176,180627,1,0
384,224,180734,1,8
256,192,180948,1,8
96,192,181270,1,4
