osu file format v14

[General]
AudioFilename: For King Country - Fix My Eyes.mp3
AudioLeadIn: 0
PreviewTime: 43395
Countdown: 0
SampleSet: Soft
StackLeniency: 0.7
Mode: 0
LetterboxInBreaks: 0
WidescreenStoryboard: 0

[Editor]
DistanceSpacing: 1.2
BeatDivisor: 4
GridSize: 4
TimelineZoom: 1.5

[Metadata]
Title:Fix My Eyes
TitleUnicode:Fix My Eyes
Artist:for KING & COUNTRY
ArtistUnicode:for KING & COUNTRY
Creator:-Nya-
Version:Normal
Source:
Tags:faith grace christian god
BeatmapID:695303
BeatmapSetID:299264

[Difficulty]
HPDrainRate:3
CircleSize:3
OverallDifficulty:3
ApproachRate:4
SliderMultiplier:1.4
SliderTickRate:1

[Events]
//Background and Video events
0,0,"praying.jpg",0,0
//Break Periods
2,125195,133275
//Storyboard Layer 0 (Background)
//Storyboard Layer 1 (Fail)
//Storyboard Layer 2 (Pass)
//Storyboard Layer 3 (Foreground)
//Storyboard Sound Samples

[TimingPoints]
10095,600,4,2,1,30,1,0
43695,-100,4,2,1,50,0,1
63795,-100,4,2,1,30,0,0
65295,-100,4,2,1,70,0,1
74895,-100,4,2,1,30,0,0
94095,-100,4,2,1,50,0,1
114495,-100,4,2,1,30,0,0
115695,-100,4,2,1,70,0,1
125295,-100,4,2,1,30,0,0
151695,-100,4,2,1,40,0,0
170895,-100,4,2,1,50,0,1
191295,-100,4,2,1,30,0,0
192495,-100,4,2,1,50,0,1
211695,-100,4,2,1,50,0,0

[Colours]
Combo1 : 255,140,140
Combo2 : 147,147,255
Combo3 : 255,128,191
Combo4 : 83,169,255

[HitObjects]
128,100,10095,6,0,P|196:72|272:72,1,140,8|2,3:3|0:0,0:0:0:0:
340,104,10995,1,8,0:0:0:0:
384,176,11295,2,0,B|372:208|384:244|384:244|364:288|384:328,1,140,0|0,0:0|0:0,0:0:0:0:
308,360,12195,1,8,0:0:0:0:
224,348,12495,6,0,B|152:344|152:344|84:356,1,140,8|2,3:3|0:0,0:0:0:0:
24,300,13395,1,8,0:0:0:0:
100,268,13695,2,0,P|112:200|96:128,1,140,0|2,0:0|0:0,0:0:0:0:
56,60,14595,1,8,0:0:0:0:
136,36,14895,6,0,B|184:52|224:28|224:28|276:52,1,140,8|2,3:3|0:0,0:0:0:0:
332,104,15795,1,8,0:0:0:0:
384,36,16095,2,0,P|416:104|368:180,1,140,0|2,0:0|0:0,0:0:0:0:
324,208,16995,1,8,0:0:0:0:
256,256,17295,6,0,L|132:332,2,140,8|10|8,3:3|3:3|3:3,0:0:0:0:
160,120,19095,2,0,L|80:168,1,70,10|8,3:3|0:0,0:0:0:0:
20,184,19695,6,0,P|12:108|64:36,1,140,8|2,3:3|0:0,0:0:0:0:
120,28,20595,1,8,0:0:0:0:
204,32,20895,2,0,L|284:40,1,70,0|8,0:0|0:0,0:0:0:0:
348,76,21495,2,0,P|352:120|348:152,1,70,2|8,0:0|0:0,0:0:0:0:
284,200,22095,5,2,0:0:0:0:
304,280,22395,1,8,0:0:0:0:
384,300,22695,1,0,0:0:0:0:
452,252,22995,1,8,0:0:0:0:
444,168,23295,6,0,L|428:84,1,70,2|8,0:0|0:0,0:0:0:0:
352,76,23895,2,0,P|312:64|272:64,1,70,2|8,0:0|0:0,0:0:0:0:
240,64,24345,1,2,0:0:0:0:
200,72,24495,6,0,L|136:128,1,70,8|8,3:3|0:0,0:0:0:0:
124,200,25095,2,0,L|188:256,1,70,0|8,0:0|0:0,0:0:0:0:
244,296,25695,1,2,0:0:0:0:
324,268,25995,1,8,0:0:0:0:
364,192,26295,2,0,P|360:140|372:104,1,70,2|8,0:0|0:0,0:0:0:0:
444,152,26895,6,0,P|432:72|368:36,1,140,2|0,0:0|0:0,0:0:0:0:
304,48,27795,1,8,0:0:0:0:
224,76,28095,2,0,L|148:128,1,70,0|8,0:0|0:0,0:0:0:0:
208,188,28695,2,0,L|265:148,1,70,2|8,0:0|0:0,0:0:0:0:
348,128,29295,5,4,0:0:0:0:
352,212,29595,2,0,P|340:252|344:292,1,70,8|2,0:0|0:0,0:0:0:0:
404,336,30195,1,8,0:0:0:0:
324,360,30495,2,0,P|256:376|180:356,1,140,0|2,0:0|0:0,0:0:0:0:
120,312,31395,1,8,0:0:0:0:
108,228,31695,5,8,3:3:0:0:
152,156,31995,2,0,L|224:112,2,70,8|0|8,0:0|0:0|0:0,0:0:0:0:
200,224,32895,2,0,L|280:176,1,70,2|8,0:0|0:0,0:0:0:0:
336,152,33495,2,0,P|384:148|408:156,1,70,2|8,0:0|0:0,0:0:0:0:
476,200,34095,6,0,B|492:240|476:272|476:272|480:340,1,140,2|0,0:0|0:0,0:0:0:0:
396,356,34995,1,8,0:0:0:0:
312,356,35295,2,0,L|192:352,1,105,0|2,0:0|0:0,0:0:0:0:
128,256,36195,2,0,B|136:184|136:184|120:104,1,140,8|8,0:0|0:0,0:0:0:0:
112,36,37095,2,0,L|180:20,1,70,0|8,0:0|0:0,0:0:0:0:
264,36,37695,5,2,0:0:0:0:
300,112,37995,1,8,0:0:0:0:
284,196,38295,1,2,0:0:0:0:
212,236,38595,1,8,0:0:0:0:
168,164,38895,6,0,P|128:224|156:296,1,140,8|0,1:1|0:0,0:0:0:0:
212,336,39795,1,0,0:0:0:0:
292,316,40095,2,0,L|408:228,1,140,8|0,1:1|0:0,0:0:0:0:
432,152,40995,1,0,0:0:0:0:
384,84,41295,2,0,B|312:108|312:108|268:108,2,105,8|8|8,1:1|1:1|3:3,0:0:0:0:
432,152,42495,2,0,B|328:188|328:188|284:188,1,140,8|0,1:1|0:0,0:0:0:0:
212,188,43395,1,0,0:0:0:0:
176,112,43695,6,0,B|132:140|128:176|132:208|132:208|76:224,1,140,4|0,0:0|0:0,0:0:0:0:
36,264,44595,1,2,0:0:0:0:
96,324,44895,2,0,P|152:300|240:324,1,140,8|0,1:1|0:0,0:0:0:0:
304,284,45795,2,0,L|376:224,1,70,0|2,0:0|1:1,0:0:0:0:
388,160,46395,6,0,L|340:80,1,70,2|0,0:0|0:0,0:0:0:0:
288,44,46995,1,0,0:0:0:0:
208,64,47295,2,0,P|180:100|76:104,1,140,8|0,1:1|0:0,0:0:0:0:
24,160,48195,1,0,0:0:0:0:
60,236,48495,6,0,L|168:336,1,140,2|0,1:1|0:0,0:0:0:0:
244,356,49395,2,0,P|280:352|336:332,1,70,0|8,0:0|1:1,0:0:0:0:
368,280,49995,2,0,L|412:192,1,70
420,136,50595,1,2,0:0:0:0:
360,80,50895,6,0,B|312:72|268:92|268:92|204:76,1,140,2|0,1:1|0:0,0:0:0:0:
140,76,51795,1,0,0:0:0:0:
76,128,52095,2,0,L|100:216,1,70,8|2,1:1|0:0,0:0:0:0:
136,268,52695,2,0,L|216:288,1,70,8|8,1:1|1:1,0:0:0:0:
288,292,53295,6,0,P|320:280|304:192,1,140,4|0,0:0|0:0,0:0:0:0:
236,152,54195,1,2,0:0:0:0:
280,80,54495,2,0,B|356:76|356:76|440:108,2,140,8|0|2,1:1|0:0|1:1,0:0:0:0:
196,80,55995,5,0,0:0:0:0:
128,128,56295,1,0,0:0:0:0:
112,212,56595,1,2,0:0:0:0:
140,292,56895,2,0,P|84:296|56:276,1,70,8|0,1:1|0:0,0:0:0:0:
28,220,57495,2,0,L|16:124,1,70
16,68,58095,6,0,B|68:24|68:24|148:16,1,140,2|0,1:1|0:0,0:0:0:0:
224,28,58995,1,0,0:0:0:0:
304,52,59295,2,0,P|344:76|368:184,1,140,8|0,1:1|0:0,0:0:0:0:
356,240,60195,1,2,0:0:0:0:
336,320,60495,6,0,P|416:304|440:240,1,140,2|0,1:1|0:0,0:0:0:0:
356,240,61395,1,2,0:0:0:0:
276,260,61695,1,8,1:1:0:0:
196,232,61995,1,2,0:0:0:0:
156,156,62295,2,0,L|84:112,1,70
40,56,62895,2,0,P|92:36|144:52,2,105,8|0|0,1:1|0:0|0:0,0:0:0:0:
32,140,64095,6,0,P|20:184|108:216,1,140,8|0,1:1|0:0,0:0:0:0:
248,284,65295,6,0,L|335:341,2,105,4|8|2,0:0|1:1|0:0,0:0:0:0:
236,200,66495,2,0,L|132:132,2,105.000004005432,0|8|2,0:0|1:1|0:0,0:0:0:0:
320,216,67695,6,0,P|388:216|472:168,1,140,4|0,0:0|0:0,0:0:0:0:
432,104,68595,1,2,0:0:0:0:
368,52,68895,2,0,P|302:32|240:60,1,140
176,116,69795,1,2,0:0:0:0:
120,180,70095,6,0,L|72:288,2,105,4|8|2,0:0|1:1|0:0,0:0:0:0:
204,196,71295,2,0,L|160:304,2,105,0|8|2,0:0|1:1|0:0,0:0:0:0:
288,184,72495,6,0,P|328:124|292:76,1,140,4|0,0:0|0:0,0:0:0:0:
216,44,73395,1,2,0:0:0:0:
136,68,73695,2,0,L|24:180,1,140
56,248,74595,1,2,0:0:0:0:
128,292,74895,6,0,B|183:283|183:283|215:255|259:251,1,140,8|2,3:3|0:0,0:0:0:0:
340,232,75795,1,0,0:0:0:0:
412,188,76095,2,0,L|352:100,2,105,0|2|0,0:0|0:0|0:0,0:0:0:0:
456,260,77295,6,0,P|480:232|468:128,1,140,2|2,0:0|0:0,0:0:0:0:
412,76,78195,1,8,0:0:0:0:
336,44,78495,2,0,P|260:68|192:40,1,140,2|2,0:0|0:0,0:0:0:0:
120,56,79395,1,8,0:0:0:0:
80,132,79695,6,0,B|92:200|92:200|80:276,1,140,8|2,3:3|0:0,0:0:0:0:
124,344,80595,1,8,0:0:0:0:
208,328,80895,2,0,L|304:280,2,105,0|2|8,0:0|0:0|0:0,0:0:0:0:
164,256,82095,6,0,P|208:204|284:208,1,140,2|2,0:0|0:0,0:0:0:0:
360,220,82995,1,8,0:0:0:0:
428,272,83295,2,0,P|440:200|388:136,1,140,2|2,0:0|0:0,0:0:0:0:
324,124,84195,1,0,0:0:0:0:
240,132,84495,6,0,B|202:132|182:96|182:96|150:84|142:44,1,140,8|0,1:1|0:0,0:0:0:0:
60,32,85395,1,8,1:1:0:0:
48,116,85695,2,0,L|32:260,1,140,2|2,0:0|0:0,0:0:0:0:
92,316,86595,1,8,1:1:0:0:
172,336,86895,6,0,B|248:340|248:340|302:306,1,140,2|2,0:0|0:0,0:0:0:0:
372,260,87795,1,8,1:1:0:0:
448,296,88095,2,0,P|456:240|384:176,1,140,2|2,0:0|0:0,0:0:0:0:
324,160,88995,1,8,1:1:0:0:
244,136,89295,6,0,P|241:83|257:34,2,105,2|0|8,0:0|0:0|1:1,0:0:0:0:
168,168,90495,2,0,L|136:64,1,105,2|0,0:0|0:0,0:0:0:0:
12,92,91395,1,8,1:1:0:0:
28,176,91695,1,2,0:0:0:0:
64,252,91995,6,0,B|88:280|96:316|96:316|168:344,1,140,0|8,0:0|1:1,0:0:0:0:
240,316,92895,2,0,L|304:264,1,70,8|8,1:1|1:1,0:0:0:0:
324,192,93495,2,0,P|340:156|336:112,1,70,8|0,1:1|0:0,0:0:0:0:
292,56,94095,6,0,B|252:64|216:56|216:56|220:108|184:136,1,140,4|0,0:0|0:0,0:0:0:0:
140,176,94995,1,0,0:0:0:0:
68,216,95295,2,0,B|88:256|136:260|136:260|132:320,2,140,8|0|2,1:1|0:0|1:1,0:0:0:0:
28,140,96795,5,0,0:0:0:0:
68,64,97095,1,0,0:0:0:0:
148,44,97395,1,2,0:0:0:0:
224,80,97695,2,0,P|256:100|316:112,1,70,8|0,1:1|0:0,0:0:0:0:
368,128,98295,2,0,L|424:208,1,70
444,260,98895,6,0,P|436:308|352:340,2,140,2|0|8,1:1|0:0|1:1,0:0:0:0:
456,176,100395,2,0,L|432:100,1,70,2|0,0:0|0:0,0:0:0:0:
376,48,100995,1,2,0:0:0:0:
292,44,101295,6,0,B|220:60|220:60|168:112,1,140,2|0,1:1|0:0,0:0:0:0:
112,164,102195,1,2,0:0:0:0:
100,248,102495,2,0,P|120:284|156:312,1,70
224,304,103095,2,0,P|249:279|265:248,1,70,8|8,1:1|1:1,0:0:0:0:
296,172,103695,6,0,P|296:132|392:112,1,140,4|0,0:0|0:0,0:0:0:0:
452,144,104595,1,2,0:0:0:0:
448,228,104895,2,0,L|376:352,2,140,8|0|2,1:1|0:0|1:1,0:0:0:0:
452,144,106395,5,2,0:0:0:0:
396,80,106695,1,0,0:0:0:0:
312,80,106995,2,0,L|224:120,1,70,2|8,0:0|1:1,0:0:0:0:
184,164,107595,1,0,0:0:0:0:
172,248,107895,2,0,P|120:224|104:184,1,70
80,136,108495,6,0,L|172:16,1,140,2|0,1:1|0:0,0:0:0:0:
248,32,109395,1,2,0:0:0:0:
328,56,109695,2,0,L|400:128,2,70,8|2|0,1:1|0:0|0:0,0:0:0:0:
248,32,110595,1,2,0:0:0:0:
264,116,110895,6,0,L|368:216,1,140,2|0,1:1|0:0,0:0:0:0:
432,264,111795,1,0,0:0:0:0:
380,332,112095,2,0,P|336:348|284:352,1,70,8|2,1:1|0:0,0:0:0:0:
232,332,112695,2,0,B|220:288|180:272|180:272|176:196,1,140
168,132,113595,2,0,L|120:64,1,70,2|0,0:0|0:0,0:0:0:0:
56,32,114195,1,2,0:0:0:0:
48,116,114495,6,0,L|48:264,1,140,8|0,1:1|0:0,0:0:0:0:
300,252,115695,6,0,B|352:228|352:228|392:172,2,105,4|8|2,0:0|1:1|0:0,0:0:0:0:
216,256,116895,2,0,B|164:232|164:232|124:176,2,105,0|8|2,0:0|1:1|0:0,0:0:0:0:
260,184,118095,6,0,L|260:72,1,105,4|8,0:0|1:1,0:0:0:0:
140,40,118995,1,2,0:0:0:0:
88,104,119295,2,0,P|64:148|80:228,1,105,0|8,0:0|1:1,0:0:0:0:
136,308,120195,1,2,0:0:0:0:
220,312,120495,6,0,L|340:284,2,105,4|8|2,0:0|1:1|0:0,0:0:0:0:
136,308,121695,2,0,L|136:196,2,105,0|8|2,0:0|1:1|0:0,0:0:0:0:
52,292,122895,6,0,L|52:152,1,140,4|0,0:0|0:0,0:0:0:0:
80,72,123795,1,2,0:0:0:0:
160,52,124095,2,0,B|212:80|248:56|300:72,1,140,0|0,0:0|0:0,0:0:0:0:
368,116,124995,1,2,0:0:0:0:
124,88,134595,5,0,0:0:0:0:
160,164,134895,2,0,P|184:224|264:252,1,140,2|0,0:0|0:0,0:0:0:0:
332,252,135795,2,0,P|395:278|421:341,1,140,2|0,0:0|0:0,0:0:0:0:
336,340,136695,1,0,0:0:0:0:
252,340,136995,2,0,B|168:352|168:352|112:340,2,140,0|2|0,0:0|0:0|0:0,0:0:0:0:
236,88,139095,1,0,0:0:0:0:
172,32,139395,1,0,0:0:0:0:
96,68,139695,6,0,P|52:112|40:216,1,140,2|0,0:0|0:0,0:0:0:0:
60,264,140595,2,0,L|208:352,1,140,2|0,0:0|0:0,0:0:0:0:
264,332,141495,1,2,0:0:0:0:
328,276,141795,2,0,P|364:232|388:132,1,140,0|2,0:0|0:0,0:0:0:0:
368,72,142695,1,0,0:0:0:0:
200,68,143295,2,0,B|180:100|176:144|176:144|116:188,1,140,2|0,0:0|0:0,0:0:0:0:
68,236,144195,1,0,0:0:0:0:
32,312,144495,6,0,P|108:312|148:264,1,140,2|0,0:0|0:0,0:0:0:0:
232,268,145395,2,0,P|279:316|347:313,1,140,2|0,0:0|0:0,0:0:0:0:
416,264,146295,1,0,0:0:0:0:
412,180,146595,2,0,L|320:40,1,140,2|2,0:0|0:0,0:0:0:0:
335,63,148695,2,0,L|272:116,1,70,0|0,0:0|0:0,0:0:0:0:
220,164,149295,6,0,B|176:172|152:160|152:160|120:176|76:160,1,140,2|0,0:0|0:0,0:0:0:0:
36,92,150195,2,0,L|92:48,1,70,0|2,0:0|0:0,0:0:0:0:
176,44,150795,1,0,0:0:0:0:
252,84,151095,1,0,0:0:0:0:
312,240,151695,6,0,P|344:264|416:264,2,105,4|8|2,0:0|1:1|0:0,0:0:0:0:
200,240,152895,2,0,P|168:264|96:264,2,105,0|8|2,0:0|1:1|0:0,0:0:0:0:
252,172,154095,6,0,P|264:104|252:68,2,105,4|8|2,0:0|1:1|0:0,0:0:0:0:
168,172,155295,2,0,P|154:121|166:70,2,105,0|8|2,0:0|1:1|0:0,0:0:0:0:
220,240,156495,6,0,L|308:304,1,105,4|8,0:0|1:1,0:0:0:0:
424,340,157395,1,2,0:0:0:0:
436,256,157695,2,0,L|456:152,1,105,0|8,0:0|1:1,0:0:0:0:
344,96,158595,5,2,0:0:0:0:
260,104,158895,2,0,P|264:56|312:16,2,105,4|8|2,0:0|1:1|0:0,0:0:0:0:
256,188,160095,2,0,B|264:228|296:248|296:248|264:320,1,140,0|0,0:0|0:0,0:0:0:0:
200,352,160995,1,8,1:1:0:0:
120,324,161295,6,0,P|72:280|52:232,1,105,4|8,0:0|1:1,0:0:0:0:
44,120,162195,1,2,0:0:0:0:
112,72,162495,2,0,P|148:80|224:56,2,105,0|8|2,0:0|1:1|0:0,0:0:0:0:
44,120,163695,6,0,L|112:204,1,105,4|8,0:0|1:1,0:0:0:0:
204,288,164595,1,2,0:0:0:0:
288,272,164895,2,0,P|268:232|208:200,2,105,0|8|2,0:0|1:1|0:0,0:0:0:0:
348,332,166095,6,0,P|372:284|356:224,1,105,4|8,0:0|1:1,0:0:0:0:
288,136,166995,1,2,0:0:0:0:
216,92,167295,2,0,L|124:40,1,105,0|8,0:0|1:1,0:0:0:0:
52,144,168195,5,2,0:0:0:0:
68,228,168495,2,0,P|88:288|160:312,1,140,4|0,0:0|0:0,0:0:0:0:
240,296,169395,1,2,0:0:0:0:
308,248,169695,2,0,P|344:224|452:220,1,140,0|0,0:0|0:0,0:0:0:0:
224,84,170895,6,0,B|176:100|136:84|136:84|80:136,1,140,4|0,0:0|0:0,0:0:0:0:
68,196,171795,1,2,0:0:0:0:
76,280,172095,2,0,L|144:320,1,70,8|0,1:1|0:0,0:0:0:0:
220,316,172695,2,0,L|280:280,1,70,0|0,0:0|0:0,0:0:0:0:
344,224,173295,1,2,1:1:0:0:
352,140,173595,6,0,L|328:60,2,70,2|0|2,0:0|0:0|0:0,0:0:0:0:
344,224,174495,2,0,P|300:208|276:172,1,70,8|0,1:1|0:0,0:0:0:0:
232,124,175095,2,0,L|144:76,1,70
92,68,175695,6,0,B|40:116|40:116|32:184,1,140,2|0,1:1|0:0,0:0:0:0:
48,268,176595,1,2,0:0:0:0:
116,316,176895,2,0,P|172:288|248:304,1,140,8|0,1:1|0:0,0:0:0:0:
324,332,177795,1,2,0:0:0:0:
392,284,178095,6,0,B|424:236|392:184|424:144,1,140,4|0,0:0|0:0,0:0:0:0:
456,72,178995,1,2,0:0:0:0:
380,40,179295,2,0,L|308:40,1,70,8|2,1:1|0:0,0:0:0:0:
228,56,179895,1,8,1:1:0:0:
176,120,180195,1,8,1:1:0:0:
196,200,180495,6,0,P|120:184|92:120,1,140,4|0,0:0|0:0,0:0:0:0:
176,120,181395,1,2,0:0:0:0:
256,140,181695,2,0,P|280:192|276:232,1,70,8|0,1:1|0:0,0:0:0:0:
256,284,182295,2,0,L|336:348,1,70
392,356,182895,6,0,B|424:328|452:324|452:324|444:284|460:244,1,140,2|0,1:1|0:0,0:0:0:0:
452,168,183795,1,2,0:0:0:0:
412,96,184095,2,0,L|344:24,1,70,8|2,1:1|0:0,0:0:0:0:
280,44,184695,2,0,P|244:56|192:56,1,70,0|2,0:0|0:0,0:0:0:0:
128,76,185295,6,0,B|112:112|112:144|112:144|52:208,1,140,2|0,1:1|0:0,0:0:0:0:
44,276,186195,1,2,0:0:0:0:
120,316,186495,2,0,P|188:300|260:308,1,140,8|0,1:1|0:0,0:0:0:0:
340,320,187395,1,2,0:0:0:0:
388,252,187695,6,0,B|408:184|408:184|408:108,1,140,2|0,1:1|0:0,0:0:0:0:
380,36,188595,1,2,0:0:0:0:
296,44,188895,2,0,P|256:64|240:88,1,70,8|2,1:1|0:0,0:0:0:0:
232,168,189495,2,0,P|228:216|148:272,1,140
160,270,191295,6,0,L|84:144,1,140,0|0,0:0|0:0,0:0:0:0:
88,64,192195,1,0,0:0:0:0:
168,44,192495,6,0,P|224:32|276:40,2,105,4|8|2,0:0|1:1|0:0,0:0:0:0:
168,128,193695,2,0,P|224:140|276:132,2,105,0|8|2,0:0|1:1|0:0,0:0:0:0:
88,156,194895,6,0,L|56:272,1,105,4|8,0:0|1:1,0:0:0:0:
148,348,195795,1,2,0:0:0:0:
228,320,196095,2,0,P|268:272|268:212,1,105,0|8,0:0|1:1,0:0:0:0:
268,104,196995,1,2,0:0:0:0:
192,72,197295,6,0,B|136:64|136:64|88:72,2,105,4|8|2,0:0|1:1|0:0,0:0:0:0:
192,156,198495,2,0,B|136:164|136:164|88:156,2,105,0|8|2,0:0|1:1|0:0,0:0:0:0:
276,168,199695,6,0,P|292:216|256:308,2,140,4|0|0,0:0|0:0|0:0,0:0:0:0:
236,92,201195,2,0,L|312:56,1,70,0|0,0:0|0:0,0:0:0:0:
376,32,201795,1,0,0:0:0:0:
444,80,202095,6,0,B|436:124|448:160|448:160|404:212,1,140,4|0,0:0|0:0,0:0:0:0:
340,252,202995,1,2,0:0:0:0:
320,332,203295,2,0,P|264:284|264:216,1,140,0|0,0:0|0:0,0:0:0:0:
292,144,204195,1,2,0:0:0:0:
240,80,204495,6,0,L|148:24,2,105,4|8|2,0:0|1:1|0:0,0:0:0:0:
292,144,205695,2,0,P|244:164|176:132,2,105,0|8|0,0:0|1:1|0:0,0:0:0:0:
356,88,206895,6,0,L|456:128,1,105,4|8,0:0|1:1,0:0:0:0:
452,252,207795,1,2,0:0:0:0:
396,316,208095,2,0,P|328:300|280:308,1,105,0|8,0:0|1:1,0:0:0:0:
168,320,208995,1,2,0:0:0:0:
108,260,209295,6,0,B|68:200|68:200|72:124,1,140,4|0,0:0|0:0,0:0:0:0:
112,60,210195,1,2,0:0:0:0:
196,44,210495,2,0,P|264:32|344:48,1,140,0|0,0:0|0:0,0:0:0:0:
404,92,211395,1,2,0:0:0:0:
444,164,211695,5,0,0:0:0:0:
