osu file format v12

[General]
AudioFilename: Believers High.mp3
AudioLeadIn: 0
PreviewTime: 54772
Countdown: 0
SampleSet: Soft
StackLeniency: 0.7
Mode: 1
LetterboxInBreaks: 0
WidescreenStoryboard: 1

[Editor]
DistanceSpacing: 1
BeatDivisor: 1
GridSize: 32
TimelineZoom: 1

[Metadata]
Title:Believers High (TV Size)
TitleUnicode:Believers High (TV Size)
Artist:flumpool
ArtistUnicode:flumpool
Creator:Lno
Version:Kantan
Source:Captain Earth
Tags:Opening
BeatmapID:400566
BeatmapSetID:164546

[Difficulty]
HPDrainRate:3
CircleSize:2
OverallDifficulty:2
ApproachRate:3
SliderMultiplier:1.4
SliderTickRate:1

[Events]
//Background and Video events
0,0,"LBG9.jpg",0,0
//Break Periods
//Storyboard Layer 0 (Background)
//Storyboard Layer 1 (Fail)
//Storyboard Layer 2 (Pass)
//Storyboard Layer 3 (Foreground)
//Storyboard Sound Samples
//Background Colour Transformations
3,100,163,162,255

[TimingPoints]
13681,413.793103448276,4,2,0,80,1,0
55060,-80,4,2,0,80,0,1
86922,-100,4,2,0,80,0,0

[HitObjects]
224,224,13681,5,0,0:0:0:0:
288,224,14094,1,8,0:0:0:0:
224,224,14508,1,0,0:0:0:0:
224,224,15336,1,0,0:0:0:0:
224,224,15749,1,0,0:0:0:0:
288,224,16163,1,8,0:0:0:0:
224,224,16991,1,0,0:0:0:0:
288,224,17405,1,8,0:0:0:0:
224,224,17818,1,0,0:0:0:0:
288,224,18646,1,8,0:0:0:0:
288,224,19060,1,8,0:0:0:0:
288,224,19474,1,8,0:0:0:0:
224,224,20301,1,0,0:0:0:0:
288,224,20715,1,8,0:0:0:0:
224,224,21129,1,0,0:0:0:0:
224,224,21956,1,0,0:0:0:0:
224,224,22370,1,0,0:0:0:0:
288,224,22784,1,8,0:0:0:0:
224,224,23612,1,0,0:0:0:0:
288,224,24439,1,8,0:0:0:0:
224,224,24853,1,0,0:0:0:0:
224,224,25267,1,0,0:0:0:0:
224,224,26922,1,0,0:0:0:0:
224,224,27749,1,0,0:0:0:0:
224,224,28577,1,0,0:0:0:0:
224,224,29405,1,0,0:0:0:0:
288,224,29818,1,8,0:0:0:0:
224,224,30232,1,0,0:0:0:0:
224,224,31060,1,0,0:0:0:0:
224,224,31887,1,0,0:0:0:0:
224,224,32715,1,0,0:0:0:0:
224,224,33129,1,0,0:0:0:0:
288,224,33543,1,8,0:0:0:0:
224,224,34370,1,0,0:0:0:0:
224,224,35198,1,0,0:0:0:0:
224,224,36025,1,0,0:0:0:0:
288,224,36439,1,8,0:0:0:0:
224,224,36853,1,0,0:0:0:0:
224,224,37681,1,0,0:0:0:0:
224,224,38508,1,0,0:0:0:0:
224,224,38922,1,0,0:0:0:0:
288,224,39336,1,8,0:0:0:0:
224,224,40163,1,0,0:0:0:0:
224,224,40991,1,0,0:0:0:0:
288,224,41818,1,8,0:0:0:0:
288,224,42646,1,8,0:0:0:0:
224,224,43060,1,0,0:0:0:0:
224,224,43474,1,0,0:0:0:0:
224,224,44301,1,0,0:0:0:0:
288,224,45129,1,8,0:0:0:0:
224,224,45543,1,0,0:0:0:0:
288,224,45956,1,8,0:0:0:0:
224,224,46784,1,0,0:0:0:0:
224,224,47612,1,0,0:0:0:0:
224,224,48439,1,0,0:0:0:0:
288,224,48853,1,8,0:0:0:0:
224,224,49267,1,0,0:0:0:0:
224,224,50094,1,0,0:0:0:0:
288,224,50508,1,8,0:0:0:0:
224,224,50922,1,0,0:0:0:0:
288,224,51336,1,8,0:0:0:0:
224,224,51749,1,0,0:0:0:0:
224,224,52577,1,0,0:0:0:0:
224,224,53405,1,0,0:0:0:0:
224,224,54232,1,0,0:0:0:0:
288,160,55060,1,12,0:0:0:0:
288,224,55474,1,8,0:0:0:0:
224,224,55887,1,0,0:0:0:0:
224,224,56715,1,0,0:0:0:0:
224,224,57129,1,0,0:0:0:0:
288,224,57543,1,8,0:0:0:0:
224,224,58370,1,0,0:0:0:0:
288,224,58784,1,8,0:0:0:0:
224,224,59198,1,0,0:0:0:0:
224,224,60025,1,0,0:0:0:0:
288,224,60439,1,8,0:0:0:0:
288,224,60853,1,8,0:0:0:0:
288,224,61681,1,8,0:0:0:0:
224,224,62094,1,0,0:0:0:0:
288,224,62508,1,8,0:0:0:0:
288,224,63336,1,8,0:0:0:0:
224,224,63749,1,0,0:0:0:0:
224,224,64163,1,0,0:0:0:0:
224,224,64991,1,0,0:0:0:0:
288,224,65405,1,8,0:0:0:0:
224,224,65818,1,0,0:0:0:0:
224,224,66646,1,0,0:0:0:0:
288,224,67474,1,8,0:0:0:0:
224,224,67887,1,0,0:0:0:0:
288,160,68301,1,12,0:0:0:0:
224,224,69129,1,0,0:0:0:0:
224,224,69956,1,0,0:0:0:0:
224,224,70370,1,0,0:0:0:0:
288,224,70784,1,8,0:0:0:0:
288,224,71612,1,8,0:0:0:0:
224,224,72025,1,0,0:0:0:0:
288,224,72439,1,8,0:0:0:0:
224,224,73267,1,0,0:0:0:0:
224,224,73681,1,0,0:0:0:0:
288,224,74094,1,8,0:0:0:0:
224,224,74922,1,0,0:0:0:0:
288,224,75749,1,8,0:0:0:0:
224,224,76577,1,0,0:0:0:0:
224,224,76991,1,0,0:0:0:0:
288,224,77405,1,8,0:0:0:0:
224,224,78232,1,0,0:0:0:0:
288,224,79060,1,8,0:0:0:0:
224,224,79887,1,0,0:0:0:0:
224,224,80301,1,0,0:0:0:0:
224,224,80715,1,0,0:0:0:0:
224,224,81129,1,0,0:0:0:0:
224,224,81543,1,0,0:0:0:0:
288,224,82370,1,8,0:0:0:0:
288,224,83198,1,8,0:0:0:0:
288,224,83612,1,8,0:0:0:0:
224,224,84025,1,0,0:0:0:0:
288,160,84853,1,12,0:0:0:0:
