osu file format v12

[General]
AudioFilename: Believers High.mp3
AudioLeadIn: 0
PreviewTime: 54772
Countdown: 0
SampleSet: Soft
StackLeniency: 0.7
Mode: 1
LetterboxInBreaks: 0
WidescreenStoryboard: 1

[Editor]
DistanceSpacing: 1
BeatDivisor: 2
GridSize: 32
TimelineZoom: 1

[Metadata]
Title:Believers High (TV Size)
TitleUnicode:Believers High (TV Size)
Artist:flumpool
ArtistUnicode:flumpool
Creator:Lno
Version:Futsuu
Source:Captain Earth
Tags:Opening
BeatmapID:400565
BeatmapSetID:164546

[Difficulty]
HPDrainRate:4
CircleSize:2
OverallDifficulty:3
ApproachRate:4
SliderMultiplier:1.4
SliderTickRate:1

[Events]
//Background and Video events
0,0,"LBG9.jpg",0,0
//Break Periods
//Storyboard Layer 0 (Background)
//Storyboard Layer 1 (Fail)
//Storyboard Layer 2 (Pass)
//Storyboard Layer 3 (Foreground)
//Storyboard Sound Samples
//Background Colour Transformations
3,100,163,162,255

[TimingPoints]
13681,413.793103448276,4,2,0,80,1,0
55060,-80,4,2,0,80,0,1
86922,-100,4,2,0,80,0,0

[HitObjects]
224,224,13681,5,0,0:0:0:0:
288,224,14095,1,8,0:0:0:0:
224,224,14509,1,0,0:0:0:0:
288,224,14716,1,8,0:0:0:0:
224,224,15129,1,0,0:0:0:0:
288,224,15543,1,8,0:0:0:0:
224,224,15957,1,0,0:0:0:0:
288,224,16164,1,8,0:0:0:0:
224,224,16991,1,0,0:0:0:0:
288,224,17405,1,8,0:0:0:0:
224,224,17818,1,0,0:0:0:0:
288,224,18025,1,8,0:0:0:0:
224,224,18439,1,0,0:0:0:0:
288,224,18853,1,8,0:0:0:0:
288,224,19060,1,8,0:0:0:0:
288,224,19474,1,8,0:0:0:0:
224,224,20301,1,0,0:0:0:0:
288,224,20715,1,8,0:0:0:0:
224,224,21129,1,0,0:0:0:0:
288,224,21336,1,8,0:0:0:0:
224,224,21749,1,0,0:0:0:0:
288,224,22163,1,8,0:0:0:0:
224,224,22577,1,0,0:0:0:0:
288,224,22784,1,8,0:0:0:0:
224,224,23612,1,0,0:0:0:0:
288,224,24025,1,8,0:0:0:0:
224,224,24439,1,0,0:0:0:0:
288,224,24646,1,8,0:0:0:0:
288,224,24853,1,8,0:0:0:0:
224,224,25060,1,0,0:0:0:0:
224,224,25474,1,0,0:0:0:0:
224,224,25681,1,0,0:0:0:0:
288,224,26094,1,8,0:0:0:0:
224,224,26922,1,0,0:0:0:0:
224,224,27336,1,0,0:0:0:0:
224,224,27749,1,0,0:0:0:0:
288,224,27956,1,8,0:0:0:0:
224,224,28163,1,0,0:0:0:0:
224,224,28577,1,0,0:0:0:0:
224,224,28991,1,0,0:0:0:0:
224,224,29405,1,0,0:0:0:0:
288,224,29612,1,8,0:0:0:0:
288,224,29818,1,8,0:0:0:0:
224,224,30232,1,0,0:0:0:0:
224,224,30646,1,0,0:0:0:0:
224,224,31060,1,0,0:0:0:0:
288,224,31267,1,8,0:0:0:0:
224,224,31474,1,0,0:0:0:0:
288,224,31887,1,8,0:0:0:0:
224,224,32094,1,0,0:0:0:0:
224,224,32301,1,0,0:0:0:0:
288,224,32715,1,8,0:0:0:0:
288,224,33129,1,8,0:0:0:0:
224,224,33336,1,0,0:0:0:0:
224,224,33543,1,0,0:0:0:0:
224,224,33956,1,0,0:0:0:0:
224,224,34370,1,0,0:0:0:0:
224,224,34577,1,0,0:0:0:0:
288,224,34784,1,8,0:0:0:0:
224,224,35198,1,0,0:0:0:0:
288,224,35612,1,8,0:0:0:0:
224,224,36025,1,0,0:0:0:0:
288,224,36232,1,8,0:0:0:0:
288,224,36439,1,8,0:0:0:0:
224,224,36853,1,0,0:0:0:0:
288,224,37267,1,8,0:0:0:0:
288,224,37474,1,8,0:0:0:0:
224,224,37681,1,0,0:0:0:0:
288,224,38094,1,8,0:0:0:0:
224,224,38508,1,0,0:0:0:0:
224,224,38715,1,0,0:0:0:0:
224,224,38922,1,0,0:0:0:0:
288,224,39336,1,8,0:0:0:0:
288,224,39749,1,8,0:0:0:0:
224,224,39956,1,0,0:0:0:0:
224,224,40163,1,0,0:0:0:0:
224,224,40577,1,0,0:0:0:0:
224,224,40991,1,0,0:0:0:0:
224,224,41405,1,0,0:0:0:0:
224,224,41612,1,0,0:0:0:0:
288,224,41818,1,8,0:0:0:0:
224,224,42232,1,0,0:0:0:0:
288,224,42439,1,8,0:0:0:0:
288,224,42853,1,8,0:0:0:0:
288,224,43267,1,8,0:0:0:0:
224,224,43474,1,0,0:0:0:0:
224,224,43887,1,0,0:0:0:0:
224,224,44301,1,0,0:0:0:0:
224,224,44715,1,0,0:0:0:0:
224,224,45129,1,0,0:0:0:0:
288,224,45336,1,8,0:0:0:0:
288,224,45543,1,8,0:0:0:0:
288,224,45956,1,8,0:0:0:0:
288,224,46370,1,8,0:0:0:0:
288,224,46577,1,8,0:0:0:0:
224,224,46784,1,0,0:0:0:0:
224,224,47198,1,0,0:0:0:0:
224,224,47612,1,0,0:0:0:0:
288,224,48025,1,8,0:0:0:0:
224,224,48232,1,0,0:0:0:0:
224,224,48646,1,0,0:0:0:0:
288,224,48853,1,8,0:0:0:0:
224,224,49060,1,0,0:0:0:0:
224,224,49474,1,0,0:0:0:0:
224,224,49887,1,0,0:0:0:0:
224,224,50094,1,0,0:0:0:0:
288,224,50508,1,8,0:0:0:0:
224,224,50715,1,0,0:0:0:0:
224,224,50922,1,0,0:0:0:0:
288,224,51336,1,8,0:0:0:0:
224,224,51749,1,0,0:0:0:0:
224,224,52163,1,0,0:0:0:0:
288,224,52577,1,8,0:0:0:0:
224,224,52784,1,0,0:0:0:0:
224,224,52991,1,0,0:0:0:0:
288,224,53405,1,8,0:0:0:0:
224,224,53612,1,0,0:0:0:0:
288,224,53818,1,8,0:0:0:0:
288,224,54232,1,8,0:0:0:0:
288,224,54439,1,8,0:0:0:0:
288,160,55060,1,12,0:0:0:0:
288,224,55474,1,8,0:0:0:0:
224,224,55887,1,0,0:0:0:0:
224,224,56094,1,0,0:0:0:0:
288,224,56301,1,8,0:0:0:0:
224,224,56715,1,0,0:0:0:0:
224,224,56922,1,0,0:0:0:0:
288,224,57129,1,8,0:0:0:0:
224,224,57336,1,0,0:0:0:0:
224,224,57749,1,0,0:0:0:0:
288,224,57956,1,8,0:0:0:0:
224,224,58370,1,0,0:0:0:0:
288,224,58784,1,8,0:0:0:0:
288,224,58991,1,8,0:0:0:0:
224,224,59198,1,0,0:0:0:0:
288,224,59612,1,8,0:0:0:0:
224,224,60025,1,0,0:0:0:0:
224,224,60232,1,0,0:0:0:0:
288,224,60439,1,8,0:0:0:0:
224,224,60646,1,0,0:0:0:0:
224,224,61060,1,0,0:0:0:0:
288,224,61267,1,8,0:0:0:0:
224,224,61681,1,0,0:0:0:0:
288,224,62094,1,8,0:0:0:0:
224,224,62508,1,0,0:0:0:0:
224,224,62715,1,0,0:0:0:0:
288,224,62922,1,8,0:0:0:0:
224,224,63336,1,0,0:0:0:0:
288,224,63749,1,8,0:0:0:0:
288,224,63956,1,8,0:0:0:0:
224,224,64163,1,0,0:0:0:0:
224,224,64370,1,0,0:0:0:0:
288,224,64577,1,8,0:0:0:0:
224,224,64991,1,0,0:0:0:0:
288,224,65405,1,8,0:0:0:0:
224,224,65612,1,0,0:0:0:0:
224,224,65818,1,0,0:0:0:0:
288,224,66232,1,8,0:0:0:0:
224,224,66439,1,0,0:0:0:0:
224,224,66646,1,0,0:0:0:0:
288,224,66853,1,8,0:0:0:0:
288,224,67060,1,8,0:0:0:0:
288,224,67474,1,8,0:0:0:0:
288,224,67887,1,8,0:0:0:0:
224,224,68094,1,0,0:0:0:0:
224,224,68301,1,0,0:0:0:0:
288,224,68715,1,8,0:0:0:0:
224,224,69129,1,0,0:0:0:0:
224,224,69336,1,0,0:0:0:0:
288,224,69543,1,8,0:0:0:0:
224,224,69956,1,0,0:0:0:0:
288,224,70370,1,8,0:0:0:0:
288,224,70577,1,8,0:0:0:0:
224,224,70784,1,0,0:0:0:0:
288,224,71198,1,8,0:0:0:0:
224,224,71405,1,0,0:0:0:0:
224,224,71612,1,0,0:0:0:0:
288,224,72025,1,8,0:0:0:0:
224,224,72439,1,0,0:0:0:0:
224,224,72646,1,0,0:0:0:0:
288,224,72853,1,8,0:0:0:0:
224,224,73060,1,0,0:0:0:0:
224,224,73474,1,0,0:0:0:0:
288,224,73681,1,8,0:0:0:0:
224,224,74094,1,0,0:0:0:0:
224,224,74301,1,0,0:0:0:0:
288,224,74508,1,8,0:0:0:0:
224,224,74922,1,0,0:0:0:0:
288,224,75336,1,8,0:0:0:0:
224,224,75749,1,0,0:0:0:0:
288,224,76163,1,8,0:0:0:0:
224,224,76370,1,0,0:0:0:0:
224,224,76577,1,0,0:0:0:0:
288,224,76991,1,8,0:0:0:0:
224,224,77198,1,0,0:0:0:0:
224,224,77405,1,0,0:0:0:0:
288,224,77818,1,8,0:0:0:0:
224,224,78232,1,0,0:0:0:0:
224,224,78439,1,0,0:0:0:0:
288,224,78646,1,8,0:0:0:0:
288,224,79060,1,8,0:0:0:0:
224,224,79267,1,0,0:0:0:0:
288,224,79474,1,8,0:0:0:0:
224,224,79887,1,0,0:0:0:0:
224,224,80094,1,0,0:0:0:0:
224,224,80301,1,0,0:0:0:0:
224,224,80508,1,0,0:0:0:0:
224,224,80715,1,0,0:0:0:0:
288,224,81129,1,8,0:0:0:0:
224,224,81543,1,0,0:0:0:0:
288,224,81956,1,8,0:0:0:0:
224,224,82370,1,0,0:0:0:0:
224,224,82577,1,0,0:0:0:0:
288,224,82784,1,8,0:0:0:0:
288,224,83198,1,8,0:0:0:0:
288,224,83612,1,8,0:0:0:0:
224,224,83818,1,0,0:0:0:0:
224,224,84025,1,0,0:0:0:0:
224,224,84439,1,0,0:0:0:0:
288,160,84853,1,12,0:0:0:0:
