osu file format v9

[General]
AudioFilename: 02 Tower of Heaven - Stairway to Revelation.mp3
AudioLeadIn: 2007
PreviewTime: 31888
Countdown: 0
SampleSet: Normal
StackLeniency: 0.7
Mode: 0
LetterboxInBreaks: 1
StoryFireInFront: 0

[Editor]
DistanceSpacing: 0.8
BeatDivisor: 4
GridSize: 8

[Metadata]
Title:Stairway to Revelation
Artist:flashygoodness
Creator:stickmeister
Version:Poor Soul
Source:Tower of Heaven
Tags:iindie vgm chiptune askiisoft bgm newgrounds flash

[Difficulty]
HPDrainRate:3
CircleSize:3
OverallDifficulty:2
ApproachRate:2
SliderMultiplier:0.800000005960464
SliderTickRate:1

[Events]
//Background and Video events
0,0,"ToH.png"
//Break Periods
//Storyboard Layer 0 (Background)
//Storyboard Layer 1 (Fail)
//Storyboard Layer 2 (Pass)
//Storyboard Layer 3 (Foreground)
//Storyboard Sound Samples
//Background Colour Transformations
3,100,66,100,49

[TimingPoints]
0,444.444444444444,4,1,1,80,1,0
3555,-100,4,2,0,80,0,0
17555,-100,4,1,1,80,0,0
24888,-100,4,1,1,71,0,1
31555,-100,4,1,1,80,0,0
53222,-100,4,2,1,80,0,0
58666,-100,4,2,1,60,0,1
59555,-100,4,2,1,60,0,0

[Colours]
Combo1 : 54,87,53
Combo2 : 158,187,98
Combo3 : 128,128,0

[HitObjects]
184,152,0,1,4
256,88,666,1,0
328,152,1333,2,0,B|432:152|496:240|432:328|328:328,1,320.000002384186,4|0
264,328,3555,5,0
168,328,4222,2,2,B|168:272|168:272|104:272|104:272|104:192|104:192|168:192|168:192|168:128,1,320.000002384186
240,184,6444,5,0
240,280,7111,1,0
336,280,7777,2,2,B|392:280|392:280|392:224|392:224|336:192|336:192|336:80|336:80,1,280.000002086162
272,104,9777,1,0
272,104,10222,1,0
248,168,10666,5,0
168,216,11333,2,2,B|160:280|192:328|224:344|248:344|272:344|304:328|336:280|328:208,1,320.000002384186
304,160,13555,5,0
208,160,14222,1,0
112,160,14888,2,2,B|112:256|112:256|184:200|184:200|256:264,1,280.000002086163
320,256,16888,1,0
320,256,17333,1,0
336,192,17777,6,0,B|336:136|288:136,1,80.0000005960464,8|8
248,184,18666,5,0
152,184,19333,2,12,B|120:144|136:88|192:96,1,120.00000089407,12|8
224,112,20444,6,0,B|224:160,3,40.0000002980232
256,240,21777,2,0,B|384:240|384:192|208:192|208:160|312:160,1,240.000001788139
344,112,23555,6,8,B|368:112|368:40|344:40,2,80.0000005960464
288,80,24888,6,0,B|256:40|216:80,1,80.0000005960464,8|2
184,128,25777,6,0,B|144:160|184:200,1,80.0000005960464,8|2
224,248,26666,6,0,B|256:288|296:248,1,80.0000005960464,8|2
336,208,27555,6,0,B|376:176|336:136,1,80.0000005960464,8|2
256,192,28444,12,0,29555
224,160,30222,6,2,B|224:120|256:104|288:120|288:168|256:192|256:192,1,120.00000089407
248,216,31111,1,2
272,296,31555,1,2
336,248,31999,5,0
488,216,32888,1,0
456,160,33333,2,2,B|440:64|392:24|304:32|264:96|272:184|272:184,1,320.000002384186,2|4
224,128,35555,5,0
112,64,36444,1,0
96,128,36889,2,2,B|128:152|128:184|72:200|56:240|56:240|120:240|168:240|200:208|200:160|200:160,1,320.000002384186,2|4
264,176,39111,5,0
192,280,39999,1,0
256,280,40444,2,2,B|400:280|400:280|400:104|400:104,1,320.000002384186,2|4
336,120,42666,5,0
208,120,43555,1,0
256,160,43999,2,2,B|256:280|256:280|200:280|168:264|152:240|144:200|144:144,1,320.000002384186,2|4
184,96,46222,5,0
312,96,47111,1,0
256,128,47555,2,2,B|296:128|328:208|296:280|232:312|160:312|112:288,1,320.000002384186,2|4
80,96,49777,5,0
208,192,50666,1,0
264,232,51111,2,2,B|320:168|320:168|232:64|232:64|152:144,1,320.000002384186,2|4
112,136,53333,6,8,B|112:240|224:240,1,160.000001192093,8|4
216,304,54444,2,0,B|296:304,1,80.0000005960464
296,240,55111,2,8,B|392:240|392:136,3,160.000001192093,4|0|4|0
312,144,58666,5,2
208,144,59111,5,10
256,224,59555,5,4
