osu file format v9

[General]
AudioFilename: 02 Tower of Heaven - Stairway to Revelation.mp3
AudioLeadIn: 2007
PreviewTime: 31888
Countdown: 0
SampleSet: Normal
StackLeniency: 0.7
Mode: 0
LetterboxInBreaks: 1
StoryFireInFront: 0

[Editor]
DistanceSpacing: 0.8
BeatDivisor: 4
GridSize: 8

[Metadata]
Title:Stairway to Revelation
Artist:flashygoodness
Creator:stickmeister
Version:Mortal
Source:Tower of Heaven
Tags:indie vgm chiptune askiisoft bgm newgrounds flash

[Difficulty]
HPDrainRate:5
CircleSize:4
OverallDifficulty:4
ApproachRate:5
SliderMultiplier:1.4
SliderTickRate:1

[Events]
//Background and Video events
0,0,"ToH.png"
//Break Periods
//Storyboard Layer 0 (Background)
//Storyboard Layer 1 (Fail)
//Storyboard Layer 2 (Pass)
//Storyboard Layer 3 (Foreground)
//Storyboard Sound Samples
//Background Colour Transformations
3,100,66,100,49

[TimingPoints]
0,444.444444444444,4,1,1,80,1,0
3555,-100,4,2,0,80,0,0
17555,-100,4,1,1,80,0,0
24888,-100,4,1,1,71,0,1
31777,-100,4,1,1,80,0,0
33222,-200,4,1,1,80,0,0
35444,-100,4,1,1,80,0,0
36777,-200,4,1,1,80,0,0
38888,-100,4,1,1,80,0,0
40333,-200,4,1,1,80,0,0
42555,-100,4,1,1,80,0,0
43888,-200,4,1,1,80,0,0
46111,-100,4,1,1,80,0,0
47444,-200,4,1,1,80,0,0
49666,-100,4,1,1,80,0,0
50999,-200,4,1,1,80,0,0
53222,-100,4,2,1,80,0,0
58666,-100,4,2,1,60,0,1
59555,-100,4,2,1,60,0,0

[Colours]
Combo1 : 54,87,53
Combo2 : 158,187,98
Combo3 : 128,128,0

[HitObjects]
160,160,0,2,0,B|160:256|264:256,1,140,4|0
296,256,666,2,0,B|384:240|376:144,1,140,4|0
416,120,1333,2,0,B|448:208|424:312|312:360|160:352|80:264|120:128,1,560,4|0
192,80,3555,6,0,B|264:80|264:80|264:176,1,140
280,200,4222,2,2,L|360:200|360:280|208:280|208:96|64:96,1,630
40,136,6444,6,0,B|88:128|120:192|112:256,1,140
168,216,7111,2,0,B|161:259|193:323|241:315,1,140
296,312,7777,2,2,B|392:312|392:312|392:160|392:160|296:160|296:160|296:72|296:72,1,420
240,88,9333,2,0,B|216:48|152:48|120:88,2,140
160,168,10666,6,0,B|88:168|88:200|104:232|160:232,1,140
216,224,11333,2,2,B|216:296|272:336|335:336|384:320|417:275|440:240|456:192|456:160|432:96|384:64|320:48|264:48|208:96|216:160,1,630
144,192,13555,6,0,B|144:152|104:112|64:152|64:192,1,140
104,224,14222,2,0,B|104:264|144:304|184:264|184:224,1,140
144,192,14888,2,2,B|152:104|288:24|384:104|440:192|384:304|272:328,1,490
256,216,16888,1,0
248,272,17111,1,0
200,304,17333,1,0
192,256,17555,5,0
192,256,17777,2,0,B|192:160|288:160,1,140,8|8
336,248,18666,6,0,B|336:304|288:304,2,70
392,256,19333,2,12,B|432:184|328:80|264:168,1,210,12|8
216,240,20444,6,0,B|216:296|248:328,3,70
344,336,21555,1,0
344,336,21777,2,4,B|440:336|480:288|416:272|328:304|280:304|240:272|248:232|288:216|352:224|416:272|400:168,1,420,4|0
328,104,23555,6,8,B|320:64|208:64|200:104,2,140
280,208,24888,6,0,B|312:208|312:168,2,46.6666666666667,6|0|0
232,208,25333,2,0,B|200:208|200:168,2,46.6666666666667,6|0|0
232,168,25777,6,0,B|207:147|233:116,2,46.6666666666667,6|0|0
280,168,26222,2,0,B|304:147|278:116,2,46.6666666666667,6|0|0
280,208,26666,6,0,B|312:208|312:248,2,46.6666666666667,6|0|0
232,208,27111,2,0,B|200:208|200:248,2,46.6666666666667,6|0|0
232,248,27555,6,0,B|207:268|233:299,2,46.6666666666667,6|0|0
280,248,28000,2,0,B|304:268|278:299,2,46.6666666666667,6|0|0
256,192,28555,12,0,29777
176,144,30222,6,2,B|168:96|192:56|232:48|288:56|320:104|304:160|280:192|248:200|248:200,1,280
216,208,31259,2,0,B|232:256,3,46.6666666666667
296,288,31999,5,0
320,240,32222,1,0
320,184,32444,1,0
264,184,32666,2,0,B|264:136|160:136|160:192,1,140,2|8
160,184,33333,2,2,B|160:88|248:32|344:80|344:192,1,315,2|4
392,192,35555,5,0
392,248,35777,1,0
336,248,35999,1,0
280,248,36222,2,0,B|280:224|216:224|248:312|168:312|168:248,1,140,2|8
168,240,36889,2,2,B|248:240|248:120|328:104|400:184,1,280,2|4
376,248,39111,5,0
320,248,39333,1,0
264,248,39555,1,0
208,240,39777,2,0,B|152:216|152:216|160:152|224:152|224:152,1,140,2|8
224,144,40444,2,2,B|128:112|128:112|144:16|240:40|240:40|224:112|224:112,1,315,2|4
264,152,42666,5,0
264,208,42888,1,0
264,264,43111,1,0
208,264,43333,2,0,B|128:264|128:264|176:336,1,140,2|8
184,336,43999,2,2,B|368:336|368:336|368:192,1,315,2|4
312,192,46222,5,0
264,160,46444,1,0
216,192,46666,1,0
168,216,46888,2,0,B|168:144|56:184|104:248,1,140,2|8
64,232,47555,2,2,B|24:184|24:120|88:64|168:72|200:136|184:200,1,315,2|4
168,248,49777,5,0
224,256,49999,1,0
256,208,50222,1,0
264,152,50444,2,0,B|296:240|296:240|328:192,1,140,2|8
336,176,51111,2,2,B|384:88|384:88|160:88,1,315,2|8
168,88,53333,6,2,B|104:88|56:128|56:168|56:208|88:240|104:264|176:264,1,280,4|0
208,264,54444,2,2,B|240:264|264:256|280:240|288:168,1,140
344,176,55111,2,2,B|352:88|288:56|200:88,1,210,4|0
200,88,55999,2,2,B|120:88|80:144|80:184|112:248|208:264,2,280,2|4|4
256,32,58666,5,2
256,112,58888,1,2
256,192,59111,1,0
256,272,59333,1,0
256,352,59555,5,6
