osu file format v9

[General]
AudioFilename: 02 Tower of Heaven - Stairway to Revelation.mp3
AudioLeadIn: 2007
PreviewTime: 31888
Countdown: 0
SampleSet: Soft
StackLeniency: 0.7
Mode: 0
LetterboxInBreaks: 1
StoryFireInFront: 0

[Editor]
DistanceSpacing: 0.8
BeatDivisor: 4
GridSize: 8

[Metadata]
Title:Stairway to Revelation
Artist:flashygoodness
Creator:stickmeister
Version:God
Source:Tower of Heaven
Tags:indie vgm chiptune askiisoft bgm newgrounds flash

[Difficulty]
HPDrainRate:5
CircleSize:5
OverallDifficulty:7
ApproachRate:7
SliderMultiplier:2
SliderTickRate:1

[Events]
//Background and Video events
0,0,"ToH.png"
//Break Periods
//Storyboard Layer 0 (Background)
//Storyboard Layer 1 (Fail)
//Storyboard Layer 2 (Pass)
//Storyboard Layer 3 (Foreground)
//Storyboard Sound Samples
//Background Colour Transformations
3,100,66,100,49

[TimingPoints]
0,444.444444444444,4,1,1,80,1,0
2222,-100,4,2,0,80,0,0
17555,-100,4,1,1,80,0,0
24888,-100,4,1,1,71,0,1
31888,-100,4,1,1,80,0,0
33222,-200,4,1,1,80,0,0
35444,-100,4,1,1,80,0,0
36777,-200,4,1,1,80,0,0
38888,-100,4,1,1,80,0,0
40333,-200,4,1,1,80,0,0
42555,-100,4,1,1,80,0,0
43888,-200,4,1,1,80,0,0
46111,-100,4,1,1,80,0,0
47444,-200,4,1,1,80,0,0
49666,-100,4,1,1,80,0,0
50999,-200,4,1,1,80,0,0
53222,-100,4,2,1,80,0,0
58444,-100,4,2,1,60,0,1
59555,-100,4,2,1,60,0,0

[Colours]
Combo1 : 54,87,53
Combo2 : 158,187,98
Combo3 : 128,128,0

[HitObjects]
96,192,0,2,0,B|96:128|168:88,1,100,4|0
176,88,333,1,0
216,80,444,1,0
296,80,666,2,0,B|352:96|400:168,1,100,4|0
424,200,1111,1,0
400,272,1333,2,0,B|272:368|80:288,1,300,4|0
64,240,2222,5,0
64,240,2333,1,0
136,216,2555,1,8
136,216,2666,1,0
136,216,2777,1,0
136,216,2888,1,8
144,136,3111,1,8
144,136,3222,1,2
144,136,3333,1,8
216,104,3555,6,0,B|288:72|304:184,1,100
280,216,3999,1,0
200,216,4222,2,2,L|80:216|80:328|280:328|280:112|424:112|424:256,1,900
376,264,6444,6,0,B|320:360|184:288,1,200
168,272,6999,1,0
144,240,7111,2,0,B|112:168|128:80|224:40,1,200
224,48,7666,1,0
264,56,7777,2,2,L|264:200|320:200|320:304|192:304|192:96,1,600
208,56,9333,6,0,B|344:56,1,100,8|0
344,56,9666,1,2
360,96,9777,2,0,B|224:96,1,100,8|0
216,96,10111,1,2
208,136,10222,2,0,B|336:136,1,100,10|0
344,136,10555,1,2
344,176,10666,6,0,B|344:256|288:304,1,100,0|0
248,304,11111,1,0
176,280,11333,2,2,L|176:168|272:168|272:56|168:56|168:128|56:128|56:240|120:240|120:360,1,900
176,328,13555,6,2,B|256:384|320:320,1,150
336,296,13999,1,0
344,256,14111,1,0
344,216,14222,2,0,B|232:176|136:240,1,200
120,256,14777,1,0
88,232,14888,2,2,L|88:144|360:144|360:96|64:96,1,700
224,64,16888,6,8,B|232:32|272:16,1,66.6666666666667,0|8
320,16,17185,2,8,B|356:30|364:62,1,66.6666666666667,8|2
384,144,17555,6,12,B|312:144,1,50,12|8
288,144,17777,2,12,B|232:144|152:184|128:288,1,200
272,296,18555,1,0
296,296,18666,2,0,B|352:304|416:264,2,100
216,280,19333,2,12,B|136:256|96:176|112:88,1,200,12|8
160,64,19999,1,4
232,40,20222,1,0
272,40,20333,5,0
312,40,20444,2,0,B|376:56|392:152,1,100
392,184,20888,2,0,B|400:224|344:296,2,100
312,208,21555,1,0
312,208,21666,1,0
312,208,21777,2,4,B|241:207|72:224|48:184|64:144|176:168|233:151|297:159|337:143|345:103|272:120|176:120|120:120|104:96|112:64|192:48,1,600,4|0
296,48,23444,5,0
344,72,23555,2,0,B|392:80|416:136|400:192,1,133.333333333333
400,232,23999,2,0,B|392:296|344:328|288:320,1,133.333333333333
264,320,24444,2,0,B|224:320|176:272|184:208,1,133.333333333333
184,176,24888,5,4
184,120,25037,1,0
168,72,25185,1,0
120,56,25333,1,4
72,72,25481,5,0
56,120,25629,1,0
56,176,25777,1,4
80,224,25925,1,2
120,264,26074,5,2
176,272,26222,1,6
232,272,26370,1,2
280,248,26518,1,6
304,200,26666,5,4
304,144,26814,1,0
280,96,26962,1,0
296,48,27111,1,4
344,24,27259,5,0
392,40,27407,1,0
424,80,27555,1,4
432,136,27703,1,2
424,192,27851,5,2
400,240,27999,1,6
368,280,28148,1,2
328,320,28296,1,6
256,192,28444,12,0,29777
176,144,30222,6,2,B|168:88|192:56|256:40|304:32|352:96|352:184|288:208|248:200|248:200|264:288,1,400
264,288,31259,1,10
304,304,31407,1,2
256,328,31555,1,10
224,288,31703,1,2
256,248,31851,1,10
304,264,31999,5,0
376,240,32222,1,0
320,184,32444,1,2
320,184,32666,2,0,B|320:99|192:99|192:187,1,200,2|8
112,184,33333,2,2,B|111:30|255:14|391:30|391:190,1,450,10|4
432,272,35555,5,0
352,272,35777,1,0
352,192,35999,1,2
272,192,36222,2,0,B|272:112|144:112|256:272|128:272|128:192,1,200,2|8
120,160,36889,2,2,B|232:160|88:-16|400:-16|400:144|360:256,1,450,2|4
296,304,39111,5,0
296,224,39333,1,0
216,224,39555,1,2
216,280,39777,2,0,B|120:240|120:240|144:168|232:192|232:192,1,200,2|8
272,184,40444,2,2,B|144:144|144:144|168:0|296:40|296:40|280:136|280:136,1,450,2|4
256,216,42666,5,0
312,280,42888,1,8
392,280,43111,1,2
344,216,43333,2,0,B|416:144|416:144|288:144,1,200,2|8
240,144,43999,2,2,B|56:144|56:144|56:192|56:192|56:272|240:272,1,450,2|4
304,224,46222,5,0
320,304,46444,1,0
400,304,46666,1,2
384,224,46888,2,0,B|384:120|520:160|448:256,1,200,2|8
384,224,47555,2,2,B|448:152|448:56|360:0|256:8|200:80|240:184,1,450,2|4
160,200,49777,5,0
216,264,49999,1,0
256,192,50222,1,2
256,112,50444,2,0,B|184:192|184:192|272:224,1,200,2|8
304,232,51111,2,0,B|280:320|280:320|392:320|392:320|336:112|336:112,1,400,2|4
200,48,53333,6,2,B|144:48|96:72|64:120|48:184|48:216|64:280|112:336|168:360,1,400,4|0
224,352,54444,2,2,B|280:352|328:304|344:264|344:216,1,150
352,224,54888,1,2
360,144,55111,2,2,B|328:64|216:8|88:48,1,300,4|8
120,16,55999,2,2,B|8:96|8:296|160:368,2,400,2|6|2
256,32,58666,5,2
256,72,58777,1,0
256,112,58888,1,2
256,152,58999,1,0
256,192,59111,1,0
256,232,59222,1,0
256,272,59333,1,8
256,312,59444,1,0
256,352,59555,5,6
