osu file format v9

[General]
AudioFilename: 01yakumo.mp3
AudioLeadIn: 1000
PreviewTime: 207649
Countdown: 0
SampleSet: Soft
StackLeniency: 0.4
Mode: 0
LetterboxInBreaks: 1

[Editor]
DistanceSpacing: 1.2
BeatDivisor: 4
GridSize: 4

[Metadata]
Title:Yakumo ran no Yuishin ron
Artist:fi-fy,723
Creator:bakabaka
Version:Ran
Source:Touhou
Tags:

[Difficulty]
HPDrainRate:8
CircleSize:4
OverallDifficulty:7
ApproachRate:8
SliderMultiplier:1.6
SliderTickRate:0.5

[Events]
//Background and Video events
0,0,"ran6.jpg"
//Break Periods
2,93963,103658
2,156221,165594
2,187189,193820
//Storyboard Layer 0 (Background)
//Storyboard Layer 1 (Fail)
//Storyboard Layer 2 (Pass)
//Storyboard Layer 3 (Foreground)
//Storyboard Sound Samples
//Background Colour Transformations
3,100,163,162,255

[TimingPoints]
1183,322.58064516129,4,2,1,50,1,0
1828,-133.333333333333,4,2,1,45,0,0
11505,-100,4,2,1,60,0,0
30699,-100,4,1,1,60,0,0
52795,-133.333333333333,4,1,1,60,0,0
63124,-100,4,1,1,60,0,0
72795,-133.333333333333,4,1,1,60,0,0
73441,-100,4,1,1,60,0,1
88844,-100,4,2,1,80,0,1
89005,-100,4,1,1,60,0,1
90134,-100,4,2,1,80,0,1
90295,-100,4,1,1,60,0,1
91424,-100,4,2,1,80,0,1
91586,-100,4,1,1,60,0,1
91908,-100,4,2,1,80,0,1
92070,-100,4,1,1,60,0,1
92392,-100,4,2,1,80,0,1
92553,-100,4,1,1,60,0,1
93037,-100,4,2,1,80,0,1
93199,-100,4,1,1,60,0,1
93360,-100,4,2,1,80,0,1
94086,-100,4,1,1,60,0,0
114731,-133.333333333333,4,1,1,60,0,0
125053,-100,4,1,1,60,0,0
135376,-100,4,1,1,60,0,1
150779,-100,4,2,1,80,0,1
150941,-100,4,1,1,60,0,1
152070,-100,4,2,1,80,0,1
152231,-100,4,1,1,60,0,1
153360,-100,4,2,1,80,0,1
153521,-100,4,1,1,60,0,1
153844,-100,4,2,1,80,0,1
154005,-100,4,1,1,60,0,1
154328,-100,4,2,1,80,0,1
154489,-100,4,1,1,60,0,1
154731,-100,4,1,1,60,0,0
186989,-133.333333333333,4,1,1,60,0,0
194731,-100,4,1,1,60,0,0
207634,-100,4,1,1,60,0,1
223037,-100,4,2,1,80,0,1
223199,-100,4,1,1,60,0,1
224328,-100,4,2,1,80,0,1
224489,-100,4,1,1,60,0,1
225618,-100,4,2,1,80,0,1
225779,-100,4,1,1,60,0,1
243682,-100,4,2,1,80,0,1
243844,-100,4,1,1,60,0,1
244973,-100,4,2,1,80,0,1
245134,-100,4,1,1,60,0,1
246263,-100,4,2,1,80,0,1
246424,-100,4,1,1,60,0,1
246747,-100,4,2,1,80,0,1
246908,-100,4,1,1,60,0,1
247231,-100,4,2,1,80,0,1
247392,-100,4,1,1,60,0,1
247634,-100,4,2,1,70,0,1
247715,-100,4,1,1,60,0,1
248924,-100,4,1,1,60,0,0
251505,-100,4,1,1,40,0,0

[Colours]
Combo1 : 255,155,205
Combo2 : 255,255,255
Combo3 : 128,128,255

[HitObjects]
328,300,1183,1,2
388,100,2312,1,0
388,100,2473,1,2
240,248,3602,6,0,B|224:208,2,29.9999991059304,0|0|2
160,300,4086,2,0,B|100:336,1,59.9999982118607
56,196,4731,1,0
112,116,5053,2,0,B|152:64,1,59.9999982118607,2|0
188,100,5376,2,0,B|260:76,1,59.9999982118607,0|2
272,272,6182,5,0
272,272,6344,2,0,B|328:352|436:312,1,179.999994635582,2|0
484,180,7312,1,0
448,92,7634,6,0,B|440:168|368:184,1,119.999996423721,2|0
332,196,8118,2,0,B|352:128|296:80,1,119.999996423721,2|0
260,64,8602,1,0
220,92,8763,6,0,B|168:68,2,29.9999991059304,0|0|2
256,180,9247,1,0
256,180,9408,1,2
168,216,9731,1,0
168,216,9892,2,0,B|108:184|52:228,1,119.999996423721,2|0
128,288,10537,6,0,B|172:336,1,59.9999982118607,0|2
228,256,11021,1,0
256,296,11182,1,2
300,276,11344,1,0
336,308,11505,6,0,B|432:328|452:228,1,160,2|0
452,68,11989,2,0,B|356:48|336:148,1,160,2|0
256,252,12634,5,0
256,232,12715,1,0
256,212,12795,2,0,B|260:116|168:88,1,160,2|0
156,168,13279,2,0,B|64:140|12:212,1,160,2|0
72,268,13763,1,0
144,304,13924,6,0,B|144:352,2,35,0|0|2
272,192,14408,1,0
272,192,14570,1,2
424,236,14892,1,0
424,236,15053,1,0
424,236,15215,6,0,B|416:328|300:332,1,160,2|0
284,256,15699,1,2
340,200,15860,2,0,B|360:112|296:44,1,160
256,116,16344,2,0,B|204:44|104:68,1,160,2|0
128,224,16989,5,0
56,188,17150,1,2
284,260,17634,2,0,B|316:288|312:332,1,80,2|0
312,332,17876,1,0
312,332,17957,1,0
376,284,18118,1,0
436,232,18279,1,2
496,176,18441,1,0
252,68,18924,5,0
328,96,19086,2,0,B|364:196|260:236,1,160,2|0
196,232,19570,1,0
228,160,19731,2,0,B|200:76|108:72,1,160,2|0
44,120,20215,1,0
44,120,20376,1,2
40,280,20699,6,0,B|100:212,1,70,0|2
164,272,21021,2,0,B|232:216,1,70,0|2
364,244,21344,2,0,B|296:272,1,70,0|2
408,316,21666,2,0,B|500:304,1,70,0|4
476,136,22150,5,2
476,136,22312,1,0
340,220,22634,5,0
272,264,22795,1,2
232,192,22957,1,0
300,152,23118,2,0,B|316:64|236:16,1,160,0|2
204,88,23602,2,0,B|112:132|60:36,1,160
68,48,24086,1,2
36,120,24247,6,0,B|0:140,2,40,0|0|4
180,192,24731,1,2
180,192,24892,1,0
96,328,25215,2,0,B|44:264,2,80,0|2|0
176,328,25699,6,0,B|268:320|264:200,1,160,0|2
264,136,26182,2,0,B|268:40|372:28,1,160
440,44,26666,1,2
496,104,26828,1,0
468,180,26989,1,4
392,320,27312,5,2
312,336,27473,1,0
352,180,27795,2,0,B|400:184|420:232,1,80,0|2
344,260,28118,2,0,B|292:256|276:208,1,80
160,112,28602,5,2
160,112,28763,2,0,B|128:196|16:176,2,160,0|0|2
80,92,29570,5,4
188,252,29892,2,0,B|192:304|136:324,1,80,2|0
276,192,30376,2,0,B|312:224|296:284,1,80,0|2
332,104,30860,5,4
412,88,31021,1,0
468,148,31182,1,8
336,128,31344,5,0
432,116,31505,1,0
480,200,31666,1,0
428,280,31828,1,8
412,292,31908,1,0
392,296,31989,1,0
372,296,32070,1,0
352,296,32150,2,0,B|268:272|260:168,1,160,0|8
188,24,32715,5,0
188,24,32795,2,0,B|228:52|228:104,1,80
132,96,33118,2,0,B|88:76|56:124,1,80,8|0
116,196,33441,6,0,B|144:272|88:348,1,160,0|8
256,288,33924,2,0,B|224:216|280:136,1,160
336,60,34408,1,8
432,52,34570,1,0
480,136,34731,1,0
444,324,35053,5,8
352,352,35215,1,0
312,164,35537,2,0,B|380:108,1,80,0|8
348,240,35860,2,0,B|264:304,1,80
212,84,36344,5,8
212,84,36505,1,0
284,288,36828,2,0,B|292:332,2,40,0|0|8
220,216,37150,1,0
176,300,37312,6,0,B|92:324|44:236,1,160,4|8
104,164,37795,2,0,B|84:80|160:8,1,160
228,76,38279,2,0,B|236:124|208:152,2,80,8|0|0
316,248,38924,5,8
316,248,39086,2,0,B|304:204|340:176,1,80
404,104,39408,2,0,B|440:136|436:192,1,70,0|8
332,140,39731,1,0
472,220,39892,1,0
252,172,40215,6,0,B|328:236,1,80,8|0
312,224,40457,1,0
312,224,40537,1,0
388,368,40699,2,0,B|327:315,1,80,0|8
448,212,41021,2,0,B|376:156,1,80
276,96,41344,1,0
164,152,41505,1,8
244,252,41666,1,0
244,252,41989,5,0
392,192,42150,1,8
200,128,42312,1,0
200,128,42392,1,0
200,128,42473,6,0,B|148:44|28:84,1,160,4|8
144,248,43118,2,0,B|160:328|256:352,1,160,0|8
252,256,43602,1,0
336,204,43763,6,0,B|312:124|224:100,2,160,0|8|0
372,328,44570,1,0
388,200,44731,1,8
504,252,44892,1,0
420,156,45053,6,0,B|412:68|500:20,2,160,0|8|0
256,256,46021,1,8
196,328,46182,1,0
176,328,46263,1,0
156,324,46344,6,0,B|76:312|36:200,1,160,0|8
88,116,46828,2,0,B|100:204|172:244,1,160
256,172,47312,2,0,B|244:84|172:44,1,160,0|4
424,84,47957,6,0,B|460:168|400:248,1,160,8|0
312,216,48441,1,0
308,312,48602,2,0,B|220:328,2,80,8|0|0
344,100,49247,5,8
256,64,49408,2,0,B|192:16|104:56,1,160
68,144,49892,1,8
156,184,50053,1,0
104,264,50215,6,0,B|48:348,1,80
292,300,50537,1,8
155,183,50699,2,0,B|216:236,1,80
292,300,51021,1,0
346,82,51182,2,0,B|328:160,1,80
276,368,51505,5,0
352,268,51666,1,0
456,344,51828,1,8
512,228,51989,2,0,B|540:152|472:68,1,160
396,36,52473,2,0,B|408:-4,2,40,8|0|0
344,116,52795,6,0,B|224:132,1,119.999996423721,4|0
80,144,53441,1,8
100,288,53763,1,0
152,240,53924,1,0
308,316,54247,6,0,B|240:328,1,59.9999982118607,0|8
236,220,54570,2,0,B|304:252,1,59.9999982118607
344,144,54892,2,0,B|288:168,1,59.9999982118607,0|8
412,300,55376,6,0,B|476:292|476:208,1,119.999996423721,0|0
476,140,55860,2,0,B|468:68|400:56,1,119.999996423721,8|0
388,128,56344,1,8
352,192,56505,1,0
300,244,56666,6,0,B|300:324,2,59.9999982118607,8|0|0
284,172,57150,2,0,B|272:108|212:76,1,119.999996423721,8|0
148,104,57634,2,0,B|160:168|224:200,1,119.999996423721,8|0
40,196,58279,5,0
168,264,58602,2,0,B|156:336|80:340,2,119.999996423721,8|0|8
200,176,59408,1,0
264,248,59570,1,8
344,196,59731,1,0
404,272,59892,1,0
324,324,60053,1,0
460,228,60215,6,0,B|484:100,1,119.999996423721,8|0
368,24,60860,2,0,B|392:144,1,119.999996423721,0|8
340,192,61344,1,0
276,160,61505,2,0,B|220:128,1,59.9999982118607,8|4
44,172,61989,5,0
108,208,62150,1,8
48,248,62312,1,0
168,164,62473,1,8
224,300,62634,1,0
244,312,62715,1,0
264,324,62795,1,0
284,312,62876,1,0
304,300,62957,1,0
328,308,63037,1,0
348,324,63118,6,0,B|352:248|432:240,1,119.999996423721,0|8
492,304,63602,1,0
488,208,63763,2,0,B|500:120|420:76,1,160,0|8
328,104,64247,5,0
264,284,64570,2,0,B|188:332,2,80,0|8|0
156,252,65053,6,0,B|104:168,1,80
64,104,65376,1,8
316,64,65699,5,0
224,88,65860,1,0
252,180,66021,1,8
344,156,66182,1,0
488,224,66505,5,0
432,300,66666,2,0,B|420:344|368:352,1,80,8|0
284,320,66989,2,0,B|220:272|248:172,1,160,0|8
328,228,67473,2,0,B|400:196|384:84,1,160
376,72,67876,1,0
360,60,67957,1,8
260,184,68118,1,0
152,64,68279,6,0,B|56:44|16:128,1,160,0|8
116,176,68763,2,0,B|84:260|168:320,1,160,0|0
220,220,69247,1,8
312,200,69408,6,0,B|332:112|244:64,1,160,0|0
400,116,69892,2,0,B|424:76|408:20,1,80,8|0
448,200,70215,2,0,B|488:188|504:124,1,80
436,296,70537,2,0,B|480:324|532:284,2,80,8|0|0
448,200,71021,5,0
400,116,71182,1,8
352,200,71344,1,0
368,296,71505,2,0,B|296:332,1,80
168,220,71828,2,0,B|236:276,1,80,8|4
40,244,72312,5,0
32,228,72392,1,0
28,212,72473,1,0
28,196,72553,1,0
28,180,72634,1,0
32,164,72715,1,0
36,148,72795,6,0,B|100:148|124:76,1,119.999996423721
316,60,73441,6,0,B|396:60|424:176,1,160,4|8
444,256,73924,1,0
360,304,74086,2,0,B|288:360,1,80
280,244,74408,2,0,B|200:276,1,80,8|0
116,316,74731,5,0
68,132,75053,1,8
160,192,75215,1,0
160,192,75295,1,0
160,192,75376,1,0
184,88,75537,1,0
272,128,75699,1,8
292,36,75860,1,0
372,88,76021,6,0,B|504:176,1,160,0|8
412,224,76505,1,0
436,316,76666,2,0,B|412:352|344:332,1,80
336,240,76989,2,0,B|365:208|428:232,1,80,8|0
288,308,77312,6,0,B|220:348|128:304,1,160,0|8
64,244,77795,1,0
116,88,77957,5,0
116,88,78037,1,0
116,88,78118,1,0
208,116,78279,1,0
136,184,78441,1,8
348,180,78763,6,0,B|304:168|264:220,1,80,0|8
236,292,79086,1,0
328,316,79247,2,0,B|356:352|420:336,1,80
468,272,79570,2,0,B|464:228|432:188,1,80,8|0
432,180,79812,1,0
428,160,79892,6,0,B|412:124|436:68,1,80
259,57,80215,2,0,B|294:41|336:64,1,80,8|0
288,144,80537,1,0
172,84,80699,1,0
180,212,80860,1,8
76,140,81021,6,0,B|32:204|52:304,1,160
180,212,81505,2,0,B|168:260|216:296,1,80,8|0
264,212,81828,1,0
300,300,81989,2,0,B|340:288|355:235,1,80,0|8
356,224,82231,1,0
360,204,82312,1,0
456,212,82473,5,4
384,124,82634,2,0,B|408:72,2,40
284,204,82957,1,0
176,168,83118,1,0
160,160,83199,1,0
144,152,83279,1,0
168,276,83441,1,0
168,276,83521,1,0
168,276,83602,1,0
168,276,83682,1,0
168,276,83763,6,0,B|196:356|300:348,1,160,4|8
200,76,84408,2,0,B|168:152|228:224,1,160,0|8
324,204,84892,1,0
308,108,85053,6,0,B|380:60|464:108,1,160,0|8
480,200,85537,2,0,B|496:256|460:296,1,80
396,224,85860,2,0,B|360:188,2,40,0|0|8
336,300,86182,1,0
248,336,86344,5,0
228,212,86505,1,0
124,288,86666,1,8
236,268,86828,5,0
228,140,86989,1,0
128,220,87150,1,0
28,300,87312,2,0,B|0:264|28:200,1,80,8|0
112,152,87634,6,0,B|160:76|104:-4,1,160,0|8
48,80,88118,1,0
212,156,88279,6,0,B|280:200|368:164,1,160,0|8
292,100,88763,1,0
276,268,88924,5,4
428,320,89086,2,0,B|348:292,1,80,0|8
448,164,89408,2,0,B|472:256,1,80
312,200,89731,2,0,B|360:132,1,80,0|8
388,228,90053,1,0
404,68,90215,5,4
312,200,90376,1,0
168,132,90537,2,0,B|216:144|232:196,1,80,8|0
227,349,90860,2,0,B|254:327|252:276,1,80
168,132,91182,1,8
104,316,91344,1,0
40,156,91505,6,0,B|72:240,1,80,4|0
200,52,91828,2,0,B|112:112,1,80,8|4
320,228,92150,2,0,B|256:140,1,80,0|8
384,320,92473,1,4
456,160,92634,6,0,B|492:116,2,40,0|0|0
360,80,92957,1,0
336,188,93118,1,4
268,276,93279,1,0
224,172,93441,5,4
108,280,93602,1,4
80,124,93763,1,0
248,304,104408,6,0,B|328:340|400:276,1,160,0|8
316,228,104892,2,0,B|264:152|328:64,1,160
404,32,105376,1,8
472,100,105537,2,0,B|504:128|488:192,1,80
400,344,106021,6,0,B|364:316|380:252,1,80,8|0
376,272,106263,1,0
376,272,106344,1,0
364,176,106505,1,0
296,108,106666,2,0,B|252:136|272:200,1,80,8|0
256,272,106989,2,0,B|220:348|120:336,1,160,0|8
60,264,107473,1,0
124,52,107795,5,0
124,148,107957,1,8
204,96,108118,1,0
216,192,108279,6,0,B|232:280|172:344,1,160,0|8
280,136,108763,2,0,B|336:188|320:296,1,160
344,80,109247,2,0,B|424:108|440:216,1,160,8|0
316,348,109892,5,8
268,264,110053,2,0,B|244:224|264:176,1,80
352,216,110376,1,0
400,300,110537,2,0,B|432:324|480:308,2,80,8|0|0
228,156,111182,5,8
188,68,111344,1,0
188,68,111424,1,0
188,68,111505,1,0
100,104,111666,1,0
140,192,111828,1,8
48,216,111989,1,0
112,288,112150,2,0,B|144:352|252:344,1,160,0|8
252,344,112634,5,0
436,292,112957,1,0
436,292,113037,1,0
436,292,113118,2,0,B|472:200,1,80
412,136,113441,2,0,B|384:96|332:100,1,80
188,232,113763,2,0,B|212:268|268:268,1,80,8|0
160,84,114247,5,0
244,144,114408,1,8
332,204,114570,1,0
256,268,114731,2,0,B|168:340|168:340|48:280,1,239.999992847443,4|8
124,156,115699,5,0
76,100,115860,2,0,B|104:40|172:40,1,119.999996423721,8|0
244,56,116344,5,8
256,200,116666,1,8
348,312,116989,2,0,B|416:320|436:248,1,119.999996423721,0|8
468,108,117634,5,0
444,176,117795,2,0,B|376:168|368:88,1,119.999996423721,8|0
304,132,118279,2,0,B|280:164|296:204,1,59.9999982118607
280,260,118602,6,0,B|256:332|176:324,1,119.999996423721,8|0
184,252,119086,2,0,B|116:268|80:212,1,119.999996423721,8|0
132,164,119570,1,0
88,104,119731,1,0
144,60,119892,1,4
384,216,120537,6,0,B|440:188|428:112,1,119.999996423721,8|0
356,100,121021,1,0
312,236,121344,1,0
312,236,121505,1,0
192,316,121828,2,0,B|128:324|80:264,2,119.999996423721,8|0|4
236,260,122634,5,0
200,196,122795,1,8
252,148,122957,1,0
224,84,123118,2,0,B|180:32|104:56,1,119.999996423721,8|0
140,120,123602,2,0,B|76:140|72:212,1,119.999996423721
188,244,124086,5,8
256,312,124247,2,0,B|244:360,2,26.2499992176891
364,296,124570,1,0
376,292,124650,1,0
388,288,124731,1,0
400,280,124812,1,0
408,272,124892,1,0
416,264,124973,1,0
424,252,125053,6,0,B|472:192|452:92,1,160,0|4
296,212,125699,1,0
164,76,126021,1,8
164,76,126182,6,0,B|132:152|24:136,1,160
84,56,126666,2,0,B|76:160|160:180,1,160,8|0
240,232,127150,1,0
196,316,127312,1,8
116,264,127473,1,0
160,180,127634,6,0,B|200:100,1,80
284,68,127957,1,8
320,156,128118,2,0,B|380:212|476:188,1,160
460,92,128602,1,8
368,72,128763,1,0
320,156,128924,6,0,B|396:208|400:308,1,160,0|8
308,256,129408,2,0,B|304:352|200:356,1,160
216,260,129892,1,8
184,72,130215,6,0,B|96:40|32:132,1,160,0|8
132,152,130699,2,0,B|224:144|264:236,1,160
296,316,131182,1,8
392,316,131344,6,0,B|488:320|496:200,1,160
492,120,131828,1,8
300,104,132150,2,0,B|384:128|388:236,1,160,0|8
220,316,132795,5,0
128,284,132957,1,0
120,188,133118,1,8
212,220,133279,1,0
40,244,133441,5,0
108,100,133602,1,0
212,220,133763,1,8
284,76,133924,1,0
328,296,134247,5,0
348,296,134328,1,0
368,296,134408,1,0
388,292,134489,1,0
408,284,134570,1,0
424,272,134650,1,0
436,256,134731,1,0
448,240,134812,1,0
456,224,134892,1,0
460,204,134973,1,0
460,184,135053,1,0
456,164,135134,1,0
452,144,135215,1,0
444,124,135295,1,0
432,108,135376,6,0,B|360:144|280:76,1,160,4|8
222,335,136021,2,0,B|296:292|284:197,1,160,0|8
176,252,136505,1,0
128,336,136666,2,0,B|54:292|66:198,1,160,0|8
176,40,137312,5,0
116,116,137473,1,0
116,116,137553,1,0
116,116,137634,1,8
176,192,137795,1,0
236,116,137957,6,0,B|252:24|348:12,2,160,0|8|0
308,220,138763,1,0
344,96,138924,1,8
444,180,139086,2,0,B|472:256|424:332,1,160
424,332,139570,1,8
264,136,139892,6,0,B|252:192|312:220,1,80
364,100,140215,1,8
380,228,140376,2,0,B|368:320|268:332,1,160
167,127,140860,2,0,B|260:152|271:234,1,160,8|0
148,200,141344,1,0
204,316,141505,1,8
92,256,141666,6,0,B|8:228|0:120,1,160
101,22,142150,2,0,B|61:109|104:176,1,160,8|0
192,244,142634,1,0
272,168,142795,1,8
268,56,142957,1,0
372,12,143118,5,0
500,196,143441,1,8
456,300,143602,1,0
456,300,143682,1,0
456,300,143763,1,0
364,240,143924,2,0,B|292:280,1,70,0|8
204,316,144247,1,0
112,228,144408,6,0,B|52:168,1,80,4|0
344,171,144731,2,0,B|288:228,1,80,8|0
136,184,145053,2,0,B|76:124,1,80
64,112,145295,1,0
52,96,145376,1,8
208,124,145537,1,0
296,84,145699,6,0,B|352:24|456:48,1,160,0|8
480,136,146182,1,0
387,342,146344,2,0,B|472:312|496:232,1,160,0|8
480,136,146828,1,0
258,248,146989,6,0,B|304:268|340:224,1,80
148,296,147312,2,0,B|165:339|213:347,1,80,8|0
132,180,147634,2,0,B|86:158|50:204,1,80
244,128,147957,2,0,B|232:84|180:80,1,80,8|0
187,81,148199,1,0
187,81,148279,1,0
236,332,148602,5,8
316,88,148924,1,0
436,44,149086,1,0
500,156,149247,1,8
408,248,149408,2,0,B|324:260|312:360,1,160
424,360,149892,5,8
408,248,150053,1,0
404,228,150134,1,0
400,208,150215,1,0
288,216,150376,1,0
272,104,150537,1,8
64,122,150699,6,0,B|144:116,1,80,0|4
220,220,151021,1,0
272,104,151182,1,8
360,196,151344,1,0
476,140,151505,2,0,B|492:188|452:220,2,80,0|0|8
384,48,151989,1,0
272,104,152150,5,4
352,244,152312,1,0
212,320,152473,1,8
93,112,152634,2,0,B|136:180,2,80
336,56,153118,2,0,B|272:104,1,80,8|0
212,320,153441,6,0,B|144:372,1,80,4|0
308,264,153763,2,0,B|308:344,1,80,8|4
332,156,154086,2,0,B|408:232,1,80,0|8
212,320,154408,1,4
56,188,154570,1,0
232,92,154731,5,0
248,88,154812,1,0
264,88,154892,1,0
280,88,154973,1,0
296,88,155053,1,0
312,92,155134,1,0
328,100,155215,1,0
340,112,155295,1,0
352,124,155376,2,0,B|412:144,3,40
388,156,155699,2,0,B|412:208,3,40
424,204,156021,5,4
208,156,166344,6,0,B|184:60|84:64,1,160,4|8
36,160,166828,1,0
112,240,166989,2,0,B|132:328|232:332,1,160,0|8
312,196,167473,6,0,B|384:248|472:196,2,160,0|0|8
312,100,168279,1,0
396,56,168441,1,0
448,136,168602,2,0,B|476:216|452:304,1,160,8|4
368,340,169086,2,0,B|336:368|280:352,1,80,0|8
231,141,169408,6,0,B|316:180|320:264,1,160
232,304,169892,1,8
180,224,170053,1,0
120,300,170215,2,0,B|72:300|52:248,1,80
64,100,170537,1,8
224,80,170699,2,0,B|236:176|144:212,1,160
152,208,171182,6,0,B|240:212|272:312,1,160,0|4
320,220,171666,2,0,B|356:244|364:288,1,80,0|8
504,220,171989,2,0,B|468:244|460:288,1,80
320,120,172312,2,0,B|356:96|364:52,1,80,0|8
460,56,172634,6,0,B|496:80|504:124,1,80,0|0
416,164,172957,2,0,B|428:212|400:252,1,80,0|8
328,184,173279,1,0
284,268,173441,2,0,B|208:228|212:128,2,160,0|8|0
380,256,174247,5,0
384,144,174408,1,8
324,48,174570,1,0
216,24,174731,1,0
212,136,174892,1,0
160,236,175053,1,8
48,260,175215,1,0
108,168,175376,6,0,B|176:216|168:320,1,160,0|8
236,200,175860,1,0
324,292,176021,2,0,B|404:344|488:284,2,160,0|8|0
308,180,176828,5,0
308,180,176908,1,0
308,180,176989,1,8
412,224,177150,2,0,B|492:200|504:92,1,160
420,28,177634,1,8
336,104,177795,2,0,B|256:136|176:80,1,160
84,32,178279,1,8
40,152,178441,6,0,B|72:188|120:184,1,80
132,188,178682,1,0
152,192,178763,1,0
168,200,178844,1,0
184,212,178924,1,8
196,228,179005,1,0
204,248,179086,1,0
204,268,179166,1,0
200,288,179247,5,0
96,324,179408,1,0
292,312,179570,5,8
396,276,179731,2,0,B|484:272|500:152,1,160
460,64,180215,1,8
356,24,180376,1,0
324,212,180699,5,0
308,100,180860,1,8
224,176,181021,1,0
216,156,181102,1,0
208,136,181182,1,0
96,144,181344,1,0
72,36,181505,2,0,B|0:76|8:180,1,160,8|0
92,244,181989,5,0
172,304,182150,2,0,B|244:356,1,80,8|0
236,350,182392,1,0
236,350,182473,1,0
180,200,182634,1,0
268,68,182795,1,8
284,261,182957,6,0,B|316:188,2,80
368,36,183441,1,8
460,100,183602,2,0,B|508:168|480:256,1,160
412,340,184086,1,8
256,192,184408,12,4,186989
412,192,194570,5,4
100,192,195053,1,0
116,180,195134,1,0
132,168,195215,1,0
148,156,195295,1,0
164,144,195376,1,0
176,160,195457,1,0
188,176,195537,1,0
200,192,195618,1,0
212,208,195699,1,0
256,292,195860,5,0
256,92,196182,1,0
256,92,196344,2,0,B|312:40|416:72,1,160,8|0
472,144,196828,1,0
420,224,196989,2,0,B|448:288,4,40,8|0|0|0|0
224,280,197634,6,0,B|160:336|64:280,1,160,8|0
128,204,198118,1,0
60,136,198279,1,8
124,64,198441,1,0
192,132,198602,6,0,B|272:124|296:12,2,160,0|8|0
128,204,199408,1,0
328,364,199731,1,8
484,164,200053,1,0
484,164,200215,1,8
352,24,200537,6,0,B|332:108|404:192,1,160,0|8
276,328,201182,2,0,B|296:244|232:160,1,160,0|8
196,92,201666,2,0,B|113:116|72:214,1,160
36,284,202150,2,0,B|98:343|203:329,1,160,8|0
296,176,202795,6,0,B|336:104|288:12,2,160,8|0|8
216,232,203602,1,0
288,292,203763,2,0,B|344:364|440:316,2,160,0|8|0
196,324,204570,1,0
56,192,204892,5,8
240,64,205215,1,0
212,156,205376,1,8
304,136,205537,2,0,B|388:108|444:196,1,160
444,212,205941,1,0
448,232,206021,1,8
372,312,206182,1,0
256,192,206344,12,4,207634
424,192,207957,5,8
256,284,208279,2,0,B|248:180|352:160,1,160,0|8
416,108,208763,1,0
328,72,208924,5,0
32,192,209247,1,8
348,240,209570,1,0
300,332,209731,1,0
300,332,209812,1,0
300,332,209892,1,8
216,268,210053,1,0
140,328,210215,6,0,B|56:312|28:200,1,160,0|8
148,224,210699,1,0
208,132,210860,2,0,B|188:52|96:24,1,160,0|8
248,232,211344,6,0,B|268:320|392:340,1,160
489,187,211828,2,0,B|392:164|356:244,1,160,8|0
444,280,212312,1,8
428,24,212634,5,0
408,148,212795,1,0
296,84,212957,1,0
284,100,213037,1,0
272,120,213118,2,0,B|188:116|140:40,1,160,8|0
272,120,213602,2,0,B|220:192|120:168,1,160,8|0
36,156,214086,6,0,B|12:240|68:324,1,160,0|8
148,220,214570,1,0
196,340,214731,2,0,B|232:368|288:352,1,80
336,244,215053,2,0,B|284:232|252:272,1,80,8|0
372,328,215376,6,0,B|460:320|480:216,1,160,0|8
368,156,215860,1,0
478,224,216021,1,0
484,96,216182,1,0
368,156,216344,1,8
478,224,216505,1,0
408,80,216666,6,0,B|316:80,1,80
308,80,216908,1,0
288,80,216989,1,8
324,236,217150,1,0
188,320,217312,1,0
172,308,217392,1,0
160,292,217473,1,0
144,280,217553,1,0
132,264,217634,1,8
124,248,217715,1,0
116,228,217795,1,0
112,208,217876,1,0
112,188,217957,6,0,B|72:116|120:20,2,160,0|8|0
192,288,218763,1,0
256,176,218924,1,8
332,72,219086,1,0
420,164,219247,6,0,B|464:240|420:328,2,160,0|8|0
344,268,220053,1,0
256,176,220215,2,0,B|240:88|152:68,1,160,8|0
256,260,220860,6,0,B|236:352|132:360,1,160,8|0
140,264,221344,1,0
196,188,221505,1,8
76,336,221666,1,0
68,316,221747,1,0
60,296,221828,6,0,B|24:232|40:136,1,160,0|8
120,40,222312,1,0
212,128,222473,2,0,B|220:176|180:204,1,80
320,124,222795,2,0,B|340:160|320:216,1,80,8|0
408,76,223118,6,0,B|480:128|468:228,1,160,4|8
404,328,223602,1,0
276,332,223763,2,0,B|232:308|220:256,1,80
272,152,224086,1,8
392,200,224247,1,0
404,328,224408,5,4
336,240,224570,1,0
276,332,224731,1,8
212,240,224892,1,0
176,84,225053,5,0
68,112,225215,1,0
308,184,225376,5,8
200,160,225537,1,0
348,96,225699,6,0,B|396:32|512:64,2,160,4|8|0
396,248,226505,1,0
244,200,226666,1,8
256,192,226828,12,4,228279
112,272,228602,5,8
56,160,228762,1,0
156,80,228924,2,0,B|228:24,1,80
360,184,229247,2,0,B|304:128,1,80,8|0
388,76,229569,5,0
476,144,229731,2,0,B|484:192|464:228,1,80,0|8
360,184,230053,1,0
360,184,230133,1,0
360,184,230214,1,0
208,140,230375,1,0
308,268,230537,1,0
208,140,230698,1,0
152,296,230859,6,0,B|20:208,1,160,0|8
124,132,231344,1,0
8,84,231504,2,0,B|32:48|100:68,1,80
196,116,231827,2,0,B|168:152|112:128,1,80,8|0
280,72,232150,6,0,B|348:32|440:76,1,160,0|8
512,128,232633,1,0
396,296,232795,5,0
396,296,232875,1,0
396,296,232956,1,0
288,272,233117,1,8
356,184,233279,1,0
356,184,233360,1,0
356,184,233441,1,0
200,216,233601,6,0,B|228:176|288:192,1,80,0|8
360,96,233924,1,0
236,60,234085,2,0,B|208:24|144:40,1,80
40,72,234408,2,0,B|44:116|76:156,1,80,8|0
76,164,234650,1,0
80,184,234730,6,0,B|96:224|72:276,1,80
272,318,235053,2,0,B|237:334|196:312,1,80,8|0
236,208,235375,1,0
364,304,235537,1,0
336,148,235698,1,8
456,256,235860,6,0,B|496:228|488:168,1,80,0|0
476,92,236182,1,0
384,180,236343,2,0,B|396:132|348:96,1,80,8|0
264,192,236666,1,0
208,76,236827,2,0,B|168:88|153:141,1,80,0|8
148,152,237069,1,0
144,172,237150,1,0
56,204,237311,5,4
168,316,237472,2,0,B|140:376,2,40
236,172,237795,1,0
364,268,237956,1,0
384,260,238037,1,0
404,252,238117,1,0
472,108,238279,1,0
452,116,238359,1,0
432,124,238440,1,0
412,132,238520,1,0
392,140,238601,6,0,B|364:60|260:68,1,160,4|8
140,220,239086,1,0
312,308,239246,2,0,B|344:232|284:160,1,160,0|8
172,156,239730,1,0
208,260,239891,6,0,B|192:312|112:312,1,80,0|0
40,340,240215,2,0,B|24:284|60:244,1,80,8|0
128,184,240537,1,0
84,80,240698,2,0,B|24:68,2,40,0|0|8
196,88,241020,1,0
324,80,241182,5,0
412,212,241343,1,0
256,172,241504,1,8
412,132,241666,1,0
244,88,241827,1,0
320,248,241988,1,0
488,176,242150,2,0,B|516:212|488:276,1,80,8|0
412,212,242472,6,0,B|380:260|420:320,1,80,0|0
496,252,242795,1,8
316,320,242956,1,0
316,320,243037,1,0
316,320,243118,1,0
304,192,243279,1,0
184,148,243441,1,8
196,276,243601,1,0
84,64,243763,6,0,B|162:77,1,80,4|8
44,237,244085,2,0,B|24:160,1,80,8|0
202,178,244408,2,0,B|156:244,1,80,0|8
24,160,244731,1,8
100,304,244892,1,0
308,216,245053,5,4
396,348,245214,1,0
295,129,245376,2,0,B|293:78|320:56,1,80
337,298,245698,2,0,B|348:336|396:348,1,80,8|0
296,128,246020,1,8
444,36,246182,1,0
493,236,246343,6,0,B|472:160,1,80,4|0
317,349,246666,2,0,B|384:304,1,80,8|4
200,175,246988,2,0,B|248:240,1,80,0|8
124,72,247311,1,4
52,212,247473,6,0,B|16:256,2,40,0|0|4
144,304,247795,1,0
164,180,247956,1,8
252,88,248117,1,0
288,212,248279,5,0
436,80,248440,1,0
436,80,248521,1,0
436,80,248601,1,8
476,276,248763,1,0
288,212,248924,1,4
256,192,249005,12,4,251505
