osu file format v13

[General]
AudioFilename: Kun No Bijutsukan -Furando-ru Suka-retto.mp3
AudioLeadIn: 0
PreviewTime: 29542
Countdown: 0
SampleSet: Normal
StackLeniency: 0.3
Mode: 0
LetterboxInBreaks: 1
StoryFireInFront: 0
EpilepsyWarning: 1
WidescreenStoryboard: 0

[Editor]
DistanceSpacing: 1.4
BeatDivisor: 4
GridSize: 4
TimelineZoom: 2.4

[Metadata]
Title:Flandre Scarlet
TitleUnicode:フランドール スカーレット
Artist:fi-fy
ArtistUnicode:fi-fy
Creator:Terabytes
Version:Lunatic
Source:Touhou
Tags:Flandre Scarlet U.N. Owen Was Her Touhou Kimino Museum fi-fy th06 embodiment devil centennial festival magical girls 495 Extra Vampire
BeatmapID:346863
BeatmapSetID:138921

[Difficulty]
HPDrainRate:7
CircleSize:4
OverallDifficulty:7
ApproachRate:8
SliderMultiplier:2
SliderTickRate:1

[Events]
//Background and Video events
0,0,"background.png",0,0
//Break Periods
2,41389,51733
2,123977,128674
//Storyboard Layer 0 (Background)
//Storyboard Layer 1 (Fail)
//Storyboard Layer 2 (Pass)
//Storyboard Layer 3 (Foreground)
//Storyboard Sound Samples
//Background Colour Transformations
3,100,163,162,255

[TimingPoints]
1660,352.941176470588,4,1,0,75,1,0
1660,-100,4,2,0,75,0,0
12954,-100,4,2,0,75,0,1
24248,-200,4,2,0,75,0,0
25659,-100,4,2,0,75,0,0
29542,-100,4,1,0,75,0,0
32542,-100,4,2,0,75,0,1
39601,-200,4,2,0,75,0,1
41189,-100,4,2,0,75,0,0
60954,-133.333333333333,4,2,0,75,0,0
72950,-100,4,3,0,75,0,0
75777,-100,4,2,0,75,0,0
99071,-166.666666666667,4,3,0,75,0,0
100483,-200,4,3,0,75,0,0
101189,-66.6666666666667,4,2,0,75,0,1
110895,-133.333333333333,4,2,0,75,0,1
112483,-66.6666666666667,4,2,0,75,0,0
117424,-100,4,2,0,75,0,0
131542,-200,4,2,0,75,0,0
132248,-100,4,2,0,75,0,0
134365,-200,4,2,0,75,0,0
135071,-100,4,2,0,75,0,0
137189,-200,4,2,0,75,0,0
137895,-100,4,2,0,75,0,0
140542,-133.333333333333,4,2,0,75,0,0
141424,-100,4,2,0,75,0,0
161895,-100,4,3,0,75,0,0
164012,-100,4,1,0,75,0,1
166659,-100,4,2,0,75,0,1
174248,-133.333333333333,4,2,0,75,0,1
175307,-100,4,2,0,75,0,0
186601,-100,4,2,0,75,0,1
197189,-100,4,2,0,75,0,0
197718,-100,4,2,0,75,0,1
200895,-100,4,1,0,75,0,0
201954,-200,4,1,0,75,0,0
201998,-200,4,1,0,5,0,0
203542,-200,4,2,0,75,0,0

[Colours]
Combo1 : 238,238,238
Combo2 : 68,183,238
Combo3 : 242,50,2
Combo4 : 245,202,86
Combo5 : 59,59,59

[HitObjects]
256,96,1660,5,4,0:0:0:0:
260,236,1836,2,0,P|324:248|356:232,2,100,0|2|0,0:0|0:0|0:0,0:0:0:0:
256,96,2365,1,0,0:0:0:0:
260,236,2542,2,0,P|196:248|164:232,2,100,0|2|0,0:0|0:0|0:0,0:0:0:0:
156,140,3071,54,0,P|112:112|76:72,1,100
216,104,3424,2,0,P|200:54|188:-8,1,100,2|0,0:0|0:0,0:0:0:0:
288,104,3777,2,0,P|304:55|316:0,1,100
344,144,4130,2,0,P|389:115|432:76,1,100,2|0,0:0|0:0,0:0:0:0:
256,288,4483,5,4,0:0:0:0:
192,160,4659,2,0,P|152:184|72:152,2,100,0|2|0,0:0|0:0|0:0,0:0:0:0:
256,288,5189,1,0,0:0:0:0:
320,160,5365,2,0,P|360:184|440:152,2,100,0|2|0,0:0|0:0|0:0,0:0:0:0:
164,252,5895,54,0,P|120:280|84:320,1,100
224,288,6248,2,0,P|208:337|196:400,1,100,2|0,0:0|0:0,0:0:0:0:
296,288,6601,2,0,P|312:336|324:392,1,100
352,248,6954,2,0,P|397:276|440:316,1,100,2|0,0:0|0:0,0:0:0:0:
256,76,7307,5,4,0:0:0:0:
160,180,7483,1,0,0:0:0:0:
92,56,7659,2,0,P|60:96|60:164,1,100,2|0,0:0|0:0,0:0:0:0:
192,112,8012,1,0,0:0:0:0:
328,152,8189,1,0,0:0:0:0:
232,256,8365,2,0,P|284:260|324:296,1,100,2|0,0:0|0:0,0:0:0:0:
168,304,8718,53,0,0:0:0:0:
232,176,8894,1,0,0:0:0:0:
360,128,9071,2,0,P|392:88|392:20,1,100,2|0,0:0|0:0,0:0:0:0:
344,304,9424,1,0,0:0:0:0:
280,176,9600,1,0,0:0:0:0:
152,128,9777,2,0,P|120:88|120:20,1,100,2|0,0:0|0:0,0:0:0:0:
256,56,10130,5,4,0:0:0:0:
280,176,10307,1,0,0:0:0:0:
392,96,10483,2,0,P|416:144|424:192,1,100,2|0,0:0|0:0,0:0:0:0:
256,56,10836,1,0,0:0:0:0:
232,176,11013,1,0,0:0:0:0:
120,96,11189,2,0,P|96:144|88:192,1,100,2|0,0:0|0:0,0:0:0:0:
184,288,11542,54,0,P|160:216|176:160,1,100,2|0,0:0|0:0,0:0:0:0:
288,264,11895,2,0,P|312:336|296:392,1,100,2|0,0:0|0:0,0:0:0:0:
344,168,12248,1,2,0:0:0:0:
480,168,12424,1,2,0:0:0:0:
480,168,12512,1,2,0:0:0:0:
480,168,12601,1,2,0:0:0:0:
408,288,12777,1,2,0:0:0:0:
272,360,12954,21,4,0:0:0:0:
216,232,13130,1,0,0:0:0:0:
160,360,13307,1,2,0:0:0:0:
104,232,13483,1,0,0:0:0:0:
56,104,13659,2,0,L|16:136,2,50
168,16,14012,2,0,P|224:0|272:28,1,100,2|0,0:0|0:0,0:0:0:0:
216,152,14365,5,0,0:0:0:0:
352,128,14542,1,0,0:0:0:0:
440,240,14718,1,2,0:0:0:0:
304,264,14895,1,0,0:0:0:0:
168,288,15071,1,0,0:0:0:0:
144,304,15159,1,0,0:0:0:0:
112,312,15248,1,0,0:0:0:0:
80,176,15424,2,0,P|20:224|4:260,1,100,2|0,0:0|0:0,0:0:0:0:
112,152,15777,54,0,P|80:88|76:44,1,100,4|0,0:0|0:0,0:0:0:0:
208,24,16130,2,0,P|240:88|244:132,1,100,2|0,0:0|0:0,0:0:0:0:
200,248,16483,2,0,L|168:288,2,50
336,216,16836,2,0,P|400:212|448:224,1,100,2|0,0:0|0:0,0:0:0:0:
376,88,17189,6,0,P|332:64|308:4,1,100
272,148,17542,2,0,P|316:172|340:232,1,100,2|0,0:0|0:0,0:0:0:0:
200,228,17895,1,0,0:0:0:0:
224,220,17983,1,0,0:0:0:0:
256,228,18071,1,0,0:0:0:0:
128,128,18248,2,0,P|72:144|36:128,1,100,2|0,0:0|0:0,0:0:0:0:
72,264,18601,54,0,P|81:276|156:324,1,100,4|0,0:0|0:0,0:0:0:0:
280,304,18954,2,0,P|264:288|192:244,1,100,2|0,0:0|0:0,0:0:0:0:
336,224,19307,2,0,L|336:172,2,50
448,304,19659,1,2,0:0:0:0:
472,168,19836,1,0,0:0:0:0:
360,80,20012,6,0,P|353:65|296:4,1,100
152,8,20365,2,0,P|160:32|232:96,1,100,2|0,0:0|0:0,0:0:0:0:
80,88,20718,1,0,0:0:0:0:
64,116,20807,1,0,0:0:0:0:
64,148,20895,1,0,0:0:0:0:
152,208,21071,2,0,P|196:232|216:280,1,100,2|0,0:0|0:0,0:0:0:0:
352,320,21424,53,4,0:0:0:0:
480,264,21601,1,0,0:0:0:0:
400,144,21777,1,2,0:0:0:0:
272,208,21954,1,0,0:0:0:0:
200,88,22130,2,0,L|200:28,2,50
152,208,22483,2,0,P|216:196|256:220,1,100,2|0,0:0|0:0,0:0:0:0:
384,208,22836,6,0,P|408:176|408:96,1,100,2|0,0:0|0:0,0:0:0:0:
360,248,23189,2,0,P|336:280|336:360,1,100,2|0,0:0|0:0,0:0:0:0:
328,200,23542,1,0,0:0:0:0:
304,176,23630,1,0,0:0:0:0:
304,148,23718,1,0,0:0:0:0:
248,312,23895,1,2,0:0:0:0:
152,208,24071,1,2,0:0:0:0:
168,88,24248,54,0,P|256:32|312:96,1,200,4|0,0:0|0:0,0:0:0:0:
328,200,25218,1,2,0:0:0:0:
240,224,25439,1,2,0:0:0:0:
112,136,25659,38,0,B|184:92|308:92|404:140,1,300,4|2,0:0|0:0,0:0:0:0:
248,312,26718,1,2,0:0:0:0:
248,72,27071,21,4,0:0:0:0:
96,312,27601,1,4,0:0:0:0:
416,312,28130,1,4,0:0:0:0:
256,192,28483,12,8,29542,0:0:0:0:
104,300,29895,38,0,B|132:208|208:260|208:136,1,200,0|0,0:0|0:0,0:0:0:0:
112,88,30424,2,0,B|212:16|312:104,1,200,4|0,0:0|0:0,0:0:0:0:
356,268,30954,1,0,0:0:0:0:
376,128,31130,54,0,B|348:220|272:168|264:296,1,200,4|0,0:0|0:0,0:0:0:0:
156,192,31659,1,8,0:0:0:0:
96,316,31836,1,8,0:0:0:0:
236,304,32012,1,0,0:0:0:0:
236,304,32365,5,0,0:0:0:0:
452,108,32542,2,0,P|440:216|452:260,1,150,4|0,0:0|0:0,0:0:0:0:
328,128,33071,1,2,0:0:0:0:
296,120,33159,1,0,0:0:0:0:
268,128,33248,1,2,0:0:0:0:
96,28,33424,5,2,0:0:0:0:
32,152,33601,1,0,0:0:0:0:
92,280,33777,1,0,0:0:0:0:
152,152,33954,2,0,P|196:128|328:168,1,175,4|0,0:0|0:0,0:0:0:0:
476,92,34483,1,0,0:0:0:0:
440,244,34659,1,2,0:0:0:0:
312,152,34836,2,0,P|228:200|152:148,1,200,4|4,0:0|0:0,0:0:0:0:
236,16,35542,53,8,0:0:0:0:
16,188,35895,1,2,0:0:0:0:
236,360,36248,1,8,0:0:0:0:
464,196,36601,1,2,0:0:0:0:
236,16,36954,54,0,B|224:72|248:128|232:232,1,200,8|0,0:0|0:0,0:0:0:0:
236,360,37483,1,2,0:0:0:0:
234,215,37659,2,0,B|248:128|224:72|236:16,1,200,8|0,0:0|0:0,0:0:0:0:
324,92,38189,6,0,P|280:152|164:168,1,175,4|0,0:0|0:0,0:0:0:0:
104,20,38718,1,2,0:0:0:0:
8,120,38895,1,2,0:0:0:0:
144,160,39071,2,0,P|120:236|128:272,1,100,4|0,0:0|0:0,0:0:0:0:
288,208,39424,1,2,0:0:0:0:
256,192,39601,12,6,41189,0:0:0:0:
144,184,52483,53,0,0:0:0:0:
164,56,52659,1,2,0:0:0:0:
236,176,52836,1,0,0:0:0:0:
268,40,53012,1,2,0:0:0:0:
348,156,53189,2,0,L|436:96,1,100,0|2,0:0|0:0,0:0:0:0:
348,212,53542,2,0,L|440:284,1,100,0|2,0:0|0:0,0:0:0:0:
296,328,53895,5,2,0:0:0:0:
220,212,54071,1,0,0:0:0:0:
348,212,54248,1,2,0:0:0:0:
164,328,54424,1,0,0:0:0:0:
84,212,54601,1,2,0:0:0:0:
156,92,54777,1,0,0:0:0:0:
220,212,54954,1,2,0:0:0:0:
12,96,55130,1,2,0:0:0:0:
292,96,55307,54,0,L|392:32,1,100,4|2,0:0|0:0,0:0:0:0:
512,84,55659,2,0,L|416:148,1,100,0|2,0:0|0:0,0:0:0:0:
432,280,56012,1,0,0:0:0:0:
328,188,56189,1,2,0:0:0:0:
280,320,56365,1,0,0:0:0:0:
480,152,56542,1,2,0:0:0:0:
432,280,56718,6,0,L|332:228,1,100,2|0,0:0|0:0,0:0:0:0:
204,236,57071,2,0,L|100:288,1,100,2|0,0:0|0:0,0:0:0:0:
204,172,57424,1,2,0:0:0:0:
124,56,57601,1,0,0:0:0:0:
56,176,57777,1,2,0:0:0:0:
268,56,57954,1,2,0:0:0:0:
408,58,58130,53,4,0:0:0:0:
488,172,58307,1,0,0:0:0:0:
412,292,58483,1,2,0:0:0:0:
412,292,58571,1,0,0:0:0:0:
412,292,58659,1,0,0:0:0:0:
332,176,58836,5,4,0:0:0:0:
256,292,59012,1,0,0:0:0:0:
172,180,59189,53,2,0:0:0:0:
172,180,59277,1,0,0:0:0:0:
172,180,59365,1,0,0:0:0:0:
76,80,59542,2,0,P|152:44|184:36,1,100,4|0,0:0|0:0,0:0:0:0:
308,40,59895,6,0,P|352:56|416:96,1,100,2|0,0:0|0:0,0:0:0:0:
404,224,60248,1,4,0:0:0:0:
404,224,60336,1,0,0:0:0:0:
404,224,60424,1,0,0:0:0:0:
256,292,60601,1,2,0:0:0:0:
136,220,60777,1,2,0:0:0:0:
256,152,60954,5,4,0:0:0:0:
308,40,61130,1,2,0:0:0:0:
172,52,61307,1,0,0:0:0:0:
392,136,61483,1,0,0:0:0:0:
472,232,61659,2,0,P|480:304|464:368,2,112.500004291535,2|2|0,0:0|0:0|0:0,0:0:0:0:
440,32,62365,5,0,0:0:0:0:
352,160,62542,1,2,0:0:0:0:
264,32,62718,1,2,0:0:0:0:
184,160,62895,1,2,0:0:0:0:
264,296,63071,2,0,P|208:304|128:288,2,112.500004291535,2|0|2,0:0|0:0|0:0,0:0:0:0:
352,160,63777,5,4,0:0:0:0:
264,32,63954,1,0,0:0:0:0:
184,160,64130,1,0,0:0:0:0:
96,32,64307,1,0,0:0:0:0:
32,160,64483,2,0,P|24:240|40:304,2,112.500004291535,2|2|0,0:0|0:0|0:0,0:0:0:0:
96,344,65189,21,0,0:0:0:0:
184,208,65365,1,2,0:0:0:0:
272,344,65542,1,2,0:0:0:0:
352,208,65718,1,0,0:0:0:0:
448,128,65895,2,0,P|440:72|440:16,2,112.500004291535,2|0|2,0:0|0:0|0:0,0:0:0:0:
248,328,66601,5,4,0:0:0:0:
224,224,66777,2,0,P|232:176|272:160,1,75.0000028610231,2|2,0:0|0:0,0:0:0:0:
352,120,67130,1,0,0:0:0:0:
368,312,67307,2,0,P|408:264|392:192,2,112.500004291535,0|2|2,0:0|0:0|0:0,0:0:0:0:
216,328,68012,5,4,0:0:0:0:
104,216,68189,1,2,0:0:0:0:
264,168,68365,1,2,0:0:0:0:
384,280,68542,1,0,0:0:0:0:
424,112,68718,2,0,P|392:56|320:16,2,112.500004291535,2|0|2,0:0|0:0|0:0,0:0:0:0:
264,168,69424,5,4,0:0:0:0:
104,80,69601,1,2,0:0:0:0:
128,240,69777,1,2,0:0:0:0:
288,336,69954,1,0,0:0:0:0:
432,208,70130,2,0,P|408:144|408:72,2,112.500004291535,0|2|0,0:0|0:0|0:0,0:0:0:0:
264,168,70836,21,4,0:0:0:0:
128,240,71012,1,2,0:0:0:0:
104,80,71189,1,2,0:0:0:0:
256,8,71365,1,0,0:0:0:0:
256,192,71542,12,8,72600,0:0:0:0:
240,128,72954,6,0,P|280:104|328:48,1,100,2|0,0:0|0:0,0:0:0:0:
400,80,73307,2,0,P|424:120|480:168,1,100,0|0,0:0|0:0,0:0:0:0:
448,232,73659,2,0,P|408:256|360:312,1,100,2|0,0:0|0:0,0:0:0:0:
288,280,74012,2,0,P|264:240|208:192,1,100,0|0,0:0|0:0,0:0:0:0:
224,204,74365,6,0,P|184:228|136:284,1,100,2|0,0:0|0:0,0:0:0:0:
80,260,74718,2,0,P|56:220|0:172,1,100,0|0,0:0|0:0,0:0:0:0:
44,112,75071,2,0,P|84:88|132:32,1,100,0|0,0:0|0:0,0:0:0:0:
192,60,75424,2,0,P|216:100|272:148,1,100,2|2,0:0|0:0,0:0:0:0:
380,156,75777,6,0,P|432:136|472:164,1,100,0|2,0:0|0:0,0:0:0:0:
464,272,76130,2,0,P|412:292|372:264,1,100,0|2,0:0|0:0,0:0:0:0:
380,88,76483,22,0,P|432:68|472:96,1,100,0|2,0:0|0:0,0:0:0:0:
464,336,76836,2,0,P|412:356|372:328,1,100,0|2,0:0|0:0,0:0:0:0:
232,184,77189,6,0,L|136:120,1,100,0|2,0:0|0:0,0:0:0:0:
152,212,77542,2,0,L|76:296,1,100,0|2,0:0|0:0,0:0:0:0:
176,296,77895,2,0,L|264:364,1,100
260,272,78248,2,8,L|344:188,1,100
468,72,78601,5,4,0:0:0:0:
392,176,78777,1,0,0:0:0:0:
328,72,78954,2,0,P|280:60|224:72,1,100,8|0,0:0|0:0,0:0:0:0:
280,176,79307,1,0,0:0:0:0:
340,288,79483,1,0,0:0:0:0:
228,288,79659,2,0,P|180:296|112:280,1,100,8|0,0:0|0:0,0:0:0:0:
72,176,80012,5,2,0:0:0:0:
128,64,80189,1,0,0:0:0:0:
208,184,80365,2,0,P|176:228|156:288,1,100,8|0,0:0|0:0,0:0:0:0:
280,176,80718,2,0,P|324:204|372:252,1,100
404,104,81071,1,8,0:0:0:0:
304,28,81248,1,2,0:0:0:0:
244,180,81424,22,0,P|256:208|336:244,1,100,2|0,0:0|0:0,0:0:0:0:
404,104,81777,1,8,0:0:0:0:
216,276,81954,1,0,0:0:0:0:
244,180,82130,6,0,P|228:220|156:244,1,100,2|0,0:0|0:0,0:0:0:0:
100,104,82483,1,8,0:0:0:0:
276,276,82659,1,0,0:0:0:0:
256,104,82836,5,2,0:0:0:0:
196,304,83012,1,0,0:0:0:0:
348,192,83189,1,8,0:0:0:0:
152,188,83365,1,0,0:0:0:0:
312,304,83542,2,0,P|384:280|504:312,1,200,2|8,0:0|0:0,0:0:0:0:
472,192,84071,1,8,0:0:0:0:
416,44,84248,6,0,P|392:96|336:120,1,100,4|0,0:0|0:0,0:0:0:0:
228,44,84601,1,8,0:0:0:0:
244,188,84777,1,0,0:0:0:0:
104,132,84954,2,0,P|52:156|28:212,1,100,0|0,0:0|0:0,0:0:0:0:
244,188,85307,1,8,0:0:0:0:
227,44,85483,1,0,0:0:0:0:
356,116,85659,22,0,P|408:136|436:192,1,100,2|0,0:0|0:0,0:0:0:0:
244,188,86012,1,8,0:0:0:0:
228,44,86189,1,0,0:0:0:0:
104,132,86365,2,0,P|52:112|24:56,1,100,0|0,0:0|0:0,0:0:0:0:
228,45,86718,1,8,0:0:0:0:
244,189,86895,1,2,0:0:0:0:
356,116,87071,6,0,P|396:96|456:108,1,100,2|0,0:0|0:0,0:0:0:0:
460,240,87424,2,0,P|420:260|360:248,1,100,8|0,0:0|0:0,0:0:0:0:
152,200,87777,6,0,P|192:180|252:192,1,100,2|0,0:0|0:0,0:0:0:0:
256,324,88130,2,0,P|216:344|156:332,1,100,8|0,0:0|0:0,0:0:0:0:
48,252,88483,5,2,0:0:0:0:
48,88,88659,1,0,0:0:0:0:
176,172,88836,1,8,0:0:0:0:
176,16,89012,1,2,0:0:0:0:
304,88,89189,2,0,P|368:112|440:264,1,200,2|8,0:0|0:0,0:0:0:0:
328,304,89718,1,8,0:0:0:0:
256,192,89895,21,4,0:0:0:0:
256,56,90071,1,0,0:0:0:0:
336,128,90248,2,0,P|404:124|448:132,1,100,8|0,0:0|0:0,0:0:0:0:
512,196,90601,1,0,0:0:0:0:
436,264,90777,2,0,P|368:268|324:260,1,100,0|8,0:0|0:0,0:0:0:0:
256,192,91130,1,0,0:0:0:0:
168,124,91307,6,0,P|100:120|56:128,1,100,2|0,0:0|0:0,0:0:0:0:
0,192,91659,1,8,0:0:0:0:
68,260,91836,2,0,P|136:264|180:256,2,100
0,192,92365,1,8,0:0:0:0:
68,124,92542,2,0,P|136:120|180:128,1,100,2|2,0:0|0:0,0:0:0:0:
256,192,92895,5,0,0:0:0:0:
316,316,93071,2,0,P|344:278|392:240,1,100,8|0,0:0|0:0,0:0:0:0:
256,192,93424,1,2,0:0:0:0:
184,72,93601,2,0,P|151:112|108:148,1,100,0|8,0:0|0:0,0:0:0:0:
256,192,93954,1,0,0:0:0:0:
196,316,94130,6,0,P|164:276|120:240,1,100,2|0,0:0|0:0,0:0:0:0:
256,192,94483,1,8,0:0:0:0:
256,328,94659,1,0,0:0:0:0:
336,72,94836,2,0,P|432:72|448:192,1,200,2|8,0:0|0:0,0:0:0:0:
376,280,95365,1,8,0:0:0:0:
232,336,95542,22,0,L|128:292,1,100,4|0,0:0|0:0,0:0:0:0:
284,320,95895,2,0,L|380:280,1,100,8|0,0:0|0:0,0:0:0:0:
232,280,96248,2,0,L|128:236,1,100,2|0,0:0|0:0,0:0:0:0:
280,256,96601,2,0,L|376:216,1,100,8|0,0:0|0:0,0:0:0:0:
256,104,96954,5,2,0:0:0:0:
164,208,97130,1,0,0:0:0:0:
280,288,97307,1,8,0:0:0:0:
372,184,97483,1,0,0:0:0:0:
248,68,97659,5,2,0:0:0:0:
128,216,97836,1,0,0:0:0:0:
288,320,98012,1,8,0:0:0:0:
404,172,98189,1,2,0:0:0:0:
268,192,98365,6,0,P|212:160|60:152,1,200,2|0,0:0|0:0,0:0:0:0:
0,196,98895,1,0,0:0:0:0:
24,320,99071,21,8,0:0:0:0:
112,52,99424,53,4,0:0:0:0:
224,320,99777,5,8,0:0:0:0:
348,52,100130,53,8,0:0:0:0:
416,328,100483,2,2,B|312:272|544:272|408:192,1,200,2|4,0:0|0:0,0:0:0:0:
256,60,101542,6,0,B|244:116|280:144|252:212,1,150,2|4,0:0|0:0,0:0:0:0:
136,288,102071,5,0,0:0:0:0:
256,344,102248,1,8,0:0:0:0:
384,288,102424,2,0,P|432:216|360:24,1,300.000011444092,4|0,0:0|0:0,0:0:0:0:
256,224,102954,53,8,0:0:0:0:
256,96,103130,1,8,0:0:0:0:
144,28,103307,2,0,P|72:154|128:288,1,300.000011444092,8|2,0:0|0:0,0:0:0:0:
180,248,103836,6,0,P|219:151|307:282,1,300.000011444092,4|0,0:0|0:0,0:0:0:0:
392,56,104365,1,0,0:0:0:0:
384,80,104454,1,2,0:0:0:0:
392,104,104542,1,2,0:0:0:0:
508,144,104718,2,0,P|524:228|500:316,1,150.000005722046,2|0,0:0|0:0,0:0:0:0:
368,200,105071,1,0,0:0:0:0:
392,56,105248,6,0,P|296:64|224:248,1,300.000011444092,4|2,0:0|0:0,0:0:0:0:
32,328,105777,1,2,0:0:0:0:
64,120,105954,1,2,0:0:0:0:
240,248,106130,2,0,P|288:304|384:320,1,150.000005722046,4|0,0:0|0:0,0:0:0:0:
392,56,106483,2,0,P|348:117|348:200,1,150.000005722046,4|0,0:0|0:0,0:0:0:0:
448,192,106836,37,6,0:0:0:0:
28,196,107189,1,2,0:0:0:0:
116,120,107365,2,0,B|272:120|168:288|408:288,1,300.000011444092,4|0,0:0|0:0,0:0:0:0:
448,192,107895,1,2,0:0:0:0:
348,120,108071,2,0,B|192:120|296:288|56:288,1,300.000011444092,4|0,0:0|0:0,0:0:0:0:
116,120,108601,21,2,0:0:0:0:
292,288,108777,1,0,0:0:0:0:
292,120,108954,1,0,0:0:0:0:
120,292,109130,1,0,0:0:0:0:
116,120,109307,1,2,0:0:0:0:
152,64,109483,38,0,B|192:104|344:0|448:80,1,300.000011444092,4|0,0:0|0:0,0:0:0:0:
480,200,110012,1,2,0:0:0:0:
364,328,110189,1,2,0:0:0:0:
264,204,110365,2,0,P|209:262|164:332,1,150.000005722046,2|0,0:0|0:0,0:0:0:0:
96,200,110718,1,0,0:0:0:0:
184,64,110895,6,0,P|260:48|344:72,1,150.000005722046,4|0,0:0|0:0,0:0:0:0:
408,168,111424,6,0,P|400:208|408:256,1,75.0000028610231,2|0,0:0|0:0,0:0:0:0:
336,264,111777,2,0,P|304:236|268:224,1,75.0000028610231,2|0,0:0|0:0,0:0:0:0:
280,152,112130,2,0,P|332:132|348:112,2,75.0000028610231,2|2|4,0:0|0:0|0:0,0:0:0:0:
180,28,112659,37,0,0:0:0:0:
96,152,112836,2,0,P|112:204|92:304,2,150.000005722046,2|8|0,0:0|0:0|0:0,0:0:0:0:
180,28,113365,1,2,0:0:0:0:
280,152,113542,2,0,P|264:204|284:304,2,150.000005722046,8|8|0,0:0|0:0|0:0,0:0:0:0:
452,28,114071,1,0,0:0:0:0:
472,52,114159,1,0,0:0:0:0:
480,84,114248,1,10,0:0:0:0:
496,292,114424,5,2,0:0:0:0:
292,348,114601,1,8,0:0:0:0:
160,184,114777,1,0,0:0:0:0:
368,140,114954,1,8,0:0:0:0:
176,56,115130,6,0,P|100:92|96:292,1,300.000011444092,4|0,0:0|0:0,0:0:0:0:
220,120,115659,1,10,0:0:0:0:
128,340,115836,1,2,0:0:0:0:
328,276,116012,6,0,P|388:260|476:184,1,150.000005722046,2|8,0:0|0:0,0:0:0:0:
312,56,116365,1,0,0:0:0:0:
100,52,116542,2,0,P|96:136|196:332,1,300.000011444092,4|2,0:0|0:0,0:0:0:0:
180,116,117071,1,0,0:0:0:0:
268,360,117248,1,2,0:0:0:0:
472,176,117424,2,0,P|408:240|400:376,2,200,4|4|4,0:0|0:0|0:0,0:0:0:0:
224,112,118307,21,0,0:0:0:0:
224,332,118483,1,2,0:0:0:0:
144,216,118659,1,0,0:0:0:0:
296,216,118836,1,0,0:0:0:0:
224,332,119012,1,2,0:0:0:0:
376,332,119189,1,0,0:0:0:0:
296,216,119365,6,0,B|344:200|352:280|520:200,1,200,0|0,0:0|0:0,0:0:0:0:
228,48,119895,5,2,0:0:0:0:
220,72,119983,1,2,0:0:0:0:
200,92,120071,1,2,0:0:0:0:
80,72,120248,2,0,P|68:156|-8:268,1,200,2|0,0:0|0:0,0:0:0:0:
232,328,120777,6,0,P|244:244|320:132,1,200,4|0,0:0|0:0,0:0:0:0:
472,60,121307,1,2,0:0:0:0:
368,216,121483,1,2,0:0:0:0:
320,80,121659,2,0,P|272:80|224:144,1,100,4|0,0:0|0:0,0:0:0:0:
156,272,122057,1,0,0:0:0:0:
256,192,122233,12,4,123777,0:0:0:0:
64,56,129424,21,2,0:0:0:0:
96,72,129512,1,0,0:0:0:0:
128,80,129601,1,0,0:0:0:0:
160,72,129689,1,0,0:0:0:0:
192,56,129777,1,0,0:0:0:0:
224,40,129865,1,0,0:0:0:0:
256,48,129953,1,0,0:0:0:0:
280,64,130042,1,0,0:0:0:0:
320,80,130130,54,0,L|360:24,7,50,2|0|0|0|0|0|0|0,0:0|0:0|0:0|0:0|0:0|0:0|0:0|0:0,0:0:0:0:
344,104,130836,5,2,0:0:0:0:
360,136,130924,1,0,0:0:0:0:
368,176,131012,1,0,0:0:0:0:
360,216,131101,1,0,0:0:0:0:
336,240,131189,1,0,0:0:0:0:
296,248,131277,1,2,0:0:0:0:
256,224,131365,1,2,0:0:0:0:
248,184,131454,1,2,0:0:0:0:
224,152,131542,22,0,P|160:112|32:136,1,200,4|4,0:0|0:0,0:0:0:0:
64,160,132336,37,0,0:0:0:0:
96,176,132424,1,0,0:0:0:0:
120,200,132512,1,0,0:0:0:0:
136,232,132600,1,0,0:0:0:0:
144,264,132689,1,0,0:0:0:0:
144,304,132777,1,0,0:0:0:0:
136,336,132865,1,0,0:0:0:0:
96,360,132954,54,0,L|32:336,7,50,2|0|0|0|0|0|0|0,0:0|0:0|0:0|0:0|0:0|0:0|0:0|0:0,0:0:0:0:
136,336,133659,5,2,0:0:0:0:
144,304,133748,1,0,0:0:0:0:
144,264,133836,1,0,0:0:0:0:
136,232,133924,1,0,0:0:0:0:
120,200,134012,1,0,0:0:0:0:
96,176,134101,1,2,0:0:0:0:
64,160,134189,1,2,0:0:0:0:
40,136,134277,1,2,0:0:0:0:
48,104,134365,22,0,B|113:104|178:47|253:53,1,200,6|4,0:0|0:0,0:0:0:0:
264,88,135159,37,2,0:0:0:0:
248,120,135247,1,0,0:0:0:0:
256,160,135336,1,0,0:0:0:0:
272,192,135424,1,0,0:0:0:0:
296,224,135512,1,0,0:0:0:0:
304,264,135600,1,0,0:0:0:0:
288,304,135689,1,0,0:0:0:0:
248,272,135777,54,0,L|192:224,7,50,2|0|0|0|0|0|0|0,0:0|0:0|0:0|0:0|0:0|0:0|0:0|0:0,0:0:0:0:
288,304,136483,5,2,0:0:0:0:
336,312,136571,1,0,0:0:0:0:
376,296,136659,1,0,0:0:0:0:
400,256,136748,1,0,0:0:0:0:
400,208,136836,1,0,0:0:0:0:
368,176,136924,1,2,0:0:0:0:
328,160,137012,1,2,0:0:0:0:
288,168,137101,1,2,0:0:0:0:
248,192,137189,22,0,P|216:200|248:112,1,200,4|4,0:0|0:0,0:0:0:0:
288,112,137983,37,0,0:0:0:0:
328,136,138071,1,0,0:0:0:0:
344,176,138159,1,0,0:0:0:0:
336,216,138248,1,0,0:0:0:0:
296,240,138336,1,0,0:0:0:0:
264,272,138424,1,0,0:0:0:0:
256,312,138512,1,0,0:0:0:0:
224,312,138601,53,2,0:0:0:0:
216,272,138689,1,0,0:0:0:0:
184,240,138777,1,0,0:0:0:0:
144,216,138865,1,0,0:0:0:0:
136,176,138954,1,0,0:0:0:0:
152,136,139042,1,0,0:0:0:0:
192,112,139130,1,0,0:0:0:0:
240,96,139218,1,0,0:0:0:0:
240,144,139307,38,0,L|240:216,7,50,2|0|0|0|0|2|0|0,0:0|0:0|0:0|0:0|0:0|0:0|0:0|0:0,0:0:0:0:
224,256,140012,37,4,0:0:0:0:
112,128,140277,1,4,0:0:0:0:
264,96,140542,2,0,P|232:72|296:88,1,225.000008583069,4|0,0:0|0:0,0:0:0:0:
0,244,141424,37,4,0:0:0:0:
0,104,141601,1,0,0:0:0:0:
100,200,141777,2,0,P|152:216|204:188,1,100,2|0,0:0|0:0,0:0:0:0:
300,108,142130,1,0,0:0:0:0:
300,248,142307,1,0,0:0:0:0:
100,152,142483,2,0,P|152:136|204:164,1,100,2|0,0:0|0:0,0:0:0:0:
192,292,142836,21,0,0:0:0:0:
332,292,143012,1,0,0:0:0:0:
436,200,143189,2,0,L|524:124,1,100,2|0,0:0|0:0,0:0:0:0:
332,292,143542,1,0,0:0:0:0:
192,292,143718,1,0,0:0:0:0:
76,200,143895,2,0,L|-12:124,1,100,2|2,0:0|0:0,0:0:0:0:
184,100,144248,22,0,P|172:72|92:36,1,100,2|0,0:0|0:0,0:0:0:0:
184,160,144601,1,0,0:0:0:0:
184,300,144777,1,0,0:0:0:0:
292,100,144954,6,0,P|308:60|380:36,1,100,2|0,0:0|0:0,0:0:0:0:
292,160,145307,1,0,0:0:0:0:
292,300,145483,1,0,0:0:0:0:
236,172,145659,37,2,0:0:0:0:
184,300,145836,1,0,0:0:0:0:
316,352,146012,1,0,0:0:0:0:
368,216,146189,1,2,0:0:0:0:
368,76,146365,2,0,P|409:105|328:112,1,200,2|0,0:0|0:0,0:0:0:0:
256,8,146895,1,2,0:0:0:0:
112,128,147071,6,0,P|136:76|192:52,1,100,4|0,0:0|0:0,0:0:0:0:
32,32,147424,1,2,0:0:0:0:
156,208,147601,1,0,0:0:0:0:
400,128,147777,6,0,P|376:76|320:52,1,100,0|0,0:0|0:0,0:0:0:0:
480,32,148130,1,2,0:0:0:0:
352,208,148307,1,0,0:0:0:0:
176,260,148483,38,0,P|200:312|256:336,1,100,0|0,0:0|0:0,0:0:0:0:
96,336,148836,1,2,0:0:0:0:
156,208,149012,1,0,0:0:0:0:
336,260,149189,54,0,P|312:312|256:336,1,100,0|0,0:0|0:0,0:0:0:0:
416,332,149542,1,2,0:0:0:0:
352,208,149718,1,2,0:0:0:0:
156,268,149895,6,0,P|116:288|56:276,1,100,2|0,0:0|0:0,0:0:0:0:
52,144,150248,2,0,P|92:124|152:136,1,100,0|0,0:0|0:0,0:0:0:0:
360,184,150601,6,0,P|320:204|260:192,1,100,2|0,0:0|0:0,0:0:0:0:
256,60,150954,2,0,P|296:40|356:52,1,100,0|0,0:0|0:0,0:0:0:0:
464,132,151307,5,2,0:0:0:0:
464,296,151483,1,0,0:0:0:0:
336,212,151659,1,2,0:0:0:0:
336,368,151836,1,0,0:0:0:0:
220,292,152012,2,0,P|152:328|72:236,1,200,2|8,0:0|0:0,0:0:0:0:
80,112,152542,1,8,0:0:0:0:
220,112,152718,21,4,0:0:0:0:
152,248,152895,1,0,0:0:0:0:
200,368,153071,2,0,P|132:372|88:364,1,100,8|0,0:0|0:0,0:0:0:0:
152,152,153424,1,2,0:0:0:0:
200,368,153601,2,0,P|132:372|88:364,1,100,0|8,0:0|0:0,0:0:0:0:
256,192,153954,1,0,0:0:0:0:
256,56,154130,5,2,0:0:0:0:
360,248,154307,1,0,0:0:0:0:
312,368,154483,2,0,P|380:372|424:364,1,100,8|0,0:0|0:0,0:0:0:0:
360,152,154836,1,2,0:0:0:0:
312,368,155013,2,0,P|380:372|424:364,1,100,0|8,0:0|0:0,0:0:0:0:
256,192,155366,1,2,0:0:0:0:
256,328,155542,5,4,0:0:0:0:
256,192,155718,1,0,0:0:0:0:
196,108,155895,2,0,P|149:143|120:184,1,100,8|0,0:0|0:0,0:0:0:0:
256,192,156248,1,2,0:0:0:0:
304,304,156424,2,0,P|345:270|380:228,1,100,0|8,0:0|0:0,0:0:0:0:
256,192,156777,1,0,0:0:0:0:
312,104,156954,6,0,P|356:140|388:180,1,100,2|0,0:0|0:0,0:0:0:0:
256,192,157307,1,8,0:0:0:0:
136,256,157483,1,0,0:0:0:0:
256,192,157659,2,0,P|216:120|104:72,1,200,2|8,0:0|0:0,0:0:0:0:
104,216,158189,1,8,0:0:0:0:
252,232,158365,22,0,L|304:328,1,100,4|0,0:0|0:0,0:0:0:0:
344,188,158718,2,0,L|440:140,1,100,8|0,0:0|0:0,0:0:0:0:
296,100,159071,2,0,L|244:0,1,100,2|0,0:0|0:0,0:0:0:0:
208,148,159424,2,0,L|112:192,1,100,8|0,0:0|0:0,0:0:0:0:
252,232,159777,22,0,L|200:328,1,100,2|0,0:0|0:0,0:0:0:0:
344,188,160130,2,0,L|432:234,1,100,8|0,0:0|0:0,0:0:0:0:
296,100,160483,2,0,L|344:-4,1,100,0|0,0:0|0:0,0:0:0:0:
208,148,160836,2,0,L|112:104,1,100,8|2,0:0|0:0,0:0:0:0:
24,216,161189,6,0,P|80:256|96:304,1,100,4|0,0:0|0:0,0:0:0:0:
224,328,161542,2,0,P|232:256|272:208,1,100,8|0,0:0|0:0,0:0:0:0:
376,184,161895,1,4,0:0:0:0:
52,116,163306,53,0,0:0:0:0:
96,128,163394,37,0,0:0:0:0:
140,140,163483,1,0,0:0:0:0:
184,152,163571,1,0,0:0:0:0:
224,164,163659,21,0,0:0:0:0:
264,176,163747,37,0,0:0:0:0:
304,184,163836,1,0,0:0:0:0:
348,196,163924,1,0,0:0:0:0:
396,212,164013,22,0,B|432:164|404:128|464:24,1,200,4|0,0:0|0:0,0:0:0:0:
320,144,164543,2,0,P|244:148|172:252,1,200,4|0,0:0|0:0,0:0:0:0:
308,284,165072,1,8,0:0:0:0:
176,352,165248,38,0,P|93:300|79:204,1,200,4|0,0:0|0:0,0:0:0:0:
0,104,165778,1,0,0:0:0:0:
136,48,165954,1,8,0:0:0:0:
244,128,166131,2,0,B|320:100|392:152|456:128,1,200
448,348,166660,6,0,P|428:300|484:168,1,200,4|0,0:0|0:0,0:0:0:0:
360,96,167190,1,2,0:0:0:0:
328,80,167278,1,2,0:0:0:0:
296,96,167365,1,2,0:0:0:0:
184,264,167542,2,0,P|168:312|124:356,1,100,2|0,0:0|0:0,0:0:0:0:
68,144,167895,1,0,0:0:0:0:
192,76,168072,6,0,P|164:148|232:256,1,200,4|0,0:0|0:0,0:0:0:0:
320,144,168601,1,2,0:0:0:0:
432,60,168778,1,2,0:0:0:0:
448,200,168954,2,0,P|492:280|408:332,2,200,4|4|4,0:0|0:0|0:0,0:0:0:0:
180,64,170013,37,0,0:0:0:0:
96,176,170190,2,0,B|152:244|96:292|184:376,1,200,2|0,0:0|0:0,0:0:0:0:
252,248,170719,1,2,0:0:0:0:
344,358,170895,2,0,B|416:292|360:244|416:176,1,200,2|0,0:0|0:0,0:0:0:0:
328,64,171425,1,0,0:0:0:0:
192,96,171601,2,0,L|192:208,1,100,2|2,0:0|0:0,0:0:0:0:
60,148,171954,2,0,L|60:264,1,100,2|2,0:0|0:0,0:0:0:0:
192,193,172307,6,0,P|296:157|376:205,1,200,4|0,0:0|0:0,0:0:0:0:
200,336,172837,1,2,0:0:0:0:
176,316,172925,1,0,0:0:0:0:
168,284,173012,1,2,0:0:0:0:
72,212,173190,2,0,P|76:161|72:104,2,100,2|0|2,0:0|0:0|0:0,0:0:0:0:
172,116,173719,2,0,P|236:76|360:52,1,200,4|0,0:0|0:0,0:0:0:0:
408,168,174248,6,0,P|400:208|408:256,1,75.0000028610231,2|0,0:0|0:0,0:0:0:0:
336,264,174601,2,0,P|304:236|268:224,1,75.0000028610231,2|0,0:0|0:0,0:0:0:0:
280,152,174954,2,0,P|332:132|348:112,2,75.0000028610231,2|2|12,0:0|0:0|0:0,0:0:0:0:
172,60,175484,5,0,0:0:0:0:
64,148,175660,1,0,0:0:0:0:
172,240,175837,2,0,P|160:272|104:304,2,100,8|0|0,0:0|0:0|0:0,0:0:0:0:
280,152,176366,1,8,0:0:0:0:
400,232,176542,2,0,P|464:296|456:216,1,200,8|0,0:0|0:0,0:0:0:0:
432,104,177072,1,8,0:0:0:0:
320,20,177248,1,8,0:0:0:0:
280,152,177425,2,0,P|196:116|96:152,1,200,8|2,0:0|0:0,0:0:0:0:
208,240,177954,22,0,P|292:276|392:240,1,200,4|2,0:0|0:0,0:0:0:0:
304,112,178484,1,8,0:0:0:0:
272,128,178572,1,0,0:0:0:0:
240,112,178660,1,8,0:0:0:0:
120,40,178837,6,0,P|72:76|64:124,1,100,12|0,0:0|0:0,0:0:0:0:
184,184,179190,1,0,0:0:0:0:
64,248,179366,2,0,P|76:332|176:376,1,200,12|0,0:0|0:0,0:0:0:0:
256,224,179895,1,8,0:0:0:0:
256,84,180072,1,8,0:0:0:0:
440,248,180248,2,0,P|428:332|328:376,2,200,4|4|4,0:0|0:0|0:0,0:0:0:0:
428,80,181131,5,0,0:0:0:0:
308,152,181307,1,2,0:0:0:0:
184,88,181484,2,0,P|120:64|40:164,1,200
172,196,182013,1,2,0:0:0:0:
38,234,182190,2,0,P|91:313|184:296,1,200
288,200,182719,5,2,0:0:0:0:
312,184,182807,1,2,0:0:0:0:
344,184,182895,1,2,0:0:0:0:
304,48,183072,1,0,0:0:0:0:
400,320,183248,1,8,0:0:0:0:
344,184,183425,1,2,0:0:0:0:
188,100,183601,22,0,P|192:148|88:244,1,200,4|0,0:0|0:0,0:0:0:0:
56,108,184131,1,2,0:0:0:0:
256,272,184307,1,2,0:0:0:0:
312,144,184484,2,0,P|264:156|264:216,1,100,4|0,0:0|0:0,0:0:0:0:
408,320,184837,2,0,P|456:308|456:248,1,100,0|4,0:0|0:0,0:0:0:0:
428,120,185189,6,0,P|444:84|508:72,1,100,2|0,0:0|0:0,0:0:0:0:
368,120,185542,2,0,P|352:84|288:72,1,100,2|0,0:0|0:0,0:0:0:0:
372,188,185895,2,0,P|356:224|292:236,1,100,2|0,0:0|0:0,0:0:0:0:
432,188,186248,2,0,P|448:224|512:236,2,100,2|2|4,0:0|0:0|0:0,0:0:0:0:
296,160,186777,5,0,0:0:0:0:
128,108,186954,1,2,0:0:0:0:
296,160,187130,2,0,P|296:204|172:276,1,200,8|0,0:0|0:0,0:0:0:0:
48,224,187659,1,2,0:0:0:0:
128,112,187836,2,0,P|176:112|244:232,1,200,8|0,0:0|0:0,0:0:0:0:
432,272,188365,1,8,0:0:0:0:
448,240,188454,1,0,0:0:0:0:
432,208,188542,1,8,0:0:0:0:
336,160,188718,2,0,P|276:112|296:-8,1,200,8|2,0:0|0:0,0:0:0:0:
128,4,189248,6,0,P|149:97|81:164,1,200,4|2,0:0|0:0,0:0:0:0:
136,296,189777,1,2,0:0:0:0:
272,216,189953,1,2,0:0:0:0:
312,96,190130,22,0,P|368:120|400:172,1,100,4|0,0:0|0:0,0:0:0:0:
432,272,190483,1,0,0:0:0:0:
204,96,190659,2,0,P|172:100|68:224,1,200,12|2,0:0|0:0,0:0:0:0:
136,344,191189,1,0,0:0:0:0:
200,216,191365,1,2,0:0:0:0:
320,292,191542,2,0,L|412:240,1,100,12|0,0:0|0:0,0:0:0:0:
320,136,191894,2,0,L|420:76,1,100,12|0,0:0|0:0,0:0:0:0:
196,80,192247,6,0,P|172:104|164:168,1,100,12|0,0:0|0:0,0:0:0:0:
168,308,192600,1,2,0:0:0:0:
316,80,192777,6,0,P|340:104|348:168,1,100,8|0,0:0|0:0,0:0:0:0:
344,308,193130,1,2,0:0:0:0:
256,200,193306,1,0,0:0:0:0:
392,184,193483,2,0,P|409:267|351:223,1,200,2|0,0:0|0:0,0:0:0:0:
384,96,194012,5,2,0:0:0:0:
352,80,194100,1,2,0:0:0:0:
320,96,194189,1,2,0:0:0:0:
256,296,194365,1,2,0:0:0:0:
256,296,194718,21,0,0:0:0:0:
0,192,194895,2,0,P|-20:140|88:136,1,200,4|0,0:0|0:0,0:0:0:0:
176,268,195424,2,0,P|208:336|232:344,1,100,2|2,0:0|0:0,0:0:0:0:
352,280,195777,2,0,P|320:212|296:204,2,100,2|0|2,0:0|0:0|0:0,0:0:0:0:
256,192,196306,12,2,197189,0:0:0:0:
128,96,197365,6,0,P|88:160|96:192,1,100,0|8,0:0|0:0,0:0:0:0:
224,168,197718,2,0,P|320:200|336:320,1,200,4|0,0:0|0:0,0:0:0:0:
464,208,198248,1,0,0:0:0:0:
480,168,198336,1,2,0:0:0:0:
464,128,198424,1,2,0:0:0:0:
336,72,198601,2,0,P|335:118|383:177,1,100,2|0,0:0|0:0,0:0:0:0:
432,40,198953,1,2,0:0:0:0:
256,192,199130,12,0,200012,0:0:0:0:
56,320,200189,54,0,P|48:264|64:216,1,100,0|2,0:0|0:0,0:0:0:0:
288,304,200542,22,0,B|224:240|168:296|104:192|104:192,1,200,4|0,0:0|0:0,0:0:0:0:
72,120,201071,1,0,0:0:0:0:
88,80,201159,1,0,0:0:0:0:
128,56,201247,1,0,0:0:0:0:
56,312,201424,2,0,P|92:274|112:208,1,100,4|0,0:0|0:0,0:0:0:0:
248,264,201777,1,0,0:0:0:0:
416,192,201954,38,0,B|504:192|504:40|344:40|344:168|344:192|176:192|176:56|280:56,1,450,4|6,0:0|0:0,0:0:0:0:
