osu file format v13

[General]
AudioFilename: Kun No Bijutsukan -Furando-ru Suka-retto.mp3
AudioLeadIn: 0
PreviewTime: 29542
Countdown: 0
SampleSet: Normal
StackLeniency: 0.3
Mode: 0
LetterboxInBreaks: 1
StoryFireInFront: 0
EpilepsyWarning: 1
WidescreenStoryboard: 0

[Editor]
DistanceSpacing: 1.4
BeatDivisor: 4
GridSize: 8
TimelineZoom: 3.799998

[Metadata]
Title:Flandre Scarlet
TitleUnicode:フランドール スカーレット
Artist:fi-fy
ArtistUnicode:fi-fy
Creator:Terabytes
Version:Extra
Source:Touhou
Tags:Flandre Scarlet U.N. Owen Was Her Touhou Kimino Museum fi-fy th06 embodiment devil centennial festival magical girls 495 Extra Vampire
BeatmapID:346864
BeatmapSetID:138921

[Difficulty]
HPDrainRate:8
CircleSize:4
OverallDifficulty:9
ApproachRate:9
SliderMultiplier:1.4
SliderTickRate:2

[Events]
//Background and Video events
0,0,"background.png",0,0
//Break Periods
2,41389,51883
2,123977,128824
//Storyboard Layer 0 (Background)
//Storyboard Layer 1 (Fail)
//Storyboard Layer 2 (Pass)
//Storyboard Layer 3 (Foreground)
//Storyboard Sound Samples
//Background Colour Transformations
3,100,163,162,255

[TimingPoints]
1660,352.941176470588,4,1,0,75,1,0
1660,-66.6666666666667,4,2,0,75,0,0
12954,-66.6666666666667,4,2,0,75,0,1
24248,-133.333333333333,4,2,0,75,0,0
25748,-133.333333333333,4,2,0,5,0,0
26189,-133.333333333333,4,2,0,50,0,0
26277,-133.333333333333,4,2,0,5,0,0
26718,-133.333333333333,4,2,0,75,0,0
29542,-50,4,1,0,75,0,0
31483,-66.6666666666667,4,1,0,75,0,0
32542,-50,4,2,0,75,0,1
33954,-50,4,1,0,75,0,1
34836,-50,4,2,0,75,0,1
35895,-66.6666666666667,4,2,0,75,0,1
40483,-50,4,2,0,10,0,1
40571,-50,4,2,0,20,0,1
40659,-50,4,2,0,30,0,1
40748,-50,4,2,0,40,0,1
40836,-50,4,2,0,50,0,1
40936,-50,4,2,0,60,0,1
41012,-50,4,2,0,70,0,1
41101,-50,4,2,0,80,0,1
41189,-50,4,2,0,90,0,0
61307,-100,4,2,0,75,0,0
66601,-66.6666666666667,4,2,0,75,0,0
72071,-66.6666666666667,4,2,0,75,0,0
72601,-100,4,3,0,75,0,0
75777,-66.6666666666667,4,2,0,75,0,0
99071,-50,4,3,0,5,0,0
99248,-50,4,3,0,75,0,0
100483,-50,4,1,0,50,0,0
101189,-50,4,1,0,75,0,1
103836,-50,4,2,0,75,0,1
106836,-50,4,1,0,75,0,1
109483,-50,4,2,0,75,0,1
112483,-50,4,2,0,75,0,0
123777,-100,4,2,0,75,0,0
131542,-200,4,1,0,75,0,0
131630,-200,4,1,0,5,0,0
132248,-100,4,2,0,75,0,0
134365,-200,4,2,0,75,0,0
134454,-200,4,2,0,5,0,0
135071,-100,4,2,0,75,0,0
137189,-200,4,2,0,75,0,0
137277,-200,4,2,0,5,0,0
137807,-100,4,2,0,75,0,0
140012,-66.6666666666667,4,2,0,75,0,0
146542,-50,4,2,0,75,0,0
148483,-66.6666666666667,4,2,0,75,0,0
162601,-66.6666666666667,4,3,0,75,0,0
164012,-50,4,1,0,75,0,1
166659,-50,4,2,0,75,0,1
173718,-100,4,2,0,75,0,1
175307,-50,4,2,0,75,0,0
185189,-50,4,2,0,40,0,0
185542,-50,4,2,0,50,0,0
185895,-50,4,2,0,60,0,0
186248,-50,4,2,0,75,0,0
186601,-50,4,2,0,75,0,1
197674,-50,4,2,0,75,0,0
197718,-50,4,2,0,75,0,1
200542,-50,4,2,0,75,0,0
200718,-50,4,2,0,5,0,0
200895,-50,4,1,0,75,0,0
203542,-100,4,2,0,75,0,0

[Colours]
Combo1 : 59,59,59
Combo2 : 245,202,86
Combo3 : 242,50,2
Combo4 : 68,183,238
Combo5 : 238,238,238

[HitObjects]
96,160,1660,38,0,P|88:104|96:48,1,105.000004005432,4|0,0:0|0:0,0:0:0:0:
232,104,2012,1,2,0:0:0:0:
232,248,2189,1,0,0:0:0:0:
96,304,2365,2,0,P|104:248|96:192,1,105.000004005432,0|0,0:0|0:0,0:0:0:0:
232,104,2718,1,2,0:0:0:0:
232,248,2895,1,0,0:0:0:0:
352,168,3071,5,0,0:0:0:0:
480,240,3248,1,0,0:0:0:0:
408,368,3424,1,2,0:0:0:0:
280,296,3601,1,0,0:0:0:0:
152,368,3777,1,0,0:0:0:0:
80,240,3954,1,0,0:0:0:0:
208,168,4130,1,2,0:0:0:0:
280,296,4307,1,0,0:0:0:0:
352,168,4483,54,0,P|296:176|240:168,1,105.000004005432,4|0,0:0|0:0,0:0:0:0:
144,64,4836,1,2,0:0:0:0:
288,64,5012,1,0,0:0:0:0:
184,168,5189,2,0,P|128:160|72:168,1,105.000004005432,0|0,0:0|0:0,0:0:0:0:
144,304,5542,1,2,0:0:0:0:
288,304,5718,1,0,0:0:0:0:
352,168,5895,6,0,P|408:136|440:72,1,105.000004005432
376,240,6248,1,2,0:0:0:0:
232,240,6424,1,0,0:0:0:0:
104,168,6601,2,0,P|48:136|16:72,1,105.000004005432
88,240,6954,1,2,0:0:0:0:
232,240,7130,1,2,0:0:0:0:
208,96,7307,54,0,P|181:143|160:208,1,105.000004005432,4|0,0:0|0:0,0:0:0:0:
80,312,7659,1,2,0:0:0:0:
224,312,7836,1,0,0:0:0:0:
344,104,8012,2,0,P|312:160|296:216,1,105.000004005432,0|0,0:0|0:0,0:0:0:0:
224,312,8365,1,2,0:0:0:0:
368,312,8542,1,0,0:0:0:0:
488,224,8718,5,0,0:0:0:0:
456,80,8895,1,0,0:0:0:0:
320,40,9071,1,2,0:0:0:0:
176,80,9248,1,0,0:0:0:0:
144,224,9424,1,0,0:0:0:0:
288,184,9601,1,0,0:0:0:0:
320,40,9777,1,2,0:0:0:0:
352,184,9954,1,0,0:0:0:0:
144,224,10130,54,0,P|99:259|64:303,1,105.000004005432,4|0,0:0|0:0,0:0:0:0:
24,152,10483,1,2,0:0:0:0:
96,24,10659,1,0,0:0:0:0:
280,224,10836,2,0,P|325:259|360:303,1,105.000004005432,0|0,0:0|0:0,0:0:0:0:
400,152,11189,1,2,0:0:0:0:
328,24,11365,1,0,0:0:0:0:
288,168,11542,6,0,P|254:127|213:95,1,105.000004005432,0|0,0:0|0:0,0:0:0:0:
144,224,11895,1,2,0:0:0:0:
216,96,12071,1,0,0:0:0:0:
144,224,12248,2,0,P|96:192|69:151,1,105.000004005432,0|0,0:0|0:0,0:0:0:0:
216,96,12601,1,2,0:0:0:0:
144,224,12777,1,2,0:0:0:0:
368,64,12954,38,0,P|312:48|272:0,1,105.000004005432,4|0,0:0|0:0,0:0:0:0:
144,64,13307,2,0,P|160:128|144:184,1,105.000004005432,2|0,0:0|0:0,0:0:0:0:
112,328,13659,1,0,0:0:0:0:
296,296,13836,1,0,0:0:0:0:
320,328,13924,1,0,0:0:0:0:
360,336,14012,2,0,P|384:296|440:272,1,105.000004005432,2|0,0:0|0:0,0:0:0:0:
464,168,14365,54,0,P|436:120|428:72,1,105.000004005432,0|0,0:0|0:0,0:0:0:0:
296,8,14718,2,0,P|224:32|184:64,1,105.000004005432,2|0,0:0|0:0,0:0:0:0:
80,128,15071,1,0,0:0:0:0:
296,296,15248,1,0,0:0:0:0:
264,328,15336,1,0,0:0:0:0:
224,336,15424,2,0,P|192:304|120:280,1,105.000004005432,2|0,0:0|0:0,0:0:0:0:
232,168,15777,6,0,P|279:190|330:199,1,105.000004005432,4|0,0:0|0:0,0:0:0:0:
208,120,16130,2,0,P|220:56|256:0,1,105.000004005432,2|0,0:0|0:0,0:0:0:0:
184,160,16483,1,0,0:0:0:0:
400,88,16659,1,0,0:0:0:0:
448,80,16748,1,0,0:0:0:0:
472,128,16836,2,0,P|448:176|472:256,1,105.000004005432,2|0,0:0|0:0,0:0:0:0:
352,120,17189,53,0,0:0:0:0:
248,216,17365,1,0,0:0:0:0:
272,264,17454,1,0,0:0:0:0:
248,304,17542,2,0,P|200:296|144:304,1,105.000004005432,2|0,0:0|0:0,0:0:0:0:
352,320,17895,1,0,0:0:0:0:
248,216,18071,1,0,0:0:0:0:
280,176,18160,1,0,0:0:0:0:
248,128,18248,2,0,P|200:136|144:128,1,105.000004005432,2|2,0:0|0:0,0:0:0:0:
48,200,18601,5,4,0:0:0:0:
40,232,18689,1,0,0:0:0:0:
64,264,18777,2,0,P|128:272|168:296,1,105.000004005432,0|2,0:0|0:0,0:0:0:0:
288,368,19130,1,0,0:0:0:0:
360,240,19307,1,0,0:0:0:0:
376,200,19395,1,0,0:0:0:0:
344,160,19483,2,0,P|272:168|232:152,1,105.000004005432,0|2,0:0|0:0,0:0:0:0:
128,64,19836,1,0,0:0:0:0:
200,192,20012,53,0,0:0:0:0:
216,232,20101,1,0,0:0:0:0:
200,272,20189,2,0,P|200:328|208:376,1,105.000004005432,0|2,0:0|0:0,0:0:0:0:
352,336,20542,1,0,0:0:0:0:
360,192,20718,1,0,0:0:0:0:
344,152,20807,1,0,0:0:0:0:
360,112,20895,2,0,P|360:56|352:8,1,105.000004005432,0|2,0:0|0:0,0:0:0:0:
208,48,21248,1,0,0:0:0:0:
80,112,21424,5,4,0:0:0:0:
64,152,21512,1,0,0:0:0:0:
80,192,21601,2,0,P|120:232|144:280,1,105.000004005432,0|2,0:0|0:0,0:0:0:0:
216,144,21954,1,0,0:0:0:0:
312,272,22130,1,0,0:0:0:0:
320,232,22218,1,0,0:0:0:0:
352,200,22307,2,0,P|368:152|344:88,1,105.000004005432,0|2,0:0|0:0,0:0:0:0:
216,248,22659,1,0,0:0:0:0:
216,104,22836,53,2,0:0:0:0:
216,280,23012,1,0,0:0:0:0:
216,64,23189,1,2,0:0:0:0:
216,312,23365,1,0,0:0:0:0:
352,256,23542,1,2,0:0:0:0:
216,200,23718,1,0,0:0:0:0:
224,184,23807,1,0,0:0:0:0:
240,168,23895,1,0,0:0:0:0:
264,160,23983,1,0,0:0:0:0:
288,160,24071,1,0,0:0:0:0:
304,168,24159,1,0,0:0:0:0:
336,184,24248,38,0,P|402:201|496:96,1,210.000008010865,4|2,0:0|0:0,0:0:0:0:
312,16,25218,1,0,0:0:0:0:
264,112,25483,1,2,0:0:0:0:
184,280,25659,2,0,P|256:296|344:280,2,157.500006008148,4|0|2,0:0|0:0|0:0,0:0:0:0:
264,112,27071,1,4,0:0:0:0:
440,112,27424,21,0,0:0:0:0:
352,112,27601,1,4,0:0:0:0:
80,112,27954,5,0,0:0:0:0:
176,112,28130,1,4,0:0:0:0:
256,192,28483,12,8,29542,0:0:0:0:
144,200,29895,21,0,0:0:0:0:
144,200,30248,2,0,B|152:160|200:144|248:160|256:232,1,140,0|4,0:0|0:0,0:0:0:0:
416,200,30777,1,0,0:0:0:0:
344,264,30953,1,0,0:0:0:0:
416,200,31130,2,0,P|360:128|216:240,1,280,4|0,0:0|0:0,0:0:0:0:
152,328,31659,1,8,0:0:0:0:
96,192,31836,1,8,0:0:0:0:
240,224,32012,2,0,P|296:176|208:72,1,210.000008010865
184,8,32542,38,0,P|328:40|368:184,1,280,4|0,0:0|0:0,0:0:0:0:
256,320,33071,1,0,0:0:0:0:
288,288,33159,1,0,0:0:0:0:
336,304,33248,1,2,0:0:0:0:
464,160,33424,1,2,0:0:0:0:
280,104,33601,1,0,0:0:0:0:
112,112,33777,1,0,0:0:0:0:
320,32,33954,6,0,P|352:48|240:168,1,280,4|0,0:0|0:0,0:0:0:0:
120,48,34483,1,0,0:0:0:0:
40,224,34659,1,0,0:0:0:0:
232,184,34836,1,4,0:0:0:0:
272,176,34924,1,0,0:0:0:0:
296,208,35012,1,0,0:0:0:0:
336,200,35101,1,0,0:0:0:0:
360,232,35189,37,4,0:0:0:0:
400,224,35277,1,0,0:0:0:0:
424,256,35365,1,0,0:0:0:0:
464,248,35454,1,0,0:0:0:0:
440,200,35542,38,0,P|472:128|480:16,1,140,8|0,0:0|0:0,0:0:0:0:
360,72,35895,2,0,P|232:112|144:88,1,210.000008010865,2|8,0:0|0:0,0:0:0:0:
72,216,36424,1,0,0:0:0:0:
192,304,36601,2,0,P|216:232|272:200,1,105.000004005432,2|0,0:0|0:0,0:0:0:0:
360,296,36954,2,0,P|408:232|296:136,1,210.000008010865,8|0,0:0|0:0,0:0:0:0:
240,216,37483,1,2,0:0:0:0:
120,296,37659,2,0,P|72:232|184:136,1,210.000008010865,8|2,0:0|0:0,0:0:0:0:
272,72,38189,22,0,B|348:28|436:116|512:56,1,210.000008010865,4|0,0:0|0:0,0:0:0:0:
368,336,38718,1,2,0:0:0:0:
352,304,38807,1,0,0:0:0:0:
320,304,38895,2,0,P|272:280|240:240,1,105.000004005432,2|4,0:0|0:0,0:0:0:0:
128,96,39248,1,0,0:0:0:0:
320,152,39424,1,0,0:0:0:0:
200,232,39601,5,4,0:0:0:0:
176,224,39689,1,0,0:0:0:0:
152,232,39777,1,0,0:0:0:0:
128,240,39865,1,0,0:0:0:0:
104,232,39954,1,0,0:0:0:0:
88,224,40042,1,0,0:0:0:0:
72,208,40130,1,0,0:0:0:0:
64,192,40218,1,0,0:0:0:0:
64,168,40307,1,0,0:0:0:0:
72,152,40395,1,0,0:0:0:0:
88,136,40483,53,4,0:0:0:0:
104,128,40571,1,4,0:0:0:0:
120,120,40659,1,4,0:0:0:0:
136,112,40748,1,4,0:0:0:0:
144,96,40836,1,4,0:0:0:0:
144,80,40924,1,4,0:0:0:0:
136,56,41012,1,4,0:0:0:0:
120,48,41101,1,4,0:0:0:0:
104,40,41189,5,4,0:0:0:0:
112,80,52483,21,0,0:0:0:0:
304,120,52659,1,2,0:0:0:0:
88,160,52836,1,0,0:0:0:0:
320,200,53012,1,2,0:0:0:0:
56,240,53189,1,0,0:0:0:0:
336,280,53365,1,2,0:0:0:0:
24,312,53542,1,0,0:0:0:0:
360,360,53718,1,2,0:0:0:0:
208,192,53895,6,0,P|226:121|256:56,1,140,2|0,0:0|0:0,0:0:0:0:
240,216,54248,2,0,P|291:164|349:122,1,140,2|0,0:0|0:0,0:0:0:0:
256,248,54601,2,0,P|326:228|397:221,1,140,2|0,0:0|0:0,0:0:0:0:
248,296,54954,2,0,P|318:314|383:344,2,140,2|2|4,0:0|0:0|0:0,0:0:0:0:
56,280,55483,53,0,0:0:0:0:
128,96,55659,1,2,0:0:0:0:
152,88,55748,1,0,0:0:0:0:
184,96,55836,2,0,P|264:104|336:96,1,140
496,16,56189,5,0,0:0:0:0:
472,208,56365,1,2,0:0:0:0:
440,200,56454,1,0,0:0:0:0:
400,208,56542,2,0,P|320:216|248:208,1,140
72,144,56895,53,0,0:0:0:0:
240,48,57071,1,2,0:0:0:0:
260,96,57159,1,0,0:0:0:0:
240,136,57248,2,0,P|232:208|248:280,1,140
392,136,57601,5,0,0:0:0:0:
320,320,57777,1,2,0:0:0:0:
280,344,57865,1,0,0:0:0:0:
240,320,57954,1,0,0:0:0:0:
200,344,58042,1,0,0:0:0:0:
168,320,58130,54,0,P|128:256|120:192,1,140,4|0,0:0|0:0,0:0:0:0:
256,56,58483,1,2,0:0:0:0:
296,32,58571,1,0,0:0:0:0:
336,56,58660,1,0,0:0:0:0:
376,32,58748,1,0,0:0:0:0:
408,56,58836,6,0,P|448:120|456:184,1,140,4|0,0:0|0:0,0:0:0:0:
424,216,59101,1,0,0:0:0:0:
384,240,59189,1,2,0:0:0:0:
344,216,59278,1,0,0:0:0:0:
304,240,59366,1,0,0:0:0:0:
264,216,59454,1,0,0:0:0:0:
224,184,59542,54,0,P|152:224|104:288,1,140,4|0,0:0|0:0,0:0:0:0:
80,240,59807,1,0,0:0:0:0:
64,208,59895,1,2,0:0:0:0:
56,168,59983,1,0,0:0:0:0:
64,128,60071,1,0,0:0:0:0:
96,96,60159,1,0,0:0:0:0:
144,80,60248,5,4,0:0:0:0:
192,80,60336,1,0,0:0:0:0:
232,104,60424,1,0,0:0:0:0:
256,144,60512,1,0,0:0:0:0:
264,200,60601,1,2,0:0:0:0:
248,248,60689,1,0,0:0:0:0:
208,272,60777,1,0,0:0:0:0:
160,280,60865,1,0,0:0:0:0:
112,272,60954,54,0,P|144:192|232:128,1,140,4|2,0:0|0:0,0:0:0:0:
296,72,61307,1,2,0:0:0:0:
368,136,61483,1,0,0:0:0:0:
400,224,61659,2,0,P|464:232|536:224,2,105,2|2|0,0:0|0:0|0:0,0:0:0:0:
368,320,62365,1,0,0:0:0:0:
256,208,62542,2,0,L|256:288,2,70,2|2|2,0:0|0:0|0:0,0:0:0:0:
160,136,63071,2,0,P|112:168|56:176,2,105,2|2|2,0:0|0:0|0:0,0:0:0:0:
256,104,63777,54,0,P|223:95|184:104,1,70,4|0,0:0|0:0,0:0:0:0:
240,192,64130,1,2,0:0:0:0:
208,288,64307,1,0,0:0:0:0:
168,368,64483,2,0,P|224:376|296:360,2,105,2|2|0,0:0|0:0|0:0,0:0:0:0:
208,288,65189,6,0,L|288:264,1,70,4|0,0:0|0:0,0:0:0:0:
392,296,65542,1,2,0:0:0:0:
464,224,65718,1,0,0:0:0:0:
368,192,65895,2,0,P|352:144|344:88,2,105,2|0|2,0:0|0:0|0:0,0:0:0:0:
264,56,66601,22,0,P|224:64|160:120,1,105.000004005432,4|2,0:0|0:0,0:0:0:0:
48,48,66954,1,2,0:0:0:0:
64,184,67130,1,0,0:0:0:0:
208,272,67307,2,2,B|200:304|232:320|264:304|256:272|288:256|312:272|312:320,2,157.500006008148
192,128,68012,5,4,0:0:0:0:
336,88,68189,1,2,0:0:0:0:
432,192,68365,1,2,0:0:0:0:
288,240,68542,1,0,0:0:0:0:
192,128,68718,2,0,P|128:184|120:256,2,157.500006008148,2|0|2,0:0|0:0|0:0,0:0:0:0:
56,80,69424,5,4,0:0:0:0:
192,16,69601,2,0,P|240:8|320:24,1,105.000004005432,0|2,0:0|0:0,0:0:0:0:
376,144,69954,1,0,0:0:0:0:
328,280,70130,2,0,P|264:296|168:280,2,157.500006008148,2|2|2,0:0|0:0|0:0,0:0:0:0:
248,160,70836,5,4,0:0:0:0:
344,48,71012,1,2,0:0:0:0:
480,104,71189,1,2,0:0:0:0:
392,224,71365,1,0,0:0:0:0:
272,312,71542,37,0,0:0:0:0:
120,104,71807,1,2,0:0:0:0:
120,320,72071,2,0,B|120:208|192:248|192:160|272:208|272:64,1,315.000012016297
48,56,72954,6,0,P|40:104|48:128,1,70,4|0,0:0|0:0,0:0:0:0:
144,128,73307,2,4,P|152:168|144:208,1,70,4|0,0:0|0:0,0:0:0:0:
216,264,73659,1,0,0:0:0:0:
288,200,73836,1,4,0:0:0:0:
328,176,73924,1,4,0:0:0:0:
360,200,74012,2,0,P|400:208|448:192,1,70
464,112,74365,6,0,P|416:128|392:152,1,70,4|0,0:0|0:0,0:0:0:0:
392,40,74718,2,0,P|352:32|320:8,1,70,4|0,0:0|0:0,0:0:0:0:
256,80,75071,1,0,0:0:0:0:
216,104,75159,1,0,0:0:0:0:
176,80,75248,1,0,0:0:0:0:
112,152,75424,1,4,0:0:0:0:
144,248,75601,1,0,0:0:0:0:
232,192,75777,21,0,0:0:0:0:
288,48,75954,1,2,0:0:0:0:
344,192,76130,1,0,0:0:0:0:
408,8,76307,1,2,0:0:0:0:
464,192,76483,1,0,0:0:0:0:
408,376,76659,1,2,0:0:0:0:
344,192,76836,1,0,0:0:0:0:
288,328,77012,1,2,0:0:0:0:
232,192,77189,22,0,P|200:128|144:96,1,105.000004005432,0|2,0:0|0:0,0:0:0:0:
128,248,77542,2,0,P|160:312|216:344,1,105.000004005432,0|2,0:0|0:0,0:0:0:0:
160,184,77895,1,0,0:0:0:0:
288,264,78071,1,0,0:0:0:0:
416,192,78248,1,0,0:0:0:0:
440,168,78336,1,0,0:0:0:0:
456,136,78424,1,2,0:0:0:0:
456,104,78512,1,2,0:0:0:0:
448,72,78601,1,4,0:0:0:0:
304,96,78777,6,0,P|252:85|204:65,1,105.000004005432,0|8,0:0|0:0,0:0:0:0:
160,88,79042,1,0,0:0:0:0:
168,128,79130,1,0,0:0:0:0:
328,280,79307,2,0,P|264:256|192:248,1,105.000004005432,0|0,0:0|0:0,0:0:0:0:
104,200,79659,1,8,0:0:0:0:
88,240,79748,1,0,0:0:0:0:
104,280,79836,1,0,0:0:0:0:
192,120,80012,38,0,P|248:96|328:88,1,105.000004005432,2|0,0:0|0:0,0:0:0:0:
384,200,80365,1,8,0:0:0:0:
424,224,80454,1,0,0:0:0:0:
480,216,80542,2,0,P|504:160|496:112,1,105.000004005432
400,8,80895,1,0,0:0:0:0:
304,112,81071,1,8,0:0:0:0:
272,72,81159,1,0,0:0:0:0:
232,56,81248,2,0,P|176:80|120:80,1,105.000004005432,2|4,0:0|0:0,0:0:0:0:
184,216,81601,5,0,0:0:0:0:
56,288,81777,1,8,0:0:0:0:
88,328,81865,1,0,0:0:0:0:
128,344,81954,2,0,P|184:320|240:320,1,105.000004005432,0|0,0:0|0:0,0:0:0:0:
184,176,82307,1,0,0:0:0:0:
280,288,82483,1,8,0:0:0:0:
248,328,82571,1,0,0:0:0:0:
208,344,82660,2,0,P|152:320|96:320,1,105.000004005432,0|2,0:0|0:0,0:0:0:0:
184,176,83012,5,0,0:0:0:0:
136,40,83189,1,8,0:0:0:0:
184,24,83277,1,0,0:0:0:0:
232,40,83365,2,0,P|240:96|272:144,1,105.000004005432,0|2,0:0|0:0,0:0:0:0:
312,152,83630,53,0,0:0:0:0:
328,200,83718,1,0,0:0:0:0:
312,240,83807,1,0,0:0:0:0:
272,256,83895,1,8,0:0:0:0:
224,240,83983,1,0,0:0:0:0:
208,208,84071,1,2,0:0:0:0:
216,160,84159,1,2,0:0:0:0:
256,136,84248,38,0,P|200:96|136:88,1,105.000004005432,4|0,0:0|0:0,0:0:0:0:
72,200,84601,1,8,0:0:0:0:
72,240,84689,1,0,0:0:0:0:
96,280,84777,2,0,P|144:312|200:312,1,105.000004005432,0|2,0:0|0:0,0:0:0:0:
256,136,85130,1,0,0:0:0:0:
440,200,85307,1,8,0:0:0:0:
440,240,85395,1,0,0:0:0:0:
416,280,85483,2,0,P|368:312|312:312,1,105.000004005432,0|2,0:0|0:0,0:0:0:0:
256,136,85836,5,0,0:0:0:0:
128,56,86012,1,8,0:0:0:0:
88,32,86101,1,0,0:0:0:0:
48,56,86189,2,0,P|48:120|24:168,1,105.000004005432
256,136,86542,1,0,0:0:0:0:
384,56,86718,1,8,0:0:0:0:
424,32,86807,1,0,0:0:0:0:
464,56,86895,2,0,P|464:120|488:168,1,105.000004005432,2|4,0:0|0:0,0:0:0:0:
424,296,87248,5,0,0:0:0:0:
368,160,87424,1,8,0:0:0:0:
336,200,87512,1,0,0:0:0:0:
288,192,87601,2,0,P|224:176|160:176,1,105.000004005432,0|4,0:0|0:0,0:0:0:0:
88,296,87954,1,0,0:0:0:0:
144,160,88130,1,8,0:0:0:0:
176,200,88218,1,0,0:0:0:0:
224,192,88307,2,0,P|288:176|352:176,1,105.000004005432,0|4,0:0|0:0,0:0:0:0:
256,48,88659,5,0,0:0:0:0:
112,56,88836,1,8,0:0:0:0:
120,104,88924,1,0,0:0:0:0:
96,144,89012,2,0,P|72:192|64:248,1,105.000004005432,0|4,0:0|0:0,0:0:0:0:
184,328,89365,1,0,0:0:0:0:
240,192,89542,1,8,0:0:0:0:
192,184,89630,1,0,0:0:0:0:
144,152,89718,1,0,0:0:0:0:
120,112,89807,1,0,0:0:0:0:
104,72,89895,53,4,0:0:0:0:
232,144,90071,1,0,0:0:0:0:
104,224,90248,1,8,0:0:0:0:
104,256,90336,1,0,0:0:0:0:
104,288,90424,1,0,0:0:0:0:
408,72,90601,53,2,0:0:0:0:
280,144,90777,1,0,0:0:0:0:
408,224,90954,1,8,0:0:0:0:
408,256,91042,1,0,0:0:0:0:
408,288,91130,1,0,0:0:0:0:
312,176,91307,6,0,P|256:192|200:168,1,105.000004005432,2|0,0:0|0:0,0:0:0:0:
216,328,91659,1,8,0:0:0:0:
256,344,91748,1,0,0:0:0:0:
304,328,91836,1,0,0:0:0:0:
216,72,92012,6,0,P|272:88|328:64,1,105.000004005432,2|0,0:0|0:0,0:0:0:0:
304,328,92365,1,8,0:0:0:0:
264,344,92454,1,0,0:0:0:0:
216,328,92542,2,0,P|192:280|144:240,1,105.000004005432,2|4,0:0|0:0,0:0:0:0:
112,104,92895,21,0,0:0:0:0:
200,224,93071,1,8,0:0:0:0:
216,192,93159,1,0,0:0:0:0:
216,152,93248,1,0,0:0:0:0:
296,32,93424,1,2,0:0:0:0:
296,176,93601,1,0,0:0:0:0:
440,152,93777,1,8,0:0:0:0:
416,120,93866,1,0,0:0:0:0:
416,72,93954,1,0,0:0:0:0:
296,176,94130,6,0,P|288:248|296:320,1,105.000004005432,2|0,0:0|0:0,0:0:0:0:
152,224,94483,1,8,0:0:0:0:
120,200,94571,1,0,0:0:0:0:
72,192,94659,2,0,P|48:144|48:88,1,105.000004005432,0|2,0:0|0:0,0:0:0:0:
192,56,95012,1,0,0:0:0:0:
152,224,95189,1,8,0:0:0:0:
120,200,95277,1,0,0:0:0:0:
72,192,95365,2,0,P|48:144|48:88,1,105.000004005432,2|4,0:0|0:0,0:0:0:0:
192,56,95718,5,0,0:0:0:0:
328,104,95895,1,8,0:0:0:0:
352,144,95983,1,0,0:0:0:0:
392,168,96071,2,0,P|448:176|480:224,1,105.000004005432,0|2,0:0|0:0,0:0:0:0:
144,152,96424,1,0,0:0:0:0:
280,216,96601,1,8,0:0:0:0:
304,256,96689,1,0,0:0:0:0:
344,280,96777,2,0,P|400:288|432:336,1,105.000004005432,0|2,0:0|0:0,0:0:0:0:
320,56,97130,5,0,0:0:0:0:
184,104,97307,1,8,0:0:0:0:
160,144,97395,1,0,0:0:0:0:
120,168,97483,2,0,P|64:176|32:224,1,105.000004005432,0|2,0:0|0:0,0:0:0:0:
368,152,97836,1,0,0:0:0:0:
232,216,98013,1,8,0:0:0:0:
208,256,98101,1,0,0:0:0:0:
168,280,98189,2,0,P|112:288|80:336,1,105.000004005432,2|4,0:0|0:0,0:0:0:0:
120,184,98542,37,0,0:0:0:0:
200,72,98718,1,8,0:0:0:0:
232,96,98807,1,0,0:0:0:0:
280,104,98895,1,0,0:0:0:0:
328,88,98983,1,0,0:0:0:0:
376,64,99071,2,0,P|426:124|446:203,1,140,8|0,0:0|0:0,0:0:0:0:
112,288,99424,1,0,0:0:0:0:
392,288,99601,1,0,0:0:0:0:
440,56,99777,37,0,0:0:0:0:
64,64,100130,1,8,0:0:0:0:
256,64,100483,2,2,L|224:128,1,70
224,126,100659,2,2,L|256:192,1,70
254,189,100836,2,2,L|224:256,1,70
225,253,101012,2,0,L|256:344,2,70,2|2|4,0:0|0:0|0:0,0:0:0:0:
232,96,101542,53,8,0:0:0:0:
96,232,101718,2,0,P|216:272|368:232,1,280,4|0,0:0|0:0,0:0:0:0:
232,96,102248,1,0,0:0:0:0:
96,336,102424,2,0,P|216:376|368:336,1,280,4|0,0:0|0:0,0:0:0:0:
232,192,102954,1,8,0:0:0:0:
368,56,103130,1,8,0:0:0:0:
320,248,103307,2,0,P|332:266|397:140,1,280,8|0,0:0|0:0,0:0:0:0:
240,144,103836,38,0,P|224:128|184:264,1,280,4|8,0:0|0:0,0:0:0:0:
344,304,104365,1,8,0:0:0:0:
360,280,104454,1,0,0:0:0:0:
392,272,104542,1,2,0:0:0:0:
472,96,104718,1,8,0:0:0:0:
288,32,104895,1,2,0:0:0:0:
200,208,105071,1,2,0:0:0:0:
8,248,105248,6,0,P|24:184|216:184,1,280,4|2,0:0|0:0,0:0:0:0:
160,288,105777,1,0,0:0:0:0:
344,360,105954,1,2,0:0:0:0:
280,136,106130,1,0,0:0:0:0:
312,112,106218,1,0,0:0:0:0:
352,112,106307,1,0,0:0:0:0:
384,136,106395,1,0,0:0:0:0:
392,176,106483,1,0,0:0:0:0:
360,216,106571,1,0,0:0:0:0:
312,216,106659,1,0,0:0:0:0:
280,184,106748,1,0,0:0:0:0:
280,136,106836,6,0,P|184:160|120:328,1,280,4|0,0:0|0:0,0:0:0:0:
40,328,107365,2,0,P|40:240|160:48,1,280,4|0,0:0|0:0,0:0:0:0:
376,72,107895,1,0,0:0:0:0:
288,240,108071,6,0,P|232:296|24:320,1,280,4|0,0:0|0:0,0:0:0:0:
152,160,108601,1,0,0:0:0:0:
344,136,108777,1,8,0:0:0:0:
200,264,108954,1,8,0:0:0:0:
240,64,109130,1,8,0:0:0:0:
320,248,109307,1,4,0:0:0:0:
240,64,109483,22,0,P|144:64|24:192,1,280,4|0,0:0|0:0,0:0:0:0:
176,192,110012,1,2,0:0:0:0:
344,128,110189,1,2,0:0:0:0:
320,288,110365,1,2,0:0:0:0:
344,320,110454,1,0,0:0:0:0:
384,328,110542,1,0,0:0:0:0:
344,128,110718,1,0,0:0:0:0:
160,56,110895,53,2,0:0:0:0:
40,216,111071,1,0,0:0:0:0:
216,312,111248,1,2,0:0:0:0:
368,120,111424,5,8,0:0:0:0:
152,32,111601,1,2,0:0:0:0:
16,232,111777,53,8,0:0:0:0:
224,344,111954,1,2,0:0:0:0:
376,144,112130,5,8,0:0:0:0:
184,184,112307,1,2,0:0:0:0:
320,64,112483,22,0,P|384:32|448:80,2,140,4|2|10,0:0|0:0|0:0,0:0:0:0:
184,184,113012,2,0,P|120:152|56:208,2,140,8|0|2,0:0|0:0|0:0,0:0:0:0:
304,344,113542,1,8,0:0:0:0:
488,272,113718,2,0,P|496:200|368:48,1,280,10|8,0:0|0:0,0:0:0:0:
184,128,114248,21,8,0:0:0:0:
208,152,114336,1,8,0:0:0:0:
248,160,114424,1,8,0:0:0:0:
104,304,114601,1,8,0:0:0:0:
280,224,114777,1,8,0:0:0:0:
200,56,114954,1,2,0:0:0:0:
24,136,115130,6,0,P|104:168|160:176,1,140,4|2,0:0|0:0,0:0:0:0:
408,40,115483,2,0,P|419:115|408:184,2,140,2|8|8,0:0|0:0|0:0,0:0:0:0:
224,104,116012,2,0,P|160:72|64:64,1,140,2|8,0:0|0:0,0:0:0:0:
264,152,116365,2,0,P|328:184|424:192,1,140,8|4,0:0|0:0,0:0:0:0:
56,304,116718,5,2,0:0:0:0:
208,180,116895,1,8,0:0:0:0:
352,304,117071,1,0,0:0:0:0:
208,181,117248,2,0,P|152:144|136:56,1,140,2|4,0:0|0:0,0:0:0:0:
136,40,117512,5,0,0:0:0:0:
168,32,117601,1,0,0:0:0:0:
192,48,117689,1,0,0:0:0:0:
208,80,117777,1,4,0:0:0:0:
232,64,117865,1,0,0:0:0:0:
256,56,117954,1,0,0:0:0:0:
280,64,118042,1,0,0:0:0:0:
312,96,118130,22,0,P|378:90|456:60,1,140,4|0,0:0|0:0,0:0:0:0:
256,144,118483,2,0,P|187:117|120:112,2,140,8|0|0,0:0|0:0|0:0,0:0:0:0:
328,304,119012,2,0,P|320:240|328:152,1,140,0|8,0:0|0:0,0:0:0:0:
424,304,119365,1,8,0:0:0:0:
504,184,119542,1,0,0:0:0:0:
416,68,119718,1,0,0:0:0:0:
384,88,119807,1,2,0:0:0:0:
344,80,119895,1,2,0:0:0:0:
216,56,120071,2,0,P|138:69|72:96,1,140,8|2,0:0|0:0,0:0:0:0:
82,92,120601,5,0,0:0:0:0:
216,288,120777,2,0,P|256:248|480:200,1,280,4|0,0:0|0:0,0:0:0:0:
288,104,121307,1,2,0:0:0:0:
216,288,121483,1,2,0:0:0:0:
384,184,121659,1,4,0:0:0:0:
184,176,121836,1,0,0:0:0:0:
336,296,122012,1,0,0:0:0:0:
256,192,122189,12,4,123777,0:0:0:0:
152,80,129424,22,0,L|136:120,1,35,4|0,0:0|0:0,0:0:0:0:
152,152,129601,1,0,0:0:0:0:
128,192,129689,1,0,0:0:0:0:
160,232,129777,6,0,L|144:272,1,35,2|0,0:0|0:0,0:0:0:0:
160,304,129954,1,0,0:0:0:0:
136,344,130042,1,0,0:0:0:0:
200,352,130130,54,0,L|242:345,1,35,4|0,0:0|0:0,0:0:0:0:
262,316,130307,1,0,0:0:0:0:
308,316,130395,1,0,0:0:0:0:
327,269,130483,6,0,L|369:262,1,35,2|0,0:0|0:0,0:0:0:0:
389,233,130660,1,0,0:0:0:0:
436,233,130748,1,0,0:0:0:0:
472,192,130836,21,4,0:0:0:0:
488,152,130924,1,0,0:0:0:0:
480,112,131012,1,0,0:0:0:0:
456,72,131101,1,0,0:0:0:0:
416,64,131189,1,2,0:0:0:0:
384,96,131277,1,0,0:0:0:0:
344,112,131365,1,2,0:0:0:0:
304,88,131454,1,2,0:0:0:0:
256,88,131542,2,0,P|208:88|152:160,1,140,4|4,0:0|0:0,0:0:0:0:
184,176,132336,21,0,0:0:0:0:
192,136,132424,1,0,0:0:0:0:
168,104,132512,1,0,0:0:0:0:
128,80,132601,1,2,0:0:0:0:
88,88,132689,1,0,0:0:0:0:
64,120,132777,1,0,0:0:0:0:
56,160,132865,1,0,0:0:0:0:
64,216,132954,6,0,L|88:264,1,35,4|0,0:0|0:0,0:0:0:0:
112,280,133130,2,0,L|168:304,1,35
192,304,133307,2,0,L|248:296,1,35,2|0,0:0|0:0,0:0:0:0:
272,264,133483,2,0,L|296:232,1,35
320,184,133659,21,4,0:0:0:0:
368,144,133748,1,0,0:0:0:0:
424,144,133836,1,0,0:0:0:0:
472,176,133924,1,0,0:0:0:0:
488,232,134012,1,0,0:0:0:0:
472,288,134101,1,2,0:0:0:0:
416,312,134189,1,2,0:0:0:0:
352,296,134277,1,2,0:0:0:0:
312,248,134365,2,0,P|248:216|176:200,1,140,4|4,0:0|0:0,0:0:0:0:
136,168,135159,21,0,0:0:0:0:
152,136,135247,1,0,0:0:0:0:
192,120,135335,1,0,0:0:0:0:
232,136,135423,1,2,0:0:0:0:
248,168,135512,1,0,0:0:0:0:
256,208,135600,1,0,0:0:0:0:
264,248,135688,1,0,0:0:0:0:
288,288,135777,37,4,0:0:0:0:
312,248,135865,37,0,0:0:0:0:
320,208,135953,1,0,0:0:0:0:
328,168,136041,1,0,0:0:0:0:
344,136,136130,1,2,0:0:0:0:
384,120,136218,1,0,0:0:0:0:
424,136,136306,1,0,0:0:0:0:
440,168,136394,1,0,0:0:0:0:
456,216,136483,22,0,P|496:184|504:88,1,140,4|0,0:0|0:0,0:0:0:0:
488,72,136924,1,0,0:0:0:0:
456,48,137012,1,2,0:0:0:0:
416,40,137101,1,2,0:0:0:0:
392,80,137189,2,0,P|392:104|328:192,1,122.5,4|4,0:0|0:0,0:0:0:0:
304,160,137895,21,4,0:0:0:0:
272,128,137983,1,0,0:0:0:0:
232,136,138071,1,0,0:0:0:0:
216,176,138159,1,0,0:0:0:0:
248,216,138248,1,2,0:0:0:0:
296,200,138336,1,0,0:0:0:0:
304,160,138424,1,0,0:0:0:0:
352,136,138512,1,0,0:0:0:0:
400,136,138601,5,4,0:0:0:0:
448,160,138689,1,0,0:0:0:0:
464,208,138777,1,0,0:0:0:0:
448,264,138865,1,0,0:0:0:0:
400,296,138954,1,2,0:0:0:0:
344,288,139042,1,0,0:0:0:0:
304,248,139130,1,0,0:0:0:0:
296,200,139218,1,0,0:0:0:0:
304,160,139307,21,4,0:0:0:0:
296,112,139395,1,0,0:0:0:0:
272,72,139483,1,0,0:0:0:0:
232,48,139571,1,0,0:0:0:0:
176,48,139659,1,2,0:0:0:0:
136,64,139748,1,0,0:0:0:0:
104,104,139836,1,0,0:0:0:0:
104,152,139924,1,0,0:0:0:0:
200,136,140012,5,6,0:0:0:0:
376,216,140277,37,6,0:0:0:0:
240,312,140542,5,6,0:0:0:0:
256,192,140630,12,4,141424,0:0:0:0:
80,136,141601,54,0,P|128:128|160:80,1,105.000004005432,0|2,0:0|0:0,0:0:0:0:
304,88,141954,1,0,0:0:0:0:
376,216,142130,2,0,P|400:272|392:320,1,105.000004005432
504,208,142483,1,2,0:0:0:0:
432,112,142659,1,0,0:0:0:0:
296,168,142836,5,0,0:0:0:0:
224,288,143012,1,0,0:0:0:0:
320,256,143189,1,2,0:0:0:0:
192,192,143365,1,0,0:0:0:0:
128,64,143542,1,0,0:0:0:0:
64,248,143718,1,0,0:0:0:0:
0,120,143895,1,2,0:0:0:0:
192,192,144071,1,2,0:0:0:0:
264,64,144248,6,0,P|314:73|384:56,1,105.000004005432,2|0,0:0|0:0,0:0:0:0:
424,208,144601,2,0,P|400:160|424:88,1,105.000004005432,0|0,0:0|0:0,0:0:0:0:
224,112,144954,2,0,P|172:121|121:111,1,105.000004005432,2|0,0:0|0:0,0:0:0:0:
360,240,145307,2,0,P|352:291|376:337,1,105.000004005432,0|0,0:0|0:0,0:0:0:0:
328,136,145659,5,2,0:0:0:0:
240,240,145836,1,0,0:0:0:0:
200,136,146012,1,0,0:0:0:0:
360,240,146189,1,0,0:0:0:0:
304,344,146365,1,0,0:0:0:0:
264,336,146454,1,0,0:0:0:0:
216,344,146542,2,0,B|152:328|208:192|88:232,1,140,0|2,0:0|0:0,0:0:0:0:
80,136,146895,1,2,0:0:0:0:
200,40,147071,21,4,0:0:0:0:
200,224,147248,1,0,0:0:0:0:
312,80,147424,1,0,0:0:0:0:
312,264,147601,1,0,0:0:0:0:
416,120,147777,2,0,P|448:192|448:256,1,140,2|0,0:0|0:0,0:0:0:0:
376,72,148130,2,0,P|336:120|328:200,1,140,0|0,0:0|0:0,0:0:0:0:
184,216,148483,6,0,P|136:176|120:88,1,105.000004005432,2|0,0:0|0:0,0:0:0:0:
216,24,148836,2,0,P|264:64|280:152,1,105.000004005432,0|0,0:0|0:0,0:0:0:0:
120,136,149189,1,0,0:0:0:0:
280,104,149365,1,0,0:0:0:0:
216,24,149542,1,2,0:0:0:0:
184,216,149718,1,2,0:0:0:0:
424,136,149895,22,0,L|312:136,1,105.000004005432,2|0,0:0|0:0,0:0:0:0:
168,136,150248,2,0,L|280:136,1,105.000004005432
408,200,150601,2,0,L|288:168,1,105.000004005432,2|0,0:0|0:0,0:0:0:0:
184,204,150954,2,0,L|288:172,1,105.000004005432
284,321,151307,21,2,0:0:0:0:
320,176,151483,1,0,0:0:0:0:
280,32,151659,1,2,0:0:0:0:
240,176,151836,1,0,0:0:0:0:
144,64,152012,21,2,0:0:0:0:
120,96,152101,1,0,0:0:0:0:
120,136,152189,1,0,0:0:0:0:
144,168,152277,1,0,0:0:0:0:
168,200,152365,1,2,0:0:0:0:
176,240,152454,1,2,0:0:0:0:
168,272,152542,1,2,0:0:0:0:
144,304,152630,1,2,0:0:0:0:
104,312,152718,54,0,P|80:256|80:192,1,105.000004005432,4|0,0:0|0:0,0:0:0:0:
184,112,153071,1,8,0:0:0:0:
232,88,153159,1,0,0:0:0:0:
280,112,153248,2,0,P|304:160|368:216,1,105.000004005432,0|2,0:0|0:0,0:0:0:0:
464,120,153601,1,0,0:0:0:0:
328,272,153777,1,8,0:0:0:0:
280,296,153865,1,0,0:0:0:0:
232,272,153954,2,0,P|208:224|144:168,1,105.000004005432,0|2,0:0|0:0,0:0:0:0:
48,264,154307,5,0,0:0:0:0:
112,136,154483,1,8,0:0:0:0:
112,168,154571,1,0,0:0:0:0:
120,200,154659,2,0,P|152:256|208:280,1,105.000004005432
264,152,155012,1,0,0:0:0:0:
344,272,155189,1,8,0:0:0:0:
344,240,155277,1,0,0:0:0:0:
352,208,155365,2,0,P|384:152|440:128,1,105.000004005432,2|4,0:0|0:0,0:0:0:0:
328,16,155718,5,0,0:0:0:0:
192,72,155895,1,8,0:0:0:0:
160,88,155983,1,0,0:0:0:0:
128,104,156071,2,0,L|16:152,1,105.000004005432,0|0,0:0|0:0,0:0:0:0:
128,256,156424,1,0,0:0:0:0:
248,176,156601,1,8,0:0:0:0:
280,192,156689,1,0,0:0:0:0:
312,208,156777,2,0,L|424:256,1,105.000004005432,0|2,0:0|0:0,0:0:0:0:
456,112,157130,21,0,0:0:0:0:
320,48,157307,1,8,0:0:0:0:
280,64,157395,1,0,0:0:0:0:
240,48,157483,2,0,P|176:40|120:48,1,105.000004005432,0|2,0:0|0:0,0:0:0:0:
184,184,157836,1,0,0:0:0:0:
112,312,158012,1,8,0:0:0:0:
152,328,158101,1,0,0:0:0:0:
184,336,158189,1,2,0:0:0:0:
224,320,158277,1,0,0:0:0:0:
264,304,158365,6,0,P|320:288|400:288,1,105.000004005432,4|0,0:0|0:0,0:0:0:0:
400,144,158718,1,8,0:0:0:0:
400,176,158807,1,0,0:0:0:0:
400,208,158895,1,0,0:0:0:0:
256,64,159071,1,0,0:0:0:0:
256,264,159248,1,0,0:0:0:0:
112,144,159424,1,8,0:0:0:0:
112,176,159513,1,0,0:0:0:0:
112,208,159601,1,0,0:0:0:0:
256,64,159777,5,2,0:0:0:0:
256,264,159954,1,0,0:0:0:0:
456,144,160130,1,8,0:0:0:0:
456,176,160219,1,0,0:0:0:0:
456,208,160307,1,0,0:0:0:0:
256,64,160483,1,0,0:0:0:0:
256,264,160659,1,0,0:0:0:0:
64,144,160836,1,8,0:0:0:0:
64,176,160925,1,0,0:0:0:0:
64,208,161013,1,2,0:0:0:0:
160,320,161189,54,0,L|192:208,1,105.000004005432,4|0,0:0|0:0,0:0:0:0:
336,216,161542,1,0,0:0:0:0:
336,168,161630,1,0,0:0:0:0:
320,128,161718,1,0,0:0:0:0:
288,88,161807,1,0,0:0:0:0:
256,64,161895,1,4,0:0:0:0:
256,192,162601,21,4,0:0:0:0:
112,192,163307,37,4,0:0:0:0:
136,176,163395,1,4,0:0:0:0:
168,192,163483,1,4,0:0:0:0:
200,176,163571,1,4,0:0:0:0:
224,192,163659,1,4,0:0:0:0:
264,176,163748,1,4,0:0:0:0:
288,192,163836,1,4,0:0:0:0:
328,176,163924,1,4,0:0:0:0:
360,192,164012,22,0,B|216:272|320:312|112:352,1,280,4|0,0:0|0:0,0:0:0:0:
80,336,164542,2,0,B|48:264|88:152|64:48,1,280,4|0,0:0|0:0,0:0:0:0:
112,80,165071,2,0,P|192:96|264:72,2,140,8|4|0,0:0|0:0|0:0,0:0:0:0:
160,192,165601,1,0,0:0:0:0:
240,368,165777,1,4,0:0:0:0:
360,192,165954,1,12,0:0:0:0:
256,24,166130,1,8,0:0:0:0:
160,192,166307,1,0,0:0:0:0:
64,24,166483,1,12,0:0:0:0:
40,216,166659,38,0,P|79:314|230:291,1,280,4|0,0:0|0:0,0:0:0:0:
408,208,167189,1,2,0:0:0:0:
304,40,167365,1,2,0:0:0:0:
304,272,167542,1,2,0:0:0:0:
200,88,167718,1,0,0:0:0:0:
408,96,167895,1,0,0:0:0:0:
192,208,168071,6,0,P|136:152|88:304,1,280,4|2,0:0|0:0,0:0:0:0:
168,336,168601,1,0,0:0:0:0:
304,272,168777,1,2,0:0:0:0:
352,152,168954,37,4,0:0:0:0:
368,104,169042,1,0,0:0:0:0:
408,80,169130,1,0,0:0:0:0:
456,96,169218,1,0,0:0:0:0:
488,136,169307,1,4,0:0:0:0:
472,184,169395,1,0,0:0:0:0:
432,216,169483,1,0,0:0:0:0:
376,200,169571,1,0,0:0:0:0:
352,144,169659,38,0,P|280:176|160:32,1,280,12|0,0:0|0:0,0:0:0:0:
312,40,170189,2,0,P|288:160|128:192,1,280,4|0,0:0|0:0,0:0:0:0:
40,24,170718,1,2,0:0:0:0:
0,192,170895,2,0,P|80:264|288:264,1,280,4|2,0:0|0:0,0:0:0:0:
368,264,171424,1,0,0:0:0:0:
232,120,171601,1,2,0:0:0:0:
96,264,171777,1,2,0:0:0:0:
80,232,171865,1,0,0:0:0:0:
80,192,171954,2,0,P|144:136|240:120,1,140,2|0,0:0|0:0,0:0:0:0:
320,64,172307,54,0,B|272:192|384:192|312:336,1,280,4|2,0:0|0:0,0:0:0:0:
176,144,172836,1,2,0:0:0:0:
296,296,173012,1,2,0:0:0:0:
176,296,173189,1,2,0:0:0:0:
296,144,173365,1,0,0:0:0:0:
112,216,173542,1,8,0:0:0:0:
368,216,173718,2,0,B|432:184|376:144|448:96,1,140,4|0,0:0|0:0,0:0:0:0:
344,72,174248,5,2,0:0:0:0:
320,200,174424,1,0,0:0:0:0:
296,32,174601,1,2,0:0:0:0:
264,216,174777,1,0,0:0:0:0:
248,0,174954,1,2,0:0:0:0:
208,232,175130,1,2,0:0:0:0:
72,168,175307,38,0,P|72:240|96:312,1,140,4|0,0:0|0:0,0:0:0:0:
96,112,175659,1,8,0:0:0:0:
184,224,175836,2,0,P|184:296|208:368,1,140,8|0,0:0|0:0,0:0:0:0:
208,168,176188,1,0,0:0:0:0:
344,320,176365,1,8,0:0:0:0:
392,296,176454,1,0,0:0:0:0:
416,248,176542,2,0,P|376:184|376:88,1,140,8|0,0:0|0:0,0:0:0:0:
176,72,176895,5,0,0:0:0:0:
48,216,177071,1,8,0:0:0:0:
88,248,177159,1,0,0:0:0:0:
136,264,177248,2,0,P|216:240|304:248,1,140,8|8,0:0|0:0,0:0:0:0:
368,72,177601,1,0,0:0:0:0:
208,320,177777,1,8,0:0:0:0:
256,328,177865,1,0,0:0:0:0:
296,304,177954,6,0,B|192:216|296:144|136:80,1,280,4|0,0:0|0:0,0:0:0:0:
432,192,178483,1,0,0:0:0:0:
416,248,178571,1,8,0:0:0:0:
368,248,178659,2,0,P|288:240|224:248,1,140,8|4,0:0|0:0,0:0:0:0:
296,64,179012,1,0,0:0:0:0:
296,304,179189,1,8,0:0:0:0:
424,160,179365,38,0,P|296:120|152:160,1,280,4|0,0:0|0:0,0:0:0:0:
32,304,179895,1,8,0:0:0:0:
224,352,180071,1,2,0:0:0:0:
416,320,180248,5,0,0:0:0:0:
440,288,180336,1,0,0:0:0:0:
456,248,180424,1,0,0:0:0:0:
440,200,180512,1,0,0:0:0:0:
416,168,180601,1,0,0:0:0:0:
392,136,180689,1,0,0:0:0:0:
416,96,180777,1,2,0:0:0:0:
440,56,180865,1,2,0:0:0:0:
416,16,180954,6,0,P|336:24|248:80,1,140,4|0,0:0|0:0,0:0:0:0:
256,248,181307,1,2,0:0:0:0:
96,16,181483,2,0,P|176:24|264:80,1,140,8|0,0:0|0:0,0:0:0:0:
256,248,181836,1,0,0:0:0:0:
256,56,182012,1,2,0:0:0:0:
136,280,182189,22,0,P|212:340|390:235,1,280,8|0,0:0|0:0,0:0:0:0:
392,248,182630,1,0,0:0:0:0:
392,208,182718,1,2,0:0:0:0:
256,56,182895,5,0,0:0:0:0:
112,192,183071,1,2,0:0:0:0:
112,232,183159,1,2,0:0:0:0:
136,280,183248,1,0,0:0:0:0:
368,280,183424,1,2,0:0:0:0:
208,144,183601,2,0,P|256:128|184:192,1,350,4|0,0:0|0:0,0:0:0:0:
152,192,184130,1,0,0:0:0:0:
104,192,184218,2,0,P|56:120|136:40,1,210,2|2,0:0|0:0,0:0:0:0:
320,96,184659,1,0,0:0:0:0:
464,224,184836,1,0,0:0:0:0:
272,176,185012,1,4,0:0:0:0:
200,320,185189,21,4,0:0:0:0:
392,292,185365,1,0,0:0:0:0:
200,320,185542,1,4,0:0:0:0:
392,224,185718,1,0,0:0:0:0:
392,160,185895,1,4,0:0:0:0:
200,320,186071,1,0,0:0:0:0:
392,96,186248,2,4,P|300:88|224:104,1,140
448,40,186601,53,4,0:0:0:0:
256,96,186777,1,0,0:0:0:0:
72,48,186954,1,8,0:0:0:0:
144,232,187130,2,0,P|80:272|48:336,1,140,8|0,0:0|0:0,0:0:0:0:
224,232,187483,1,0,0:0:0:0:
72,104,187659,1,8,0:0:0:0:
256,96,187836,38,0,P|280:184|216:360,1,280,8|0,0:0|0:0,0:0:0:0:
48,224,188365,1,8,0:0:0:0:
56,272,188454,1,8,0:0:0:0:
96,304,188542,1,0,0:0:0:0:
232,248,188718,2,0,P|296:208|512:240,1,280,8|0,0:0|0:0,0:0:0:0:
256,72,189248,38,0,B|176:192|344:192|256:352,1,280,4|0,0:0|0:0,0:0:0:0:
448,256,189777,1,8,0:0:0:0:
472,208,189865,1,0,0:0:0:0:
448,168,189954,1,0,0:0:0:0:
368,344,190130,1,4,0:0:0:0:
255,179,190307,1,0,0:0:0:0:
144,344,190483,1,0,0:0:0:0:
80,16,190659,22,0,B|80:184|256:8|256:200,1,280,4|2,0:0|0:0,0:0:0:0:
432,80,191189,1,0,0:0:0:0:
432,272,191365,1,2,0:0:0:0:
264,176,191542,1,0,0:0:0:0:
224,208,191630,1,0,0:0:0:0:
216,264,191718,1,0,0:0:0:0:
248,304,191807,1,0,0:0:0:0:
296,312,191895,1,0,0:0:0:0:
344,296,191983,1,0,0:0:0:0:
368,256,192071,1,0,0:0:0:0:
360,208,192159,1,0,0:0:0:0:
320,176,192248,6,0,P|344:112|312:40,2,140,4|0|2,0:0|0:0|0:0,0:0:0:0:
288,240,192777,2,0,P|312:312|280:376,2,140,2|0|0,0:0|0:0|0:0,0:0:0:0:
320,48,193307,1,2,0:0:0:0:
424,328,193483,2,0,P|440:192|416:40,1,280
224,16,194012,1,0,0:0:0:0:
200,8,194101,1,0,0:0:0:0:
168,16,194189,1,2,0:0:0:0:
192,208,194365,1,2,0:0:0:0:
360,96,194542,1,0,0:0:0:0:
360,288,194718,1,8,0:0:0:0:
304,148,194895,22,0,B|216:180|136:164|24:212,1,280,4|8,0:0|0:0,0:0:0:0:
184,88,195424,1,2,0:0:0:0:
360,176,195601,1,2,0:0:0:0:
208,296,195777,1,2,0:0:0:0:
32,208,195954,1,2,0:0:0:0:
184,88,196130,1,0,0:0:0:0:
360,176,196307,21,2,0:0:0:0:
384,152,196395,1,0,0:0:0:0:
416,144,196483,1,0,0:0:0:0:
448,144,196571,1,0,0:0:0:0:
472,160,196659,1,0,0:0:0:0:
488,192,196748,1,0,0:0:0:0:
480,224,196836,5,0,0:0:0:0:
472,248,196924,1,0,0:0:0:0:
448,264,197012,1,2,0:0:0:0:
432,288,197101,1,2,0:0:0:0:
440,312,197189,1,2,0:0:0:0:
456,336,197277,1,2,0:0:0:0:
464,368,197365,2,0,P|384:328|312:312,1,140,0|2,0:0|0:0,0:0:0:0:
208,168,197718,6,0,P|168:88|-32:16,1,280,4|0,0:0|0:0,0:0:0:0:
16,64,198159,1,0,0:0:0:0:
64,88,198248,2,0,P|136:96|200:32,1,140,2|0,0:0|0:0,0:0:0:0:
144,248,198601,2,0,P|192:192|280:176,1,140,2|0,0:0|0:0,0:0:0:0:
416,72,198954,1,2,0:0:0:0:
256,192,198998,12,0,200012,0:0:0:0:
80,176,200189,6,2,P|160:168|216:120,1,140
152,96,200542,38,0,P|168:272|256:368,1,280,4|8,0:0|0:0,0:0:0:0:
272,160,201071,1,4,0:0:0:0:
288,112,201159,1,0,0:0:0:0:
328,88,201248,1,4,0:0:0:0:
388,324,201424,1,0,0:0:0:0:
440,136,201601,1,0,0:0:0:0:
496,320,201777,1,0,0:0:0:0:
256,192,201954,12,6,203542,0:0:0:0:
