osu file format v13

[General]
AudioFilename: fhana - Divine Intervention (TV Size).mp3
AudioLeadIn: 0
PreviewTime: 58188
Countdown: 0
SampleSet: Normal
StackLeniency: 0.7
Mode: 3
LetterboxInBreaks: 0
SpecialStyle: 0
WidescreenStoryboard: 0

[Editor]
DistanceSpacing: 1.6
BeatDivisor: 2
GridSize: 8
TimelineZoom: 2

[Metadata]
Title:divine intervention (TV SIZE)
TitleUnicode:divine intervention (TV SIZE)
Artist:fhana
ArtistUnicode:fhána
Creator:Zan -
Version:NM
Source:ウィッチクラフトワークス
Tags:J.C. Staff witch craft works opening Luckman ファナ
BeatmapID:456817
BeatmapSetID:192018

[Difficulty]
HPDrainRate:7
CircleSize:4
OverallDifficulty:7
ApproachRate:5
SliderMultiplier:1.4
SliderTickRate:1

[Events]
//Background and Video events
0,0,"BG.jpg",0,0
//Break Periods
//Storyboard Layer 0 (Background)
//Storyboard Layer 1 (Fail)
//Storyboard Layer 2 (Pass)
//Storyboard Layer 3 (Foreground)
//Storyboard Sound Samples

[TimingPoints]
1078,339.943342776204,4,1,1,30,1,0
59378,-100,4,1,1,30,0,1
86743,-100,4,1,1,30,0,0

[HitObjects]
64,192,398,5,8,0:0:0:0:
320,192,568,1,0,0:0:0:0:
64,192,738,1,0,0:0:0:0:
192,192,908,1,8,0:0:0:0:
448,192,908,128,4,1417:0:0:0:0:
320,192,1417,1,8,0:0:0:0:
192,192,1757,1,8,0:0:0:0:
320,192,2097,1,8,0:0:0:0:
192,192,2437,1,8,0:0:0:0:
320,192,2777,1,8,0:0:0:0:
448,192,3117,1,8,0:0:0:0:
192,192,3287,1,0,0:0:0:0:
448,192,3457,1,0,0:0:0:0:
320,192,3627,1,8,0:0:0:0:
64,192,3627,128,4,4137:0:0:0:0:
192,192,4137,1,8,0:0:0:0:
320,192,4477,1,8,0:0:0:0:
192,192,4817,1,8,0:0:0:0:
320,192,5157,1,8,0:0:0:0:
192,192,5497,1,0,0:0:0:0:
64,192,5667,1,8,0:0:0:0:
320,192,5837,1,8,0:0:0:0:
192,192,6007,1,8,0:0:0:0:
448,192,6177,1,0,0:0:0:0:
320,192,6347,1,4,0:0:0:0:
64,192,6347,1,8,0:0:0:0:
64,192,6857,1,0,0:0:0:0:
320,192,6857,1,8,0:0:0:0:
192,192,7196,1,0,0:0:0:0:
192,192,7536,1,8,0:0:0:0:
448,192,7536,1,0,0:0:0:0:
320,192,7876,1,0,0:0:0:0:
320,192,8216,1,8,0:0:0:0:
64,192,8216,1,0,0:0:0:0:
192,192,8556,1,0,0:0:0:0:
64,192,8896,1,8,0:0:0:0:
448,192,8896,1,0,0:0:0:0:
320,192,9236,1,4,0:0:0:0:
64,192,9576,1,8,0:0:0:0:
448,192,9576,1,0,0:0:0:0:
192,192,9916,1,0,0:0:0:0:
320,192,10256,1,0,0:0:0:0:
448,192,10256,1,8,0:0:0:0:
192,192,10426,1,0,0:0:0:0:
64,192,10426,1,4,0:0:0:0:
192,192,10936,1,8,0:0:0:0:
448,192,10936,1,0,0:0:0:0:
64,192,11276,1,0,0:0:0:0:
320,192,11276,1,8,0:0:0:0:
192,192,11616,1,8,0:0:0:0:
448,192,11616,1,0,0:0:0:0:
64,192,11956,1,8,0:0:0:0:
448,192,11956,1,4,0:0:0:0:
192,192,12296,1,0,0:0:0:0:
320,192,12636,1,0,0:0:0:0:
64,192,12636,1,8,0:0:0:0:
64,192,12976,1,8,0:0:0:0:
192,192,12976,1,0,0:0:0:0:
320,192,13145,1,0,0:0:0:0:
448,192,13145,1,4,0:0:0:0:
64,192,13655,1,0,0:0:0:0:
320,192,13655,1,8,0:0:0:0:
192,192,13995,1,0,0:0:0:0:
448,192,14165,1,0,0:0:0:0:
320,192,14335,1,0,0:0:0:0:
64,192,14505,1,0,0:0:0:0:
192,192,14675,1,8,0:0:0:0:
448,192,14675,1,4,0:0:0:0:
64,192,14845,1,2,0:0:0:0:
448,192,15185,1,2,0:0:0:0:
64,192,15525,1,2,0:0:0:0:
192,192,15695,1,2,0:0:0:0:
320,192,15865,1,2,0:0:0:0:
448,192,16205,1,2,0:0:0:0:
448,192,16545,1,2,0:0:0:0:
320,192,16885,1,2,0:0:0:0:
192,192,17055,1,2,0:0:0:0:
320,192,17225,1,2,0:0:0:0:
64,192,17225,128,4,18755:0:0:0:0:
192,192,17565,1,2,0:0:0:0:
448,192,17905,1,2,0:0:0:0:
320,192,18245,1,2,0:0:0:0:
192,192,18585,1,2,0:0:0:0:
320,192,18755,1,2,0:0:0:0:
448,192,18925,1,2,0:0:0:0:
192,192,19094,1,2,0:0:0:0:
320,192,19264,1,2,0:0:0:0:
64,192,19434,1,2,0:0:0:0:
192,192,19604,1,2,0:0:0:0:
64,192,19774,1,2,0:0:0:0:
448,192,19774,1,8,0:0:0:0:
320,192,19944,1,4,0:0:0:0:
192,192,19944,1,2,0:0:0:0:
64,192,20454,1,0,0:0:0:0:
320,192,20454,1,8,0:0:0:0:
192,192,20794,1,0,0:0:0:0:
320,192,21134,1,8,0:0:0:0:
448,192,21134,1,0,0:0:0:0:
320,192,21474,1,0,0:0:0:0:
64,192,21814,1,0,0:0:0:0:
192,192,21814,1,8,0:0:0:0:
448,192,22154,1,0,0:0:0:0:
64,192,22494,1,0,0:0:0:0:
320,192,22494,1,8,0:0:0:0:
192,192,22664,1,0,0:0:0:0:
320,192,22834,1,0,0:0:0:0:
192,192,23174,1,8,0:0:0:0:
448,192,23174,1,0,0:0:0:0:
192,192,23514,1,0,0:0:0:0:
64,192,23854,1,8,0:0:0:0:
320,192,23854,1,0,0:0:0:0:
192,192,24194,1,0,0:0:0:0:
192,192,24534,1,8,0:0:0:0:
448,192,24534,1,0,0:0:0:0:
320,192,24874,1,0,0:0:0:0:
192,192,25213,1,8,0:0:0:0:
448,192,25213,1,0,0:0:0:0:
320,192,25383,1,0,0:0:0:0:
192,192,25553,1,0,0:0:0:0:
64,192,25893,1,0,0:0:0:0:
320,192,25893,1,8,0:0:0:0:
448,192,26233,1,0,0:0:0:0:
192,192,26573,1,0,0:0:0:0:
320,192,26573,1,8,0:0:0:0:
64,192,26913,1,0,0:0:0:0:
192,192,27253,1,0,0:0:0:0:
320,192,27253,1,8,0:0:0:0:
448,192,27593,1,0,0:0:0:0:
64,192,27933,1,0,0:0:0:0:
320,192,27933,1,8,0:0:0:0:
192,192,28103,1,0,0:0:0:0:
64,192,28273,1,0,0:0:0:0:
192,192,28613,1,8,0:0:0:0:
448,192,28613,1,0,0:0:0:0:
320,192,28953,1,0,0:0:0:0:
192,192,29293,1,8,0:0:0:0:
448,192,29293,1,0,0:0:0:0:
320,192,29463,1,0,0:0:0:0:
448,192,29633,1,0,0:0:0:0:
64,192,29973,1,0,0:0:0:0:
320,192,29973,1,8,0:0:0:0:
192,192,30313,1,0,0:0:0:0:
320,192,30653,1,0,0:0:0:0:
448,192,30653,1,8,0:0:0:0:
64,192,30823,1,4,0:0:0:0:
192,192,30823,1,0,0:0:0:0:
192,192,31332,1,8,0:0:0:0:
448,192,31332,1,0,0:0:0:0:
64,192,31502,1,0,0:0:0:0:
192,192,31672,1,0,0:0:0:0:
64,192,32012,1,0,0:0:0:0:
320,192,32012,1,8,0:0:0:0:
320,192,32352,1,0,0:0:0:0:
192,192,32692,1,8,0:0:0:0:
448,192,32692,1,0,0:0:0:0:
192,192,33032,1,0,0:0:0:0:
64,192,33372,1,0,0:0:0:0:
320,192,33372,1,8,0:0:0:0:
448,192,33542,1,0,0:0:0:0:
320,192,33712,1,0,0:0:0:0:
192,192,34052,1,8,0:0:0:0:
448,192,34052,1,0,0:0:0:0:
320,192,34392,1,0,0:0:0:0:
192,192,34732,1,8,0:0:0:0:
448,192,34732,1,0,0:0:0:0:
64,192,34902,1,0,0:0:0:0:
192,192,35072,1,0,0:0:0:0:
64,192,35412,1,8,0:0:0:0:
448,192,35412,1,0,0:0:0:0:
320,192,35752,1,0,0:0:0:0:
64,192,36092,1,8,0:0:0:0:
192,192,36092,1,0,0:0:0:0:
320,192,36262,1,0,0:0:0:0:
448,192,36262,1,4,0:0:0:0:
64,192,36772,1,8,0:0:0:0:
192,192,36772,1,0,0:0:0:0:
320,192,36942,1,0,0:0:0:0:
448,192,37111,1,0,0:0:0:0:
64,192,37451,1,0,0:0:0:0:
320,192,37451,1,8,0:0:0:0:
192,192,37791,1,0,0:0:0:0:
448,192,38131,1,0,0:0:0:0:
192,192,38131,1,8,0:0:0:0:
320,192,38471,1,0,0:0:0:0:
320,192,38811,1,0,0:0:0:0:
448,192,38811,1,8,0:0:0:0:
192,192,38981,1,0,0:0:0:0:
64,192,39151,1,0,0:0:0:0:
192,192,39491,1,8,0:0:0:0:
448,192,39491,1,0,0:0:0:0:
320,192,39831,1,0,0:0:0:0:
448,192,40171,1,8,0:0:0:0:
192,192,40171,1,0,0:0:0:0:
320,192,40341,1,0,0:0:0:0:
64,192,40341,1,4,0:0:0:0:
448,192,40681,1,2,0:0:0:0:
448,192,40851,1,8,0:0:0:0:
320,192,41021,1,4,0:0:0:0:
64,192,41021,1,0,0:0:0:0:
192,192,41361,1,8,0:0:0:0:
192,192,41531,1,8,0:0:0:0:
448,192,41701,128,4,42211:0:0:0:0:
64,192,41701,1,2,0:0:0:0:
320,192,42211,1,2,0:0:0:0:
192,192,42381,1,2,0:0:0:0:
448,192,42721,1,2,0:0:0:0:
192,192,43061,128,2,43570:0:0:0:0:
64,192,43570,1,2,0:0:0:0:
320,192,43740,1,2,0:0:0:0:
320,192,44080,1,2,0:0:0:0:
192,192,44420,128,2,44930:0:0:0:0:
320,192,44930,1,2,0:0:0:0:
64,192,45100,1,2,0:0:0:0:
448,192,45440,1,2,0:0:0:0:
64,192,45780,128,2,46290:0:0:0:0:
192,192,46290,1,2,0:0:0:0:
320,192,46460,1,2,0:0:0:0:
192,192,46800,1,2,0:0:0:0:
448,192,47140,128,4,47650:0:0:0:0:
64,192,47140,1,2,0:0:0:0:
320,192,47650,1,2,0:0:0:0:
64,192,47820,1,2,0:0:0:0:
192,192,48160,1,2,0:0:0:0:
448,192,48500,128,2,49010:0:0:0:0:
192,192,49010,1,2,0:0:0:0:
320,192,49179,1,2,0:0:0:0:
448,192,49519,1,2,0:0:0:0:
320,192,49859,128,2,50369:0:0:0:0:
192,192,50369,1,2,0:0:0:0:
64,192,50539,1,2,0:0:0:0:
192,192,50879,1,2,0:0:0:0:
448,192,51219,128,2,51729:0:0:0:0:
192,192,51729,1,2,0:0:0:0:
320,192,51899,1,2,0:0:0:0:
64,192,52239,1,8,0:0:0:0:
192,192,52409,1,8,0:0:0:0:
320,192,52579,1,4,0:0:0:0:
64,192,53089,1,8,0:0:0:0:
448,192,53429,1,8,0:0:0:0:
192,192,53599,1,0,0:0:0:0:
320,192,53769,1,0,0:0:0:0:
448,192,53939,1,4,0:0:0:0:
192,192,53939,1,2,0:0:0:0:
64,192,54279,1,8,0:0:0:0:
320,192,54449,1,8,0:0:0:0:
64,192,54619,1,8,0:0:0:0:
448,192,54789,1,8,0:0:0:0:
192,192,54959,1,8,0:0:0:0:
448,192,55128,1,8,0:0:0:0:
192,192,55298,1,8,0:0:0:0:
320,192,55468,1,0,0:0:0:0:
64,192,55468,1,4,0:0:0:0:
448,192,55808,1,8,0:0:0:0:
320,192,55978,1,4,0:0:0:0:
192,192,56148,1,0,0:0:0:0:
64,192,56318,128,8,56658:0:0:0:0:
448,192,56658,128,4,57168:0:0:0:0:
192,192,56658,1,8,0:0:0:0:
320,192,57168,1,8,0:0:0:0:
192,192,57508,1,8,0:0:0:0:
64,192,57848,128,0,58188:0:0:0:0:
320,192,57848,1,8,0:0:0:0:
448,192,58188,1,8,0:0:0:0:
192,192,58358,1,8,0:0:0:0:
320,192,58528,1,0,0:0:0:0:
64,192,58528,1,8,0:0:0:0:
448,192,58868,1,8,0:0:0:0:
320,192,59038,1,8,0:0:0:0:
192,192,59208,1,8,0:0:0:0:
64,192,59378,1,8,0:0:0:0:
448,192,59378,1,4,0:0:0:0:
192,192,59718,1,8,0:0:0:0:
320,192,59888,1,0,0:0:0:0:
448,192,59888,1,8,0:0:0:0:
192,192,60228,1,0,0:0:0:0:
64,192,60568,1,8,0:0:0:0:
448,192,60568,1,0,0:0:0:0:
192,192,60738,1,0,0:0:0:0:
320,192,60908,1,0,0:0:0:0:
64,192,61247,1,8,0:0:0:0:
192,192,61247,1,0,0:0:0:0:
448,192,61587,1,0,0:0:0:0:
192,192,61927,1,0,0:0:0:0:
448,192,61927,1,8,0:0:0:0:
192,192,62267,1,0,0:0:0:0:
64,192,62607,1,8,0:0:0:0:
448,192,62607,1,0,0:0:0:0:
320,192,62777,1,0,0:0:0:0:
192,192,62947,1,0,0:0:0:0:
64,192,63287,1,8,0:0:0:0:
320,192,63287,1,0,0:0:0:0:
192,192,63457,1,0,0:0:0:0:
448,192,63457,1,4,0:0:0:0:
448,192,63967,1,2,0:0:0:0:
320,192,63967,1,0,0:0:0:0:
64,192,64307,1,2,0:0:0:0:
192,192,64307,1,0,0:0:0:0:
448,192,64647,1,8,0:0:0:0:
192,192,64647,1,0,0:0:0:0:
64,192,64817,1,4,0:0:0:0:
320,192,64817,1,0,0:0:0:0:
192,192,65327,1,8,0:0:0:0:
448,192,65327,1,4,0:0:0:0:
320,192,65667,1,0,0:0:0:0:
192,192,66007,1,0,0:0:0:0:
448,192,66007,1,8,0:0:0:0:
64,192,66177,1,4,0:0:0:0:
320,192,66177,1,0,0:0:0:0:
192,192,66687,1,0,0:0:0:0:
448,192,66687,1,8,0:0:0:0:
320,192,67027,1,0,0:0:0:0:
64,192,67366,1,8,0:0:0:0:
320,192,67366,1,0,0:0:0:0:
64,192,67706,1,4,0:0:0:0:
192,192,68046,1,0,0:0:0:0:
448,192,68046,1,8,0:0:0:0:
320,192,68216,1,0,0:0:0:0:
448,192,68386,1,0,0:0:0:0:
64,192,68726,1,8,0:0:0:0:
192,192,68726,1,0,0:0:0:0:
320,192,68896,1,0,0:0:0:0:
448,192,68896,1,4,0:0:0:0:
64,192,69236,1,8,0:0:0:0:
448,192,69236,1,0,0:0:0:0:
192,192,69576,1,4,0:0:0:0:
320,192,69576,1,0,0:0:0:0:
64,192,69916,1,8,0:0:0:0:
448,192,69916,1,0,0:0:0:0:
192,192,70086,1,8,0:0:0:0:
320,192,70256,1,8,0:0:0:0:
64,192,70426,1,8,0:0:0:0:
448,192,70426,1,4,0:0:0:0:
192,192,70766,1,8,0:0:0:0:
320,192,70766,1,0,0:0:0:0:
448,192,71106,1,0,0:0:0:0:
320,192,71276,1,0,0:0:0:0:
192,192,71446,1,8,0:0:0:0:
64,192,71616,1,4,0:0:0:0:
320,192,71616,1,0,0:0:0:0:
192,192,72126,1,0,0:0:0:0:
448,192,72126,1,8,0:0:0:0:
320,192,72466,1,0,0:0:0:0:
64,192,72806,1,8,0:0:0:0:
320,192,72806,1,0,0:0:0:0:
192,192,73145,1,4,0:0:0:0:
192,192,73485,1,0,0:0:0:0:
448,192,73485,1,8,0:0:0:0:
64,192,73825,1,0,0:0:0:0:
192,192,74165,1,0,0:0:0:0:
320,192,74165,1,8,0:0:0:0:
64,192,74335,1,0,0:0:0:0:
448,192,74335,1,4,0:0:0:0:
320,192,74675,1,0,0:0:0:0:
192,192,74845,1,8,0:0:0:0:
448,192,75015,1,0,0:0:0:0:
64,192,75185,1,8,0:0:0:0:
448,192,75355,1,8,0:0:0:0:
320,192,75525,1,8,0:0:0:0:
192,192,75695,1,8,0:0:0:0:
64,192,75865,1,8,0:0:0:0:
448,192,75865,1,0,0:0:0:0:
64,192,76205,1,2,0:0:0:0:
192,192,76375,1,2,0:0:0:0:
320,192,76545,1,2,0:0:0:0:
448,192,76715,1,2,0:0:0:0:
64,192,76885,1,8,0:0:0:0:
320,192,76885,1,0,0:0:0:0:
192,192,77055,1,0,0:0:0:0:
448,192,77055,1,4,0:0:0:0:
192,192,77565,1,0,0:0:0:0:
448,192,77565,1,8,0:0:0:0:
320,192,77905,1,0,0:0:0:0:
64,192,78245,1,8,0:0:0:0:
320,192,78245,1,0,0:0:0:0:
448,192,78585,1,0,0:0:0:0:
192,192,78925,1,0,0:0:0:0:
448,192,78925,1,8,0:0:0:0:
192,192,79264,1,0,0:0:0:0:
192,192,79604,1,0,0:0:0:0:
448,192,79604,1,8,0:0:0:0:
64,192,79944,1,0,0:0:0:0:
64,192,80284,1,8,0:0:0:0:
320,192,80284,1,0,0:0:0:0:
192,192,80624,1,0,0:0:0:0:
320,192,80964,1,0,0:0:0:0:
192,192,81134,1,8,0:0:0:0:
64,192,81304,1,4,0:0:0:0:
320,192,81304,1,8,0:0:0:0:
448,192,81644,1,8,0:0:0:0:
64,192,81984,1,0,0:0:0:0:
320,192,82324,1,0,0:0:0:0:
448,192,82324,1,8,0:0:0:0:
64,192,82494,1,4,0:0:0:0:
192,192,82494,1,0,0:0:0:0:
448,192,83004,1,4,0:0:0:0:
192,192,83004,1,0,0:0:0:0:
192,192,83344,1,0,0:0:0:0:
64,192,83684,1,8,0:0:0:0:
320,192,83684,1,0,0:0:0:0:
320,192,84024,1,4,0:0:0:0:
192,192,84364,1,0,0:0:0:0:
448,192,84364,1,8,0:0:0:0:
448,192,84704,1,0,0:0:0:0:
64,192,85044,1,8,0:0:0:0:
192,192,85044,1,0,0:0:0:0:
320,192,85213,1,0,0:0:0:0:
448,192,85213,1,4,0:0:0:0:
448,192,85723,1,8,0:0:0:0:
320,192,86063,1,8,0:0:0:0:
192,192,86403,1,8,0:0:0:0:
320,192,86573,1,8,0:0:0:0:
64,192,86743,1,0,0:0:0:0:
448,192,86743,128,4,87083:0:0:0:0:
320,192,87083,1,8,0:0:0:0:
192,192,87253,1,0,0:0:0:0:
64,192,87593,1,2,0:0:0:0:
192,192,87763,1,0,0:0:0:0:
320,192,87933,1,0,0:0:0:0:
64,192,88103,1,2,0:0:0:0:
448,192,88273,1,2,0:0:0:0:
64,192,88443,1,2,0:0:0:0:
448,192,88613,1,2,0:0:0:0:
64,192,88783,1,2,0:0:0:0:
448,192,88953,1,2,0:0:0:0:
192,192,89123,1,0,0:0:0:0:
320,192,89123,1,2,0:0:0:0:
