osu file format v14

[General]
AudioFilename: wonder stella ! !.mp3
AudioLeadIn: 0
PreviewTime: 57706
Countdown: 0
SampleSet: Soft
StackLeniency: 0.3
Mode: 0
LetterboxInBreaks: 0
WidescreenStoryboard: 0

[Editor]
DistanceSpacing: 0.5
BeatDivisor: 4
GridSize: 32
TimelineZoom: 2.4

[Metadata]
Title:Wonder Stella
TitleUnicode:ワンダーステラ
Artist:fhana
ArtistUnicode:fhána
Creator:toybot
Version:Starlight
Source:Fate/kaleid liner プリズマ☆イリヤ ツヴァイ ヘルツ!
Tags:Prisma☆Illya 2wei Herz! Illya Prisma Herz towana yuxugi waga kevin mitsunaga junichi sato
BeatmapID:1073967
BeatmapSetID:504818

[Difficulty]
HPDrainRate:6.5
CircleSize:4.2
OverallDifficulty:8
ApproachRate:9.3
SliderMultiplier:1.7
SliderTickRate:1

[Events]
//Background and Video events
0,0,"bg.jpg",0,0
//Break Periods
//Storyboard Layer 0 (Background)
//Storyboard Layer 1 (Fail)
//Storyboard Layer 2 (Pass)
//Storyboard Layer 3 (Foreground)
//Storyboard Sound Samples

[TimingPoints]
1204,310.880829015544,4,2,2,40,1,0
1204,-200,4,2,2,40,0,0
8665,-166.666666666667,4,2,1,45,0,0
9753,-142.857142857143,4,2,1,50,0,0
10374,-142.857142857143,4,2,1,55,0,0
11152,-133.333333333333,4,2,1,60,0,0
18613,-111.111111111111,4,2,1,60,0,0
21722,-133.333333333333,4,2,1,60,0,0
23431,-111.111111111111,4,2,1,60,0,0
24209,-133.333333333333,4,2,1,60,0,0
31048,-111.111111111111,4,2,1,60,0,0
31670,-133.333333333333,4,2,1,60,0,0
33380,-111.111111111111,4,2,1,60,0,0
33846,-133.333333333333,4,2,1,60,0,0
35867,-111.111111111111,4,2,1,60,0,0
48457,-166.666666666667,4,2,1,60,0,0
55763,-111.111111111111,4,2,1,60,0,0
57473,-142.857142857143,4,2,1,50,0,0
57706,-142.857142857143,4,2,1,20,0,0
57784,-125,4,2,1,60,0,0
58017,-125,4,2,1,20,0,0
58095,-111.111111111111,4,2,1,70,0,0
58328,-111.111111111111,4,2,1,20,0,0
58406,-100,4,2,1,70,0,1
66955,-80,4,2,1,70,0,1
67732,-100,4,2,1,70,0,1
76903,-80,4,2,1,70,0,1
77680,-100,4,2,1,70,0,1
78302,-133.333333333333,4,2,1,70,0,1
81877,-100,4,2,1,70,0,1
85763,-90.9090909090909,4,2,1,70,0,1
86851,-111.111111111111,4,2,1,70,0,1
87473,-133.333333333333,4,2,1,70,0,1
88250,-200,4,2,1,45,0,0
107525,-133.333333333333,4,2,1,50,0,0
108147,-166.666666666667,4,2,1,50,0,0
119805,-166.666666666667,4,2,1,55,0,0
120426,-125,4,2,1,60,0,0
127732,-200,4,2,1,60,0,0
128043,-111.111111111111,4,2,1,50,0,0
128665,-108.695652173913,4,2,1,50,0,0
129286,-106.382978723404,4,2,1,50,0,0
129908,-104.166666666667,4,2,1,50,0,0
130530,-100,4,2,1,60,0,0
131773,-90.9090909090909,4,2,1,70,0,0
132395,-90.9090909090909,4,2,1,50,0,0
132862,-100,4,2,1,70,0,0
152913,-133.333333333333,4,2,1,60,0,0
160219,-100,4,2,1,70,0,0
161307,-100,4,2,1,60,0,0
161618,-100,4,2,1,70,0,0
161929,-142.857142857143,4,2,1,50,0,0
162162,-142.857142857143,4,2,1,20,0,0
162240,-125,4,2,1,60,0,0
162473,-125,4,2,1,20,0,0
162551,-111.111111111111,4,2,1,70,0,0
162784,-111.111111111111,4,2,1,20,0,0
162862,-100,4,2,1,70,0,1
171411,-80,4,2,1,70,0,1
172188,-100,4,2,1,70,0,1
182758,-90.9090909090909,4,2,1,70,0,1
187732,-90.9090909090909,4,1,1,70,0,0
189597,-90.9090909090909,4,1,1,70,0,0
190219,-90.9090909090909,4,1,1,70,0,0
192084,-90.9090909090909,4,1,1,70,0,0
192706,-90.9090909090909,4,1,1,70,0,0
197680,-90.9090909090909,4,1,1,50,0,0
198147,-90.9090909090909,4,1,1,55,0,0
198613,-90.9090909090909,4,1,1,60,0,0
199079,-90.9090909090909,4,1,1,65,0,0
199545,-90.9090909090909,4,1,1,75,0,1
200167,-90.9090909090909,4,1,1,50,0,0
200634,-90.9090909090909,4,1,1,55,0,0
201100,-90.9090909090909,4,1,1,60,0,0
201566,-90.9090909090909,4,1,1,65,0,0
202033,-90.9090909090909,4,1,1,75,0,1
205141,-90.9090909090909,4,1,1,80,0,1
206229,-90.9090909090909,4,1,1,80,0,0
207628,-166.666666666667,4,2,1,60,0,0
216955,-166.666666666667,4,2,1,50,0,0
217266,-166.666666666667,4,2,1,40,0,0
217577,-142.857142857143,4,2,1,60,0,0
226825,-142.857142857143,4,2,1,5,0,0
226903,-142.857142857143,4,2,1,60,0,0
236229,-188.679245283019,4,2,1,50,0,0
236385,-188.679245283019,4,2,1,40,0,0
237395,-188.679245283019,4,2,1,5,0,0
237473,-200,4,2,1,40,0,0
237784,-200,4,2,1,30,0,0
239960,-200,4,2,1,40,0,0
240271,-200,4,2,1,30,0,0
242447,-200,4,2,1,45,0,0
242758,-200,4,2,1,30,0,0
244934,-200,4,2,1,40,0,0
247421,-133.333333333333,4,2,1,50,0,0
253483,-125,4,2,1,50,0,0
254882,-111.111111111111,4,2,1,60,0,0
255349,-111.111111111111,4,2,1,65,0,0
255970,-111.111111111111,4,2,1,70,0,0
256437,-142.857142857143,4,2,1,60,0,0
256670,-142.857142857143,4,2,1,20,0,0
256748,-111.111111111111,4,2,1,60,0,0
256981,-111.111111111111,4,2,1,20,0,0
257058,-90.9090909090909,4,2,1,60,0,0
257292,-90.9090909090909,4,2,1,20,0,0
257369,-125,4,2,1,60,0,0
259390,-125,4,2,1,40,0,0
259468,-125,4,2,1,45,0,0
259545,-125,4,2,1,50,0,0
259623,-125,4,2,1,55,0,0
259701,-125,4,2,1,60,0,0
259779,-125,4,2,1,65,0,0
259856,-90.9090909090909,4,2,1,70,0,1
265919,-76.9230769230769,4,2,1,70,0,1
267317,-90.9090909090909,4,2,1,70,0,1
275867,-71.4285714285714,4,2,1,70,0,1
276488,-100,4,2,1,70,0,1
277266,-125,4,2,1,60,0,0
280841,-100,4,2,1,60,0,0
282240,-90.9090909090909,4,2,1,70,0,1
285815,-100,4,2,1,70,0,1
288924,-95.2380952380952,4,2,1,70,0,1
289545,-90.9090909090909,4,2,1,70,0,1
290167,-86.9565217391304,4,2,1,70,0,1
290789,-83.3333333333333,4,2,1,80,0,1
300349,-83.3333333333333,4,2,1,20,0,1
300426,-83.3333333333333,4,2,1,80,0,1
300659,-83.3333333333333,4,2,1,20,0,1
300737,-83.3333333333333,4,2,1,80,0,0
302136,-133.333333333333,4,2,2,30,0,0
302214,-133.333333333333,4,2,2,40,0,0

[Colours]
Combo1 : 196,149,202
Combo2 : 255,38,147
Combo3 : 221,125,244
Combo4 : 133,81,219
Combo5 : 32,227,255
Combo6 : 215,215,215

[HitObjects]
96,192,1204,70,0,P|132:200|176:176,1,85,2|0,3:2|0:0,0:0:0:0:
212,112,1670,2,0,P|213:75|182:35,2,85,2|0|2,0:0|0:0|0:0,0:0:0:0:
96,192,2447,6,0,L|48:180,1,42.5
148,264,2758,1,0,3:0:0:0:
148,264,2913,1,0,3:0:0:0:
204,200,3069,2,0,L|300:188,1,85,10|0,0:0|0:0,0:0:0:0:
447,105,3691,70,0,P|419:77|363:77,1,85,2|0,3:2|0:0,0:0:0:0:
307,113,4157,2,0,P|284:145|294:200,1,85,2|0,0:0|0:0,0:0:0:0:
348,240,4623,1,0,0:0:0:0:
276,200,4779,1,2,0:0:0:0:
199,229,4934,6,0,L|192:280,1,42.5
120,312,5245,2,0,L|114:269,1,42.5,0|0,3:0|3:0,0:0:0:0:
76,196,5556,2,0,L|28:188,2,42.5,10|0|0,0:0|3:0|0:0,0:0:0:0:
100,112,6178,70,0,P|144:120|184:96,1,85,2|0,3:2|0:0,0:0:0:0:
328,124,6644,1,0,0:0:0:0:
270,72,6799,2,0,P|251:109|255:151,1,85,2|0,0:0|0:0,0:0:0:0:
400,99,7266,6,0,P|376:64|338:47,2,85,2|0|0,3:2|0:0|0:0,0:0:0:0:
386,170,8043,1,10,0:0:0:0:
440,220,8198,2,0,L|488:212,2,42.5,0|2|0,3:0|0:0|0:0,0:0:0:0:
364,268,8665,70,0,B|303:275|324:244|260:252,1,101.999996887207,2|0,3:2|0:0,0:0:0:0:
132,312,9131,1,0,0:0:0:0:
208,352,9286,2,0,L|192:240,1,101.999996887207,2|0,0:0|0:0,0:0:0:0:
104,152,9753,6,0,L|36:140,1,59.4999981842042,2|0,3:2|0:0,0:0:0:0:
193,251,10064,2,0,B|241:243|241:243|265:227|265:227|313:219,1,118.999996368408,2|8,0:0|0:0,0:0:0:0:
376,212,10452,1,8,0:0:0:0:
376,212,10530,1,8,0:0:0:0:
288,132,10685,69,8,0:0:0:0:
392,312,10841,1,8,0:0:0:0:
440,112,10996,1,8,0:0:0:0:
384,328,11152,54,0,P|340:336|280:272,1,127.500004863739,4|0,3:2|0:0,0:0:0:0:
288,132,11618,1,0,0:0:0:0:
148,196,11773,2,0,B|184:204|220:176|220:176|236:200|260:204,1,127.500004863739,8|0,0:0|0:0,0:0:0:0:
360,88,12240,69,2,3:2:0:0:
263,32,12395,1,0,3:0:0:0:
263,32,12551,2,0,L|191:40,1,63.7500024318696,0|0,3:0|3:0,0:0:0:0:
200,40,13017,5,8,0:0:0:0:
264,104,13172,1,0,3:0:0:0:
248,193,13328,1,0,3:0:0:0:
165,230,13483,1,0,3:0:0:0:
48,168,13639,70,0,B|80:148|132:152|132:152|104:168|96:188,1,127.500004863739,4|0,3:2|0:0,0:0:0:0:
72,264,14105,1,0,0:0:0:0:
172,323,14260,2,0,B|180:292|180:292|165:230,1,95.6250036478044,8|0,0:0|0:0,0:0:0:0:
228,188,14571,2,0,L|312:200,1,63.7500024318696,0|0,3:0|3:0,0:0:0:0:
480,304,14882,5,2,0:0:0:0:
456,132,15038,1,0,3:0:0:0:
392,284,15193,1,0,0:0:0:0:
383,181,15349,1,0,0:0:0:0:
383,181,15426,1,0,0:0:0:0:
383,181,15504,69,10,0:0:0:0:
306,280,15659,1,8,0:0:0:0:
293,203,15815,1,0,3:0:0:0:
306,280,15970,1,0,3:0:0:0:
204,184,16126,6,0,B|132:176|160:208|80:200,1,127.500004863739,6|0,3:2|0:0,0:0:0:0:
7,43,16592,1,0,0:0:0:0:
79,62,16748,2,0,P|102:84|111:115,1,63.7500024318696,8|0,0:0|0:0,0:0:0:0:
79,199,17058,2,0,P|53:217|21:220,1,63.7500024318696,0|0,0:0|3:0,0:0:0:0:
27,151,17292,1,0,0:0:0:0:
27,151,17369,69,0,0:0:0:0:
124,272,17525,1,0,3:0:0:0:
204,212,17680,2,0,L|352:188,1,127.500004863739,0|10,0:0|0:0,0:0:0:0:
264,56,18147,5,0,3:0:0:0:
176,40,18302,1,0,3:0:0:0:
208,124,18457,1,0,3:0:0:0:
352,72,18613,70,0,B|396:52|396:52|432:116|380:176,1,152.999995330811,4|0,3:2|3:0,0:0:0:0:
271,265,19079,2,0,B|214:258|214:258|178:278|178:278|123:271,1,152.999995330811,4|0,0:0|3:0,0:0:0:0:
244,176,19545,1,8,0:0:0:0:
348,328,19701,6,0,P|388:288|496:320,1,152.999995330811,4|0,0:0|3:0,0:0:0:0:
477,299,20167,1,8,0:0:0:0:
344,208,20323,69,0,0:0:0:0:
340,188,20400,1,0,0:0:0:0:
340,168,20478,1,8,0:0:0:0:
468,48,20634,1,8,0:0:0:0:
416,180,20789,1,8,0:0:0:0:
240,96,20944,6,0,B|124:76|124:76|148:128,1,152.999995330811,4|0,0:0|0:0,0:0:0:0:
184,220,21411,1,4,0:0:0:0:
184,220,21722,70,0,L|316:204,1,127.500004863739,8|0,0:0|0:0,0:0:0:0:
392,160,22188,1,0,0:0:0:0:
392,160,22343,1,2,0:0:0:0:
284,280,22654,1,0,0:0:0:0:
310,204,22810,2,0,L|294:77,1,127.500004863739,2|2,0:0|0:0,0:0:0:0:
320,1,23276,1,0,0:0:0:0:
208,124,23431,6,0,B|160:128|112:88|112:88|104:128|64:140,1,152.999995330811,4|0,0:0|0:0,0:0:0:0:
0,56,23898,1,4,0:0:0:0:
0,56,24209,70,0,P|40:12|112:20,1,127.500004863739,8|0,0:0|0:0,0:0:0:0:
208,124,24675,1,0,0:0:0:0:
208,124,24830,2,0,L|200:188,1,63.7500024318696,2|0,0:0|0:0,0:0:0:0:
252,256,25141,1,0,0:0:0:0:
316,188,25297,1,0,0:0:0:0:
312,172,25374,1,0,0:0:0:0:
308,156,25452,5,8,1:2:0:0:
208,332,25608,1,0,1:2:0:0:
208,332,25919,70,0,B|136:340|164:296|84:304,1,127.500004863739,4|0,0:0|0:0,0:0:0:0:
4,340,26385,1,0,0:0:0:0:
4,340,26540,1,0,0:0:0:0:
76,234,26696,2,0,B|100:210|100:210|84:326,1,127.500004863739,10|0,0:0|0:0,0:0:0:0:
32,168,27162,1,0,0:0:0:0:
43,99,27317,6,0,B|19:75|19:75|31:167,1,127.500004863739,2|0,0:0|0:0,0:0:0:0:
176,240,27784,2,0,L|240:228,1,63.7500024318696,0|8,0:0|0:0,0:0:0:0:
332,168,28095,1,0,0:0:0:0:
212,324,28250,1,8,0:0:0:0:
332,168,28406,70,0,B|280:160|280:160|256:144|256:144|198:135,1,127.500004863739,4|0,0:0|0:0,0:0:0:0:
124,120,28872,2,0,P|144:56|204:48,1,127.500004863739,0|8,0:0|0:0,0:0:0:0:
304,84,29338,1,8,0:0:0:0:
276,264,29494,1,8,0:0:0:0:
443,187,29649,6,0,P|392:152|332:168,1,127.500004863739,2|0,0:0|0:0,0:0:0:0:
276,264,30115,2,0,L|208:272,1,63.7500024318696
144,280,30349,1,0,0:0:0:0:
144,280,30426,1,8,0:0:0:0:
224,364,30582,69,8,0:0:0:0:
128,176,30737,1,8,0:0:0:0:
96,376,30893,1,8,0:0:0:0:
136,164,31048,6,0,B|144:120|128:64|128:64|116:96|88:112,1,152.999995330811,4|0,0:0|0:0,0:0:0:0:
48,40,31514,1,0,0:0:0:0:
216,136,31670,69,12,0:0:0:0:
272,80,31825,2,0,P|316:64|392:104,1,127.500004863739,0|2,0:0|0:0,0:0:0:0:
412,240,32447,1,8,0:0:0:0:
348,204,32602,2,0,P|376:176|408:168,1,63.7500024318696
484,224,32913,5,8,0:0:0:0:
396,352,33069,1,0,0:0:0:0:
348,204,33224,1,0,0:0:0:0:
284,304,33380,70,0,B|192:324|220:268|116:292,1,152.999995330811,2|0,0:0|0:0,0:0:0:0:
248,232,33846,1,0,0:0:0:0:
196,172,34001,2,0,P|192:132|200:92,1,63.7500024318696,2|8,0:0|0:0,0:0:0:0:
432,180,34312,1,0,0:0:0:0:
384,260,34468,1,0,0:0:0:0:
376,116,34623,6,0,P|328:100|264:156,1,127.500004863739,8|0,0:0|0:0,0:0:0:0:
144,220,35090,2,0,P|192:204|256:260,1,127.500004863739,2|8,0:0|0:0,0:0:0:0:
240,336,35556,1,0,0:0:0:0:
176,120,35711,1,8,0:0:0:0:
325,228,35867,70,0,L|250:244,1,76.4999976654053,4|0,0:0|3:0,3:0:0:0:
144,220,36178,1,0,0:0:0:0:
240,72,36333,2,0,P|256:112|244:164,1,76.4999976654053,8|0,3:2|0:0,0:0:0:0:
79,85,36644,2,0,P|134:82|176:120,1,114.749996498108,0|0,3:0|0:0,0:0:0:0:
252,144,36955,2,0,L|326:126,1,76.4999976654053,8|0,0:0|0:0,0:0:0:0:
472,288,37266,6,0,B|512:268|512:268|392:244,1,152.999995330811,0|8,3:0|0:0,0:0:0:0:
316,228,37732,1,0,0:0:0:0:
316,228,37810,1,0,0:0:0:0:
316,228,37887,1,8,0:0:0:0:
388,156,38043,1,8,0:0:0:0:
308,320,38198,1,8,0:0:0:0:
252,144,38354,54,0,B|200:124|200:124|160:176|100:160,1,152.999995330811,4|0,0:0|0:0,0:0:0:0:
100,4,38820,2,0,P|124:40|108:100,1,76.4999976654053,8|0,0:0|0:0,0:0:0:0:
60,272,39131,1,0,3:0:0:0:
116,163,39286,2,0,P|152:139|212:155,1,76.4999976654053,0|8,3:0|0:0,0:0:0:0:
332,68,39597,22,0,B|360:36|360:36|251:57,1,152.999995330811
252,176,40064,1,8,0:0:0:0:
252,176,40219,2,0,L|332:188,1,76.4999976654053,0|0,0:0|3:0,0:0:0:0:
444,120,40530,2,0,B|452:84|452:84|436:24,1,76.4999976654053,0|8,3:0|0:0,0:0:0:0:
327,187,40841,54,0,B|331:243|331:243|351:271|351:271|356:342,1,152.999995330811,4|0,0:0|0:0,0:0:0:0:
407,215,41307,1,8,0:0:0:0:
275,305,41463,1,0,0:0:0:0:
407,215,41618,2,0,L|491:199,1,76.4999976654053,0|0,3:0|3:0,0:0:0:0:
355,333,41929,1,8,0:0:0:0:
256,280,42084,22,0,B|208:240|144:256|144:256|176:220,1,152.999995330811
228,168,42551,1,8,0:0:0:0:
100,88,42706,2,0,L|116:188,1,76.4999976654053,0|0,0:0|3:0,0:0:0:0:
244,80,43017,1,0,3:0:0:0:
164,24,43172,1,8,0:0:0:0:
228,168,43328,1,0,0:0:0:0:
332,48,43483,54,0,P|388:32|456:108,1,152.999995330811,4|8,3:2|0:0,0:0:0:0:
373,184,43950,2,0,L|380:107,1,76.4999976654053,0|0,0:0|3:0,0:0:0:0:
284,120,44260,1,0,3:0:0:0:
464,180,44416,1,8,0:0:0:0:
284,120,44571,22,0,B|204:116|236:172|144:168,1,152.999995330811
292,220,45038,1,8,0:0:0:0:
389,208,45193,2,0,P|437:220|472:328,1,152.999995330811,0|0,0:0|3:0,0:0:0:0:
335,359,45659,2,0,P|321:325|324:287,1,76.4999976654053,8|0,0:0|0:0,0:0:0:0:
477,307,45970,54,0,L|400:313,1,76.4999976654053,4|0,3:2|0:0,0:0:0:0:
208,160,46281,2,0,L|284:166,1,76.4999976654053,8|0,0:0|0:0,0:0:0:0:
360,172,46514,1,0,0:0:0:0:
360,172,46592,1,0,3:0:0:0:
232,332,46748,2,0,L|155:338,1,76.4999976654053,0|8,3:0|0:0,0:0:0:0:
8,228,47058,22,0,B|60:228|92:260|92:260|124:232|160:240,1,152.999995330811,4|0,0:0|3:0,0:0:0:0:
120,88,47525,2,0,P|100:120|96:158,1,76.4999976654053,8|0,0:0|0:0,0:0:0:0:
155,338,47836,53,8,0:0:0:0:
181,268,47991,1,8,0:0:0:0:
248,233,48146,1,0,3:0:0:0:
320,252,48302,1,0,3:0:0:0:
408,348,48457,5,4,0:0:0:0:
416,340,48768,1,0,3:0:0:0:
424,332,49079,2,0,L|428:216,1,101.999996887207,8|0,0:0|3:0,0:0:0:0:
332,120,49545,5,0,0:0:0:0:
332,120,49701,1,0,0:0:0:0:
400,64,49856,1,0,3:0:0:0:
312,32,50012,2,0,P|260:32|224:64,2,101.999996887207,0|8|2,3:0|0:0|0:0,0:0:0:0:
400,64,50789,1,0,0:0:0:0:
332,120,50944,70,0,L|268:116,1,50.9999984436036,4|0,0:0|0:0,0:0:0:0:
136,112,51255,2,0,L|144:164,1,50.9999984436036,0|0,3:0|0:0,0:0:0:0:
159,242,51566,1,8,0:0:0:0:
60,92,51722,1,8,0:0:0:0:
220,156,51877,1,0,3:0:0:0:
76,256,52033,6,0,P|40:253|-4:304,1,101.999996887207,2|8,0:0|0:0,0:0:0:0:
83,388,52499,2,0,P|123:358|126:309,1,101.999996887207,2|8,0:0|0:0,0:0:0:0:
159,242,52965,1,8,0:0:0:0:
229,217,53121,1,8,0:0:0:0:
297,248,53276,1,8,0:0:0:0:
372,332,53431,70,0,P|412:340|460:292,1,101.999996887207,4|0,3:2|0:0,0:0:0:0:
456,188,53898,2,0,L|440:128,1,50.9999984436036,0|8,3:0|0:0,0:0:0:0:
328,88,54209,2,0,L|340:32,1,50.9999984436036,2|0,0:0|0:0,0:0:0:0:
364,168,54520,6,0,P|324:176|264:144,1,101.999996887207,6|0,0:0|0:0,0:0:0:0:
276,248,54986,2,0,P|272:280|276:308,1,50.9999984436036,0|0,3:0|0:0,0:0:0:0:
352,280,55297,1,8,0:0:0:0:
204,336,55452,2,0,L|148:344,1,50.9999984436036,2|0,0:0|0:0,0:0:0:0:
196,236,55763,70,0,B|212:184|192:128|192:128|184:156|164:180,1,152.999995330811,4|0,3:2|0:0,0:0:0:0:
104,212,56229,1,8,0:0:0:0:
288,104,56385,6,0,B|408:92|408:92|380:120,1,152.999995330811,4|0,3:2|3:0,0:0:0:0:
316,192,56851,1,8,0:0:0:0:
112,116,57007,1,0,0:0:0:0:
164,316,57162,1,4,0:0:0:0:
164,316,57473,70,0,P|176:276|132:224,1,89.2499972763062
231,183,57784,6,0,P|183:193|155:235,1,102,2|0,0:0|0:0,0:0:0:0:
66,181,58095,54,0,P|99:226|155:234,1,114.749996498108,2|0,0:0|0:0,0:0:0:0:
308,128,58406,38,0,L|312:40,1,85,4|0,3:2|0:0,0:0:0:0:
232,184,58716,1,8,0:0:0:0:
400,100,58872,1,0,0:0:0:0:
400,100,58950,1,0,0:0:0:0:
400,100,59027,1,0,3:0:0:0:
236,8,59183,1,0,3:0:0:0:
372,184,59338,1,8,0:0:0:0:
311,43,59494,1,0,0:0:0:0:
147,186,59649,38,0,P|105:192|65:180,1,85,0|0,3:0|0:0,0:0:0:0:
152,96,59960,1,8,0:0:0:0:
204,288,60115,1,0,0:0:0:0:
256,192,60271,2,0,B|264:144|236:80|236:80|258:117|292:116,1,170,4|8,3:2|0:0,0:0:0:0:
380,136,60737,5,0,0:0:0:0:
397,135,60815,1,0,0:0:0:0:
413,131,60893,1,4,3:2:0:0:
484,176,61048,1,0,0:0:0:0:
380,60,61203,1,8,0:0:0:0:
336,204,61359,2,0,P|276:204|237:300,1,170,0|0,0:0|3:0,0:0:0:0:
388,264,61825,1,8,0:0:0:0:
176,188,61981,6,0,B|152:148|152:148|180:16,1,170,0|0,3:0|0:0,0:0:0:0:
240,136,62447,1,8,0:0:0:0:
52,164,62602,1,0,0:0:0:0:
177,27,62758,2,0,L|285:15,1,85,0|0,3:0|3:0,0:0:0:0:
400,152,63069,2,0,L|292:140,1,85,8|0,0:0|0:0,0:0:0:0:
240,136,63302,1,0,0:0:0:0:
240,136,63380,6,0,P|232:192|248:232,1,85,4|0,3:2|0:0,0:0:0:0:
480,160,63691,1,8,0:0:0:0:
356,64,63846,1,0,0:0:0:0:
481,77,64001,2,0,P|490:119|480:160,1,85,0|0,3:0|3:0,0:0:0:0:
356,360,64312,1,8,0:0:0:0:
284,204,64468,38,0,P|336:196|408:290,1,170,4|0,0:0|0:0,0:0:0:0:
356,360,64934,1,8,0:0:0:0:
200,296,65090,2,0,P|153:290|112:296,1,85,0|0,0:0|3:0,0:0:0:0:
32,328,65400,1,0,3:0:0:0:
104,148,65556,1,8,0:0:0:0:
200,296,65711,1,0,0:0:0:0:
12,212,65867,6,0,P|3:151|11:79,1,127.5,4|0,3:2|0:0,0:0:0:0:
40,20,66178,1,8,0:0:0:0:
104,148,66333,1,0,0:0:0:0:
105,160,66411,1,0,0:0:0:0:
106,172,66488,1,0,3:0:0:0:
96,72,66644,1,0,3:0:0:0:
12,212,66799,1,8,0:0:0:0:
177,216,66955,6,0,B|197:214|213:212|213:212|225:204|225:204|237:208|237:208|272:202|349:196,1,159.375,4|0,0:0|0:0,0:0:0:0:
417,180,67266,6,0,B|433:148|433:148|381:140|337:156|329:216,1,159.375,4|0,0:0|0:0,0:0:0:0:
363,348,67577,38,0,L|415:344,1,53.125,4|0,0:0|0:0,0:0:0:0:
508,336,67732,5,8,0:0:0:0:
308,276,67887,1,0,3:0:0:0:
504,172,68043,5,8,0:0:0:0:
416,344,68198,1,0,3:0:0:0:
248,176,68354,6,0,B|148:160|184:228|68:212,1,170,4|8,3:2|0:0,0:0:0:0:
98,47,68820,2,0,P|114:86|108:128,1,85,0|0,0:0|3:0,0:0:0:0:
20,280,69131,1,0,3:0:0:0:
20,280,69209,1,0,0:0:0:0:
20,280,69286,1,8,0:0:0:0:
184,344,69442,38,0,P|142:350|103:334,1,85,0|0,0:0|3:0,0:0:0:0:
87,214,69753,1,0,0:0:0:0:
260,292,69908,2,0,L|269:376,1,85,8|0,0:0|0:0,0:0:0:0:
172,256,70219,2,0,B|176:208|176:208|148:172|176:116,1,127.5,4|0,3:2|0:0,0:0:0:0:
220,84,70530,2,0,P|264:76|312:120,1,85,8|0,0:0|0:0,0:0:0:0:
336,240,70841,6,0,P|388:252|436:176,1,127.5,4|0,3:2|0:0,0:0:0:0:
436,132,71152,2,0,L|420:36,1,85,8|0,0:0|0:0,0:0:0:0:
422,48,71385,1,0,0:0:0:0:
422,48,71463,1,0,3:0:0:0:
512,172,71618,1,0,3:0:0:0:
492,8,71773,1,8,0:0:0:0:
344,112,71929,6,0,P|296:108|256:60,1,85,0|0,0:0|3:0,0:0:0:0:
172,304,72240,1,0,0:0:0:0:
37,217,72395,2,0,P|85:221|125:269,1,85,8|0,0:0|0:0,0:0:0:0:
272,176,72706,2,0,B|172:200|204:128|100:156,1,170,4|8,3:2|0:0,0:0:0:0:
37,217,73172,1,0,0:0:0:0:
192,128,73328,5,4,3:2:0:0:
120,48,73483,2,0,L|20:60,1,85,0|8,0:0|0:0,0:0:0:0:
140,228,73794,1,0,0:0:0:0:
192,128,73950,2,0,B|260:120|292:176|292:176|320:156|368:156,1,170,0|8,3:0|0:0,0:0:0:0:
428,4,74416,38,0,P|372:0|320:116,1,170,4|0,0:0|0:0,0:0:0:0:
404,252,74882,1,8,0:0:0:0:
496,120,75038,2,0,L|384:128,1,85,0|0,0:0|3:0,0:0:0:0:
304,272,75349,1,0,3:0:0:0:
304,272,75426,1,0,0:0:0:0:
304,272,75504,1,8,0:0:0:0:
476,208,75659,1,0,0:0:0:0:
336,164,75815,5,4,3:2:0:0:
376,348,75970,1,0,0:0:0:0:
411,126,76126,1,8,0:0:0:0:
232,312,76281,1,0,0:0:0:0:
509,339,76437,2,0,P|484:262|404:252,1,170,0|8,3:0|0:0,0:0:0:0:
224,216,76903,6,0,B|216:176|216:176|228:128|228:128|204:88|216:36,1,159.375,4|0,0:0|0:0,0:0:0:0:
348,36,77214,6,0,P|356:88|300:40,1,159.375,4|0,0:0|0:0,0:0:0:0:
416,0,77525,38,0,P|432:28|428:88,1,53.125,4|0,0:0|0:0,0:0:0:0:
352,184,77680,6,0,L|256:168,1,85,8|0,0:0|3:0,0:0:0:0:
40,280,77991,2,0,P|96:288|136:220,1,127.5,8|0,0:0|0:0,0:0:0:0:
29,152,78302,6,0,L|40:280,1,127.500004863739,4|0,0:0|3:0,0:0:0:0:
20,68,78924,1,8,0:0:0:0:
40,280,79235,1,0,0:0:0:0:
112,312,79390,1,0,3:0:0:0:
172,260,79545,6,0,L|256:252,1,63.7500024318696,0|8,3:0|0:0,0:0:0:0:
280,348,79856,2,0,L|343:354,1,63.7500024318696,0|0,3:0|0:0,0:0:0:0:
412,304,80167,2,0,P|440:256|416:188,1,127.500004863739,8|0,0:0|0:0,0:0:0:0:
328,160,80634,1,8,0:0:0:0:
412,127,80789,38,0,L|419:190,1,63.7500024318696,0|8,3:0|0:0,0:0:0:0:
504,104,81100,2,0,L|508:32,1,63.7500024318696,0|0,3:0|0:0,0:0:0:0:
328,160,81411,1,8,0:0:0:0:
508,184,81566,1,8,0:0:0:0:
348,48,81722,1,0,0:0:0:0:
320,252,81877,6,0,B|259:250|259:250|216:224|216:224|148:220,1,170,4|0,3:2|3:0,0:0:0:0:
84,328,82343,1,8,0:0:0:0:
88,160,82499,1,0,0:0:0:0:
84,152,82577,1,0,0:0:0:0:
80,144,82654,6,0,L|68:260,1,85,4|8,3:2|0:0,0:0:0:0:
240,148,82965,2,0,L|231:63,1,85,8|8,0:0|0:0,0:0:0:0:
0,64,83276,6,0,B|44:40|44:40|84:84|140:80|176:60,1,170,4|8,3:2|0:0,0:0:0:0:
280,0,83742,1,0,0:0:0:0:
240,148,83898,2,0,L|231:63,1,85,0|0,3:0|0:0,0:0:0:0:
352,28,84209,1,8,0:0:0:0:
280,224,84364,38,0,P|200:224|156:140,1,170,4|0,0:0|0:0,0:0:0:0:
368,184,84830,2,0,L|359:268,1,85,8|0,0:0|0:0,0:0:0:0:
358,268,85064,1,0,0:0:0:0:
358,268,85141,1,0,3:0:0:0:
389,105,85297,1,0,3:0:0:0:
280,224,85452,5,8,0:0:0:0:
272,24,85608,1,0,0:0:0:0:
368,184,85763,2,0,B|396:196|428:180|428:180|456:224|524:216,1,140.25000428009,4|0,3:2|0:0,0:0:0:0:
487,90,86074,2,0,L|496:136,1,46.7500014266968,8|0,0:0|0:0,0:0:0:0:
292,287,86229,6,0,B|259:317|259:317|283:209,1,140.25000428009,4|0,0:0|0:0,0:0:0:0:
292,144,86540,2,0,P|260:144|232:160,1,46.7500014266968,0|0,3:0|0:0,0:0:0:0:
372,280,86696,2,0,P|404:280|432:264,1,46.7500014266968,8|0,0:0|0:0,0:0:0:0:
160,208,86851,6,0,B|88:200|53:261|76:328|76:328|92:292|132:288,1,229.499992996216,4|0,0:0|0:0,0:0:0:0:
216,296,87473,1,0,0:0:0:0:
224,300,87551,1,0,0:0:0:0:
232,304,87628,38,0,L|312:308,1,63.7500024318696,2|0,0:0|0:0,0:0:0:0:
432,228,87939,2,0,L|320:236,1,95.6250036478044,2|0,0:0|0:0,0:0:0:0:
295,307,88250,53,4,0:0:0:0:
336,234,88872,1,2,0:0:0:0:
320,151,89494,1,2,0:0:0:0:
255,97,89960,1,2,0:0:0:0:
170,99,90426,1,2,0:0:0:0:
106,155,90737,6,0,P|102:206|96:252,1,85,2|0,0:0|0:0,0:0:0:0:
168,316,91359,2,0,P|212:300|280:356,1,127.5,2|0,0:0|0:0,0:0:0:0:
336,300,91981,2,0,P|380:295|424:288,1,85,2|0,0:0|0:0,0:0:0:0:
460,204,92602,1,0,0:0:0:0:
460,204,92758,2,0,P|420:208|376:184,1,85,2|0,0:0|0:0,0:0:0:0:
357,106,93224,70,0,B|393:70|393:70|380:189,1,170,2|0,0:0|0:0,0:0:0:0:
316,232,94157,1,2,0:0:0:0:
256,180,94468,2,0,B|184:168|208:212|132:200,2,127.5,2|2|2,0:0|0:0|0:0,0:0:0:0:
316,232,95711,6,0,L|324:320,1,85,2|0,0:0|0:0,0:0:0:0:
188,316,96333,2,0,L|196:232,1,85,2|0,0:0|0:0,0:0:0:0:
256,180,96799,1,0,0:0:0:0:
316,128,96955,2,0,L|324:40,1,85,2|0,0:0|0:0,0:0:0:0:
256,12,97421,1,0,0:0:0:0:
188,43,97577,2,0,L|195:127,1,85,2|0,0:0|0:0,0:0:0:0:
256,180,98043,1,0,0:0:0:0:
80,256,98198,69,4,0:0:0:0:
45,175,98820,1,2,0:0:0:0:
71,91,99441,1,2,0:0:0:0:
144,42,99908,1,2,0:0:0:0:
232,53,100374,1,2,0:0:0:0:
292,117,100685,6,0,P|344:124|392:24,1,170,0|2,0:0|0:0,0:0:0:0:
321,12,101463,2,0,L|328:55,1,42.5
384,132,101773,1,0,0:0:0:0:
460,114,101929,70,0,P|418:109|383:132,1,85,2|0,0:0|0:0,0:0:0:0:
348,212,102395,1,0,0:0:0:0:
272,193,102551,2,0,P|313:188|348:211,1,85,2|0,0:0|0:0,0:0:0:0:
396,332,103017,1,0,0:0:0:0:
336,284,103172,6,0,L|476:272,1,127.5,2|0,0:0|0:0,0:0:0:0:
504,212,103794,2,0,P|516:180|500:128,1,85,2|0,0:0|0:0,0:0:0:0:
344,100,104416,2,0,L|212:88,2,127.5,2|2|2,0:0|0:0|0:0,0:0:0:0:
400,176,105659,70,0,P|364:192|308:184,1,85,2|0,0:0|0:0,0:0:0:0:
252,240,106281,2,0,P|208:192|136:200,1,127.5,2|0,0:0|0:0,0:0:0:0:
140,277,106903,2,0,L|149:192,1,85,2|0,0:0|0:0,0:0:0:0:
104,132,107369,1,0,0:0:0:0:
208,80,107525,6,0,B|316:60|276:136|400:112,1,191.250007295609,2|0,0:0|0:0,0:0:0:0:
464,69,108147,38,0,P|415:72|389:113,1,101.999996887207,4|0,0:0|0:0,0:0:0:0:
384,192,108613,1,0,0:0:0:0:
296,232,108768,2,0,P|244:236|208:180,1,101.999996887207,2|0,0:0|0:0,0:0:0:0:
140,160,109235,1,0,0:0:0:0:
223,101,109390,38,0,L|211:202,1,101.999996887207,2|0,0:0|0:0,0:0:0:0:
136,276,109856,1,0,0:0:0:0:
64,256,110012,2,0,L|52:196,1,50.9999984436036,2|0,0:0|0:0,0:0:0:0:
208,296,110323,2,0,L|220:356,1,50.9999984436036
53,205,110634,38,0,L|64:103,1,101.999996887207,2|0,0:0|0:0,0:0:0:0:
104,36,111100,1,0,0:0:0:0:
184,100,111255,2,0,P|228:108|280:60,1,101.999996887207,2|0,0:0|0:0,0:0:0:0:
336,128,111722,1,0,0:0:0:0:
424,104,111877,38,0,P|375:98|336:128,1,101.999996887207,2|0,0:0|0:0,0:0:0:0:
348,252,112343,2,0,P|356:236|354:200,1,50.9999984436036,0|2,0:0|0:0,0:0:0:0:
216,117,112654,2,0,P|234:163|280:182,1,101.999996887207
424,104,113121,38,0,P|420:53|417:3,1,101.999996887207,2|0,0:0|0:0,0:0:0:0:
496,60,113587,1,0,0:0:0:0:
356,144,113742,2,0,P|360:194|363:245,1,101.999996887207,2|0,0:0|0:0,0:0:0:0:
212,352,114364,38,0,P|180:312|192:256,1,101.999996887207,2|0,0:0|0:0,0:0:0:0:
325,264,114830,2,0,P|330:313|299:351,1,101.999996887207,2|0,0:0|0:0,0:0:0:0:
256,268,115297,1,0,0:0:0:0:
256,196,115452,1,0,0:0:0:0:
256,124,115608,38,0,L|372:104,1,101.999996887207,2|0,0:0|0:0,0:0:0:0:
186,264,116229,2,0,L|70:244,1,101.999996887207,2|0,0:0|0:0,0:0:0:0:
8,164,116696,38,0,P|48:128|112:144,1,101.999996887207,2|0,0:0|0:0,0:0:0:0:
93,131,117317,1,0,0:0:0:0:
144,192,117473,2,0,P|192:212|264:136,1,152.999995330811,2|0,0:0|0:0,0:0:0:0:
260,52,118095,38,0,L|262:153,1,101.999996887207,4|0,0:0|0:0,0:0:0:0:
316,228,118561,1,0,0:0:0:0:
376,164,118716,2,0,P|416:152|480:192,1,101.999996887207,2|0,0:0|0:0,0:0:0:0:
353,313,119338,38,0,P|318:277|316:228,1,101.999996887207,2|0,0:0|0:0,0:0:0:0:
260,104,119805,1,8,0:0:0:0:
261,116,119882,1,8,0:0:0:0:
262,128,119960,1,8,0:0:0:0:
88,280,120115,1,8,0:0:0:0:
228,208,120271,1,8,0:0:0:0:
104,92,120426,22,0,B|129:70|129:70|110:171,1,136,4|0,3:2|3:0,0:0:0:0:
36,232,120893,1,0,3:0:0:0:
204,306,121203,2,0,P|269:315|316:270,1,136,8|0,0:0|0:0,0:0:0:0:
308,135,121670,1,0,0:0:0:0:
308,135,121825,6,0,L|317:271,1,136,4|0,3:2|0:0,0:0:0:0:
388,208,122292,1,0,0:0:0:0:
232,152,122447,2,0,P|198:148|164:168,1,68,8|8,0:0|0:0,0:0:0:0:
136,232,122758,1,0,3:0:0:0:
296,207,122913,70,0,P|357:231|374:294,1,136,4|8,0:0|0:0,0:0:0:0:
232,328,123380,1,0,3:0:0:0:
232,328,123691,2,0,L|220:232,1,68,8|0,0:0|0:0,0:0:0:0:
301,140,124001,2,0,L|296:208,1,68,0|0,3:0|0:0,0:0:0:0:
196,68,124312,6,0,B|272:80|244:32|348:52,1,136,4|0,3:2|0:0,0:0:0:0:
448,112,124779,1,0,0:0:0:0:
434,115,124856,1,0,0:0:0:0:
420,118,124934,1,8,0:0:0:0:
301,140,125090,1,8,0:0:0:0:
408,36,125245,1,8,0:0:0:0:
396,252,125400,70,0,B|372:236|368:204|368:204|328:240|276:228,1,136,4|8,3:2|0:0,0:0:0:0:
289,73,125867,2,0,L|301:141,1,68,0|0,3:0|0:0,0:0:0:0:
220,288,126178,2,0,B|198:244|198:244|215:158,1,136,8|0,0:0|0:0,0:0:0:0:
380,100,126644,1,8,0:0:0:0:
414,186,126799,6,0,P|348:186|301:140,1,136,4|0,3:2|0:0,0:0:0:0:
336,16,127266,1,0,0:0:0:0:
184,72,127421,69,8,0:0:0:0:
192,156,127577,1,8,0:0:0:0:
200,240,127732,2,0,L|192:316,1,63.75,0|0,3:0|0:0,0:0:0:0:
193,303,128043,6,0,B|152:312|152:312|104:292,1,76.4999976654053,4|0,3:2|0:0,0:0:0:0:
104,212,128354,2,0,L|94:288,1,76.4999976654053,0|0,3:0|0:0,0:0:0:0:
291,230,128665,70,0,B|331:222|331:222|379:242,1,78.199997374878,2|0,3:2|0:0,0:0:0:0:
400,327,128976,2,0,L|391:250,1,78.199997374878,0|0,3:0|0:0,0:0:0:0:
440,92,129286,6,0,B|453:131|453:131|442:182,1,79.8999987808228,2|0,3:2|0:0,0:0:0:0:
348,56,129597,2,0,L|428:64,1,79.8999987808228,0|0,3:0|0:0,0:0:0:0:
291,230,129908,70,0,L|207:238,1,81.6000019921876,2|0,3:2|0:0,0:0:0:0:
317,147,130219,2,0,B|329:187|329:187|321:226,1,81.6000019921876,0|0,3:0|0:0,0:0:0:0:
124,188,130530,6,0,L|112:100,1,85,4|0,3:2|0:0,0:0:0:0:
151,291,130841,2,0,B|110:301|110:301|69:281,1,85,0|0,3:2|0:0,0:0:0:0:
317,147,131152,70,0,L|411:138,1,85,2|0,3:2|0:0,0:0:0:0:
315,326,131463,2,0,B|297:289|297:289|305:245,1,85,0|0,3:2|0:0,0:0:0:0:
208,28,131773,6,0,L|200:92,1,46.7500014266968,2|0,3:2|0:0,0:0:0:0:
84,148,131929,2,0,L|78:101,1,46.7500014266968,8|0,0:0|0:0,0:0:0:0:
220,168,132084,2,0,L|212:232,1,46.7500014266968,8|0,0:0|0:0,0:0:0:0:
76,288,132240,2,0,L|70:241,1,46.7500014266968,8|0,0:0|0:0,0:0:0:0:
158,126,132395,69,0,1:0:0:0:
195,98,132472,1,0,1:0:0:0:
241,97,132550,1,0,1:0:0:0:
279,122,132628,1,0,1:0:0:0:
317,147,132707,1,0,1:0:0:0:
363,146,132785,1,0,1:0:0:0:
400,118,132862,70,0,L|408:28,1,85,4|0,3:2|0:0,0:0:0:0:
315,222,133172,1,0,3:0:0:0:
432,208,133328,2,0,P|480:212|516:240,1,85,8|0,0:0|0:0,0:0:0:0:
356,316,133639,1,0,3:0:0:0:
400,118,133794,1,0,3:0:0:0:
452,288,133950,2,0,L|444:372,1,85,8|0,0:0|0:0,0:0:0:0:
194,248,134260,6,0,B|264:255|244:215|316:223,1,127.5,0|0,3:0|0:0,0:0:0:0:
376,184,134571,2,0,L|364:84,1,85,8|0,0:0|0:0,0:0:0:0:
212,36,134882,1,0,3:0:0:0:
106,198,135038,1,0,3:0:0:0:
270,115,135193,1,8,0:0:0:0:
120,36,135349,70,0,P|68:40|64:168,1,170,4|0,0:0|0:0,0:0:0:0:
184,233,135815,2,0,P|193:191|180:152,1,85,8|0,0:0|0:0,0:0:0:0:
106,198,136126,1,0,3:0:0:0:
180,336,136281,1,0,3:0:0:0:
269,226,136437,2,0,L|184:232,1,85,8|0,0:0|0:0,0:0:0:0:
96,304,136748,5,0,3:0:0:0:
179,151,136903,2,0,L|167:63,1,85,0|8,0:0|0:0,0:0:0:0:
296,216,137214,2,0,L|284:300,1,85,0|0,0:0|3:0,0:0:0:0:
272,116,137525,1,0,3:0:0:0:
272,116,137602,1,0,0:0:0:0:
272,116,137680,1,8,0:0:0:0:
388,236,137836,1,4,0:0:0:0:
203,248,137991,69,0,3:0:0:0:
352,120,138147,1,0,0:0:0:0:
282,300,138302,5,8,0:0:0:0:
188,100,138457,1,0,0:0:0:0:
124,284,138613,69,0,3:0:0:0:
296,216,138768,1,0,3:0:0:0:
297,203,138846,1,0,0:0:0:0:
296,190,138924,1,8,0:0:0:0:
96,160,139079,1,0,0:0:0:0:
196,329,139235,6,0,P|210:289|203:248,1,85,0|0,3:0|0:0,0:0:0:0:
116,80,139545,1,8,0:0:0:0:
116,80,139701,1,0,0:0:0:0:
124,284,139856,69,0,3:0:0:0:
264,156,140012,1,0,3:0:0:0:
64,224,140167,1,8,0:0:0:0:
282,300,140323,6,0,B|338:288|338:288|370:336|430:332|458:316,1,170,4|0,0:0|0:0,0:0:0:0:
407,162,140789,2,0,P|397:203|408:244,1,85,8|0,0:0|0:0,0:0:0:0:
264,156,141100,2,0,P|304:144|334:114,1,85,0|0,3:0|0:0,0:0:0:0:
330,283,141411,2,0,P|299:253|259:242,1,85,8|0,0:0|0:0,0:0:0:0:
128,268,141722,70,0,L|112:356,1,85,0|0,3:0|0:0,0:0:0:0:
259,242,142033,1,8,0:0:0:0:
168,128,142188,1,0,0:0:0:0:
166,115,142266,1,0,0:0:0:0:
164,102,142343,5,8,0:0:0:0:
259,242,142499,1,8,0:0:0:0:
44,152,142654,1,8,0:0:0:0:
244,52,142810,70,0,B|336:40|304:96|416:80,1,170,4|0,0:0|0:0,0:0:0:0:
488,148,143276,2,0,P|468:208|484:252,1,85,8|0,0:0|0:0,0:0:0:0:
284,308,143587,1,0,3:0:0:0:
360,252,143742,2,0,P|380:312|364:356,1,85,0|8,3:0|0:0,0:0:0:0:
83,263,144053,22,0,B|136:264|164:216|164:216|196:236|232:232,1,170
240,128,144520,1,8,0:0:0:0:
88,100,144675,2,0,P|79:141|91:181,1,85,0|0,0:0|3:0,0:0:0:0:
235,313,144986,2,0,P|243:271|231:231,1,85,0|8,3:0|0:0,0:0:0:0:
168,92,145297,54,0,B|231:98|231:98|271:82|271:82|355:90,1,170,4|0,0:0|0:0,0:0:0:0:
376,272,145763,1,8,0:0:0:0:
296,172,145919,1,0,0:0:0:0:
440,80,146074,2,0,L|428:200,1,85,0|0,3:0|3:0,0:0:0:0:
320,344,146385,1,8,0:0:0:0:
232,236,146540,22,0,B|172:224|172:224|148:280|72:276,1,170
208,148,147007,1,8,0:0:0:0:
84,108,147162,2,0,L|96:192,1,85,0|0,0:0|3:0,0:0:0:0:
212,320,147473,1,0,3:0:0:0:
212,320,147551,1,0,0:0:0:0:
212,320,147628,1,8,0:0:0:0:
296,172,147784,1,0,0:0:0:0:
339,329,147939,54,0,P|259:312|231:235,1,170,4|8,3:2|0:0,0:0:0:0:
376,120,148406,2,0,P|392:176|376:224,1,85,0|0,0:0|3:0,0:0:0:0:
184,112,148716,2,0,P|180:70|195:30,1,85,0|8,3:0|0:0,0:0:0:0:
296,172,149027,22,0,B|260:171|236:168|236:168|192:188|192:188|154:184|100:184,1,170
194,30,149494,1,8,0:0:0:0:
295,87,149649,2,0,P|357:85|397:37,1,127.5
468,16,149960,2,0,L|460:104,1,85,0|8,3:0|0:0,0:0:0:0:
352,232,150271,1,0,0:0:0:0:
434,190,150426,54,0,B|472:172|472:172|516:248|466:286,1,170,4|8,3:2|0:0,0:0:0:0:
392,332,150893,1,0,0:0:0:0:
272,240,151048,2,0,L|188:224,1,85,0|0,3:0|3:0,0:0:0:0:
296,324,151359,1,8,0:0:0:0:
248,148,151514,22,0,B|180:136|180:136|160:116|160:116|80:100,1,170,4|0,0:0|0:0,0:0:0:0:
8,292,151981,2,0,P|64:300|120:228,1,127.5,8|0,0:0|0:0,0:0:0:0:
104,184,152292,53,8,0:0:0:0:
128,356,152447,1,0,3:0:0:0:
184,216,152602,1,0,3:0:0:0:
20,168,152758,1,0,3:0:0:0:
196,296,152913,6,0,P|236:304|292:240,1,127.500004863739,4|0,0:0|0:0,0:0:0:0:
264,92,153380,1,0,0:0:0:0:
236,168,153535,2,0,B|284:180|320:148|320:148|368:172,1,127.500004863739,8|0,0:0|0:0,0:0:0:0:
472,64,154001,1,0,0:0:0:0:
408,11,154157,6,0,P|391:37|388:69,1,63.7500024318696,0|0,3:0|0:0,0:0:0:0:
489,221,154468,2,0,P|505:194|508:162,1,63.7500024318696,0|0,3:0|0:0,0:0:0:0:
387,68,154779,2,0,B|337:73|337:73|316:87|316:87|259:92,1,127.500004863739,8|0,0:0|0:0,0:0:0:0:
104,180,155245,1,8,0:0:0:0:
154,70,155400,70,0,P|214:55|264:92,1,127.500004863739,0|0,3:0|0:0,0:0:0:0:
232,228,155867,1,0,0:0:0:0:
168,184,156022,2,0,L|100:180,1,63.7500024318696,8|8,0:0|0:0,0:0:0:0:
168,276,156333,1,0,3:0:0:0:
264,160,156488,6,0,B|340:148|304:196|400:180,1,127.500004863739,0|8,0:0|0:0,0:0:0:0:
460,128,156955,2,0,P|464:92|452:56,1,63.7500024318696,0|0,3:0|0:0,0:0:0:0:
344,260,157266,69,8,0:0:0:0:
456,332,157421,1,8,0:0:0:0:
436,240,157577,1,8,0:0:0:0:
364,352,157732,1,8,0:0:0:0:
248,236,157887,6,0,P|152:228|104:232,1,127.500004863739,4|0,3:2|0:0,0:0:0:0:
24,328,158354,2,0,P|44:280|32:248,1,63.7500024318696,0|8,0:0|0:0,0:0:0:0:
4,132,158665,2,0,P|35:173|69:178,1,63.7500024318696
92,40,158976,70,0,B|60:20|60:20|84:128,1,127.500004863739,4|8,0:0|0:0,0:0:0:0:
160,180,159442,2,0,B|208:176|208:176|236:160|236:160|300:156,1,127.500004863739,0|8,3:0|0:0,0:0:0:0:
376,196,159908,1,8,0:0:0:0:
376,196,160219,6,0,L|368:104,1,85,4|0,0:0|0:0,0:0:0:0:
432,260,160530,1,0,3:0:0:0:
282,157,160685,1,0,3:0:0:0:
464,104,160841,70,0,L|472:12,1,85,4|0,0:0|0:0,0:0:0:0:
376,196,161152,1,0,3:0:0:0:
296,64,161307,5,0,1:0:0:0:
258,45,161384,1,0,1:0:0:0:
217,50,161462,1,0,1:0:0:0:
185,77,161540,1,0,1:0:0:0:
175,118,161617,1,4,0:0:0:0:
175,118,161929,70,0,L|187:222,1,89.2499972763062
148,304,162240,6,0,L|160:200,1,102,2|0,0:0|0:0,0:0:0:0:
124,84,162551,54,0,L|137:202,1,114.749996498108,2|0,0:0|0:0,0:0:0:0:
244,268,162862,38,0,B|292:280|332:232|332:232|380:264,1,127.5,4|0,3:2|0:0,0:0:0:0:
412,288,163172,2,0,L|500:272,1,85,8|0,0:0|0:0,0:0:0:0:
495,272,163406,1,0,0:0:0:0:
495,272,163483,1,0,3:0:0:0:
332,340,163639,1,0,3:0:0:0:
480,192,163794,1,8,0:0:0:0:
296,140,163950,38,0,L|309:223,1,85,0|0,0:0|3:0,0:0:0:0:
248,344,164260,1,0,0:0:0:0:
146,217,164416,2,0,P|208:218|244:268,1,127.5,8|0,0:0|0:0,0:0:0:0:
248,344,164727,2,0,L|160:352,1,85,4|0,3:2|3:0,0:0:0:0:
76,124,165038,2,0,L|160:131,1,85,8|0,0:0|0:0,0:0:0:0:
128,288,165349,6,0,B|76:292|76:292|48:280|48:280|-16:284,1,127.5,4|0,3:2|0:0,0:0:0:0:
32,212,165659,2,0,B|44:176|44:176|28:128,1,85,8|0,0:0|0:0,0:0:0:0:
4,64,165893,1,0,0:0:0:0:
4,64,165970,1,0,3:0:0:0:
160,156,166126,1,0,3:0:0:0:
32,212,166281,1,8,0:0:0:0:
128,84,166437,6,0,P|180:80|232:188,1,170,0|0,3:0|0:0,0:0:0:0:
208,304,166903,1,8,0:0:0:0:
160,156,167058,1,0,0:0:0:0:
272,248,167214,1,0,3:0:0:0:
128,288,167369,1,0,3:0:0:0:
237,169,167525,2,0,B|288:168|288:168|316:176|316:176|369:173,1,127.5,8|0,0:0|0:0,0:0:0:0:
381,256,167836,6,0,L|363:173,1,85,4|0,3:2|0:0,0:0:0:0:
408,96,168147,1,8,0:0:0:0:
300,268,168302,1,0,0:0:0:0:
480,156,168457,2,0,L|498:73,1,85,0|0,3:0|3:0,0:0:0:0:
304,16,168768,1,8,0:0:0:0:
362,172,168924,38,0,B|318:164|318:164|288:208|216:192,1,127.5,4|0,0:0|0:0,0:0:0:0:
184,164,169235,2,0,P|172:120|192:72,1,85,0|8,0:0|0:0,0:0:0:0:
248,265,169545,2,0,P|215:297|164:304,1,85,0|0,0:0|3:0,0:0:0:0:
252,124,169856,1,0,3:0:0:0:
328,264,170012,1,8,0:0:0:0:
136,236,170167,1,0,0:0:0:0:
328,88,170323,6,0,L|424:68,1,85,4|0,3:2|0:0,0:0:0:0:
248,265,170634,1,8,0:0:0:0:
152,128,170789,1,0,0:0:0:0:
204,336,170944,1,0,3:0:0:0:
244,72,171100,1,0,3:0:0:0:
244,72,171178,1,0,0:0:0:0:
244,72,171255,1,8,0:0:0:0:
96,264,171411,6,0,B|44:276|8:244|8:244|48:256|96:240,1,159.375,4|0,0:0|0:0,0:0:0:0:
72,128,171722,6,0,P|36:112|76:152,1,159.375,4|0,0:0|0:0,0:0:0:0:
144,152,172033,38,0,P|148:132|128:80,1,53.125,4|0,0:0|0:0,0:0:0:0:
104,32,172188,5,8,0:0:0:0:
168,228,172343,1,0,3:0:0:0:
72,128,172499,5,8,0:0:0:0:
264,200,172654,1,0,3:0:0:0:
360,76,172810,6,0,B|380:52|380:52|332:36|272:56|268:120,1,170,4|8,3:2|0:0,0:0:0:0:
336,252,173276,1,0,0:0:0:0:
336,252,173354,1,0,0:0:0:0:
336,252,173431,2,0,P|352:204|340:156,1,85,0|0,3:0|3:0,0:0:0:0:
188,32,173742,1,8,0:0:0:0:
264,200,173898,38,0,P|323:195|340:92,1,170,0|0,3:0|0:0,0:0:0:0:
276,44,174364,1,8,0:0:0:0:
432,172,174520,1,0,0:0:0:0:
264,200,174675,2,0,P|208:200|160:136,1,127.5,4|0,3:2|0:0,0:0:0:0:
149,80,174986,2,0,B|180:60|180:60|162:149,1,127.5,8|0,0:0|0:0,0:0:0:0:
120,232,175297,6,0,L|36:252,1,85,4|0,3:2|0:0,0:0:0:0:
84,152,175608,1,8,0:0:0:0:
176,304,175763,1,0,0:0:0:0:
192,300,175841,1,0,0:0:0:0:
208,296,175919,1,0,3:0:0:0:
120,232,176074,1,0,3:0:0:0:
236,372,176229,1,8,0:0:0:0:
280,208,176385,6,0,B|284:148|284:148|264:112|264:112|268:36,1,170,0|0,3:0|0:0,0:0:0:0:
364,228,176851,1,8,0:0:0:0:
200,176,177007,1,0,0:0:0:0:
356,88,177162,2,0,P|416:88|464:164,1,127.5,4|0,3:2|0:0,0:0:0:0:
476,208,177473,1,8,0:0:0:0:
508,64,177628,1,0,0:0:0:0:
504,304,177784,5,4,3:2:0:0:
364,228,177939,2,0,P|322:222|283:238,1,85,0|8,0:0|0:0,0:0:0:0:
404,316,178250,1,0,0:0:0:0:
259,159,178406,2,0,P|203:219|263:315,1,170,0|8,3:0|0:0,0:0:0:0:
364,228,178872,38,0,L|372:144,1,85,0|0,0:0|3:0,0:0:0:0:
268,19,179183,1,0,0:0:0:0:
356,59,179338,2,0,L|371:142,1,85,8|0,0:0|0:0,0:0:0:0:
228,296,179649,2,0,B|200:256|200:256|224:168,1,127.5,0|0,3:0|0:0,0:0:0:0:
256,104,179960,2,0,L|164:116,1,85,8|0,0:0|0:0,0:0:0:0:
84,276,180271,5,4,3:2:0:0:
100,184,180426,1,0,0:0:0:0:
100,184,180504,1,0,0:0:0:0:
100,184,180582,1,8,0:0:0:0:
136,344,180737,1,0,0:0:0:0:
8,220,180893,2,0,B|-4:180|-4:180|8:128,1,85,0|0,3:0|3:0,0:0:0:0:
72,52,181203,1,8,0:0:0:0:
224,131,181359,6,0,P|179:198|100:184,1,170
176,52,181825,1,8,0:0:0:0:
296,188,181981,2,0,B|324:192|348:168|348:168|388:228|456:204,1,170,0|0,0:0|3:0,0:0:0:0:
408,44,182447,2,0,L|420:128,1,85,8|0,0:0|0:0,0:0:0:0:
360,288,182758,5,4,3:2:0:0:
296,188,182913,1,0,0:0:0:0:
480,304,183069,1,8,0:0:0:0:
276,352,183224,1,0,0:0:0:0:
384,120,183380,2,0,B|404:164|404:164|388:216,1,93.5000028533936,0|0,3:0|3:0,0:0:0:0:
276,352,183691,1,8,0:0:0:0:
115,198,183846,38,0,B|142:198|181:205|181:205|229:181|229:181|259:185|317:189,1,187.000005706787
136,280,184312,1,8,0:0:0:0:
152,28,184468,2,0,L|165:120,1,93.5000028533936,0|0,0:0|3:0,0:0:0:0:
136,280,184779,1,0,3:0:0:0:
64,128,184934,1,8,0:0:0:0:
241,272,185090,5,0,0:0:0:0:
241,272,185167,1,0,0:0:0:0:
241,272,185245,2,0,P|193:288|121:176,1,187.000005706787,4|8,3:2|0:0,0:0:0:0:
152,28,185711,1,0,0:0:0:0:
292,120,185867,2,0,B|248:136|248:136|180:124,1,93.5000028533936,0|0,3:0|3:0,0:0:0:0:
152,28,186178,1,8,0:0:0:0:
312,216,186333,6,0,B|368:196|368:196|392:236|444:256|496:232,1,187.000005706787,4|0,0:0|0:0,0:0:0:0:
432,59,186799,2,0,L|444:152,1,93.5000028533936,8|0,0:0|0:0,0:0:0:0:
301,308,187110,6,0,L|312:215,1,93.5000028533936,4|8,3:2|0:0,0:0:0:0:
288,192,187343,1,8,0:0:0:0:
256,180,187421,1,8,0:0:0:0:
224,184,187499,1,8,0:0:0:0:
196,200,187577,1,8,0:0:0:0:
176,228,187654,1,8,0:0:0:0:
172,260,187732,38,0,P|120:280|40:188,1,187.000005706787,4|0,0:0|3:0,0:0:0:0:
114,23,188198,2,0,B|148:96|148:96|120:200,1,187.000005706787,0|0,0:0|3:0,0:0:0:0:
249,360,188665,6,0,B|261:304|261:304|241:248|241:248|253:216|257:164,1,187.000005706787,0|0,0:0|3:0,0:0:0:0:
228,72,189131,1,0,0:0:0:0:
336,196,189286,2,0,P|381:203|424:186,1,93.5000028533936,0|0,0:0|3:0,0:0:0:0:
464,128,189520,1,0,0:0:0:0:
464,128,189597,21,4,0:0:0:0:
255,179,189753,1,0,0:0:0:0:
454,261,189908,1,4,0:2:0:0:
342,78,190063,1,0,0:0:0:0:
325,293,190219,38,0,B|252:264|252:264|200:320|132:288,1,187.000005706787,0|0,0:0|3:0,0:0:0:0:
160,115,190685,2,0,B|200:80|200:80|177:212,1,187.000005706787,0|0,0:0|3:0,0:0:0:0:
100,372,191152,6,0,B|80:332|48:300|48:300|72:264|88:196,1,187.000005706787,0|0,0:0|3:0,0:0:0:0:
48,48,191618,1,0,0:0:0:0:
0,124,191773,2,0,B|44:140|44:140|108:124,1,93.5000028533936,0|0,0:0|3:0,0:0:0:0:
200,4,192084,21,0,0:0:0:0:
224,176,192240,1,0,3:0:0:0:
234,185,192317,1,0,0:0:0:0:
244,194,192395,1,4,0:2:0:0:
285,174,192473,1,0,0:0:0:0:
331,182,192551,1,0,0:0:0:0:
364,214,192629,1,0,0:0:0:0:
373,259,192706,37,0,0:0:0:0:
256,76,192862,1,2,0:0:0:0:
137,260,193017,1,2,0:0:0:0:
392,112,193172,6,0,L|496:92,1,93.5000028533936,4|0,0:0|3:0,0:0:0:0:
280,240,193483,1,2,0:0:0:0:
120,172,193639,22,0,L|16:152,1,93.5000028533936,4|0,0:0|3:0,0:0:0:0:
232,300,193950,1,2,0:0:0:0:
388,232,194105,38,0,L|492:212,1,93.5000028533936,4|0,0:0|3:0,0:0:0:0:
276,360,194416,1,2,0:0:0:0:
204,208,194571,5,4,0:0:0:0:
202,195,194649,1,0,0:0:0:0:
200,182,194727,2,0,L|191:115,1,46.7500014266968,0|0,0:0|3:0,0:0:0:0:
328,36,194882,21,4,0:2:0:0:
326,49,194960,1,0,0:0:0:0:
324,62,195038,2,0,L|315:128,1,46.7500014266968,0|0,0:0|3:0,0:0:0:0:
296,272,195193,37,0,0:0:0:0:
140,88,195348,1,2,0:0:0:0:
352,192,195504,1,2,0:0:0:0:
104,328,195659,6,0,B|84:288|84:288|100:224,1,93.5000028533936,4|0,0:0|3:0,0:0:0:0:
140,88,195970,1,2,0:0:0:0:
408,328,196126,22,0,B|428:288|428:288|412:224,1,93.5000028533936,4|0,0:0|3:0,0:0:0:0:
372,88,196437,1,2,0:0:0:0:
132,168,196592,37,4,0:0:0:0:
256,336,196748,1,0,0:0:0:0:
380,168,196903,1,2,0:0:0:0:
172,280,197058,5,4,0:0:0:0:
246,137,197214,1,0,3:0:0:0:
256,136,197292,1,0,3:0:0:0:
266,137,197369,1,4,0:2:0:0:
340,280,197525,1,0,0:0:0:0:
256,220,197680,21,0,0:0:0:0:
380,168,197836,1,0,3:0:0:0:
328,292,197991,1,0,0:0:0:0:
232,208,198147,37,0,0:0:0:0:
416,236,198302,1,0,3:0:0:0:
256,348,198457,1,0,0:0:0:0:
206,197,198613,5,0,0:0:0:0:
412,308,198768,1,0,3:0:0:0:
176,312,198924,1,0,0:0:0:0:
180,186,199079,21,0,0:0:0:0:
356,372,199235,1,0,3:0:0:0:
96,336,199390,1,0,0:0:0:0:
296,112,199545,38,0,B|316:156|316:156|300:224,1,93.5000028533936,6|0,0:0|3:0,0:0:0:0:
284,268,199779,1,0,3:0:0:0:
284,268,199856,1,2,0:0:0:0:
4,216,200012,1,0,0:0:0:0:
176,312,200167,5,0,0:0:0:0:
80,184,200323,1,0,3:0:0:0:
96,336,200478,1,0,0:0:0:0:
156,104,200634,21,0,0:0:0:0:
252,232,200790,1,0,3:0:0:0:
236,80,200945,1,0,0:0:0:0:
52,268,201100,37,0,0:0:0:0:
208,164,201255,1,0,3:0:0:0:
12,132,201411,1,0,0:0:0:0:
252,232,201566,5,0,0:0:0:0:
96,336,201721,1,0,3:0:0:0:
292,368,201877,1,0,0:0:0:0:
112,108,202033,22,0,P|92:164|116:208,1,93.5000028533936,6|0,0:0|3:0,0:0:0:0:
159,244,202266,1,0,3:0:0:0:
159,244,202343,1,2,0:0:0:0:
336,68,202499,1,0,0:0:0:0:
144,24,202654,37,6,0:0:0:0:
252,232,202810,1,0,0:0:0:0:
276,228,202887,1,0,0:0:0:0:
300,224,202965,2,0,L|360:216,1,46.7500014266968,0|0,0:0|3:0,0:0:0:0:
112,108,203121,5,6,0:0:0:0:
220,316,203277,1,0,0:0:0:0:
244,312,203354,1,0,0:0:0:0:
268,308,203432,2,0,L|328:300,1,46.7500014266968,0|0,0:0|3:0,0:0:0:0:
448,136,203587,21,6,0:0:0:0:
276,12,203742,1,0,0:0:0:0:
272,32,203820,1,0,0:0:0:0:
268,52,203898,2,0,L|252:132,1,46.7500014266968,0|0,0:0|3:0,0:0:0:0:
346,217,204053,37,6,0:0:0:0:
174,93,204208,1,0,3:0:0:0:
170,113,204286,1,0,3:0:0:0:
166,133,204364,2,0,L|150:213,1,46.7500014266968,0|0,3:0|3:0,3:0:0:0:
432,316,204520,5,6,0:0:0:0:
276,172,204675,1,0,0:0:0:0:
276,172,204753,1,0,0:0:0:0:
276,172,204830,1,4,0:2:0:0:
208,360,204986,1,0,0:0:0:0:
382,170,205141,21,0,0:0:0:0:
174,93,205297,1,4,0:2:0:0:
165,83,205608,37,0,0:0:0:0:
206,324,205763,1,4,0:2:0:0:
202,336,206073,5,0,0:0:0:0:
408,166,206229,1,4,0:2:0:0:
408,166,207628,54,0,B|360:174|320:134|320:134|276:134|252:158|252:158|212:150|212:150|188:178|144:198|90:172|66:124|86:84,1,407.999987548829,4|0,0:0|0:0,0:0:0:0:
83,91,209338,1,0,0:0:0:0:
192,75,209494,2,0,P|207:40|203:3,2,76.4999976654053,2|2|2,0:0|0:0|0:0,0:0:0:0:
134,31,210115,22,0,B|168:32|202:23|202:23|258:55|258:55|288:44|334:43,2,203.999993774414,2|2|2,0:0|0:0|0:0,0:0:0:0:
80,232,211981,2,0,P|124:252|176:240,1,101.999996887207,2|0,0:0|0:0,0:0:0:0:
134,177,212447,1,0,3:0:0:0:
240,144,212602,54,0,B|253:142|274:133|274:133|304:147|304:147|333:95|414:77|461:130|471:201|471:201|436:168|393:171|372:188,1,407.999987548829,4|0,0:0|0:0,0:0:0:0:
411,353,214157,2,0,P|424:304|412:255,1,101.999996887207,2|2,0:0|0:0,0:0:0:0:
240,144,214779,2,0,L|232:200,1,50.9999984436036,2|0,0:0|3:0,0:0:0:0:
180,280,215090,22,0,B|132:236|132:236|156:84,1,203.999993774414,4|0,0:0|0:0,0:0:0:0:
153,98,216022,1,2,0:0:0:0:
240,144,216178,1,2,0:0:0:0:
304,68,216333,54,0,P|328:48|408:60,1,101.999996887207,4|8,0:0|0:0,0:0:0:0:
456,96,216799,1,8,0:0:0:0:
408,156,216955,1,8,0:0:0:0:
472,196,217110,1,8,0:0:0:0:
424,256,217266,1,0,3:0:0:0:
408,248,217421,1,0,3:0:0:0:
392,240,217577,22,0,L|272:224,1,118.999996368408,4|0,3:2|0:0,0:0:0:0:
148,168,218198,2,0,P|120:224|144:288,1,118.999996368408,0|0,3:0|0:0,0:0:0:0:
208,304,218665,1,0,3:0:0:0:
274,224,218820,54,0,L|268:156,1,59.4999981842042,0|0,3:0|3:0,0:0:0:0:
248,84,219131,2,0,L|242:143,1,59.4999981842042,2|0,0:0|0:0,0:0:0:0:
352,240,219442,2,0,P|384:224|448:232,2,89.2499972763062,2|2|0,3:2|0:0|0:0,0:0:0:0:
280,320,220064,22,0,P|244:340|164:288,1,118.999996368408,2|0,3:2|0:0,0:0:0:0:
128,220,220530,1,2,0:0:0:0:
128,220,220685,2,0,L|140:152,1,59.4999981842042,0|0,3:0|0:0,0:0:0:0:
56,120,220996,2,0,L|44:188,1,59.4999981842042,2|0,0:0|0:0,0:0:0:0:
128,60,221307,53,0,3:0:0:0:
196,248,221463,1,8,0:0:0:0:
196,248,221773,1,0,3:0:0:0:
212,96,221929,2,0,L|204:176,1,59.4999981842042,8|8,0:0|0:0,0:0:0:0:
283,289,222240,1,2,0:0:0:0:
300,132,222395,1,2,0:0:0:0:
384,264,222551,22,0,P|432:276|492:168,1,178.499994552612,4|0,3:2|0:0,0:0:0:0:
384,264,223172,2,0,P|372:308|412:376,1,118.999996368408,0|2,3:0|0:0,0:0:0:0:
424,200,223639,1,0,0:0:0:0:
389,134,223794,54,0,L|328:124,1,59.4999981842042,2|0,3:2|0:0,0:0:0:0:
232,104,224105,2,0,L|248:168,1,59.4999981842042,2|0,0:0|0:0,0:0:0:0:
225,284,224416,2,0,P|167:287|122:249,1,118.999996368408,2|2,3:2|0:0,0:0:0:0:
280,228,224882,1,0,0:0:0:0:
192,136,225038,21,4,3:2:0:0:
128,172,225193,2,0,B|60:172|84:212|13:212,1,118.999996368408
16,76,225659,2,0,L|22:136,1,59.4999981842042,0|0,3:0|0:0,0:0:0:0:
117,309,225970,2,0,L|122:249,1,59.4999981842042,2|2,0:0|0:0,0:0:0:0:
192,136,226281,53,0,3:0:0:0:
268,200,226437,1,0,0:0:0:0:
360,148,226592,2,0,P|400:140|464:144,1,89.2499972763062,2|0,0:0|0:0,0:0:0:0:
464,152,226903,2,0,P|472:192|464:224,1,59.4999981842042,0|8,3:0|0:0,0:0:0:0:
332,308,227214,2,0,P|324:268|332:236,1,59.4999981842042,0|0,3:0|3:0,0:0:0:0:
469,210,227525,22,0,B|360:228|400:156|288:176,1,178.499994552612,4|0,3:2|0:0,0:0:0:0:
318,355,228147,2,0,P|345:304|326:249,1,118.999996368408,2|0,3:2|0:0,0:0:0:0:
224,208,228613,1,2,0:0:0:0:
164,264,228768,54,0,L|80:272,1,59.4999981842042,2|0,3:2|0:0,0:0:0:0:
44,325,229079,1,0,0:0:0:0:
44,325,229390,2,0,B|64:280|64:280|44:188,1,118.999996368408,2|2,3:2|0:0,0:0:0:0:
4,108,229856,1,2,0:0:0:0:
72,140,230012,22,0,P|116:144|172:84,1,118.999996368408,2|0,3:2|0:0,0:0:0:0:
240,144,230478,1,0,0:0:0:0:
336,100,230634,2,0,P|292:96|236:156,1,118.999996368408,2|0,3:2|0:0,0:0:0:0:
240,260,231100,1,2,0:0:0:0:
324,280,231255,54,0,P|332:240|324:204,1,59.4999981842042,2|0,3:2|0:0,0:0:0:0:
160,304,231566,2,0,P|158:333|165:362,1,59.4999981842042
165,362,231799,1,0,0:0:0:0:
165,362,231877,1,8,0:0:0:0:
240,260,232033,1,8,0:0:0:0:
112,224,232188,2,0,L|100:156,1,59.4999981842042,0|0,3:0|0:0,0:0:0:0:
212,64,232499,22,0,P|264:56|296:200,1,237.999992736817,6|2,3:2|3:2,0:0:0:0:
144,276,233742,54,0,B|200:244|200:244|260:332|360:292,1,237.999992736817,2|2,3:2|3:2,0:0:0:0:
416,200,234520,2,0,L|408:120,1,59.4999981842042,8|0,0:0|0:0,0:0:0:0:
304,188,234830,1,8,0:0:0:0:
276,56,234986,21,2,3:2:0:0:
240,140,235141,1,0,0:0:0:0:
237,148,235219,1,0,0:0:0:0:
234,156,235297,1,8,0:0:0:0:
176,72,235452,1,0,3:0:0:0:
140,156,235608,53,10,0:0:0:0:
134,171,235763,1,8,0:0:0:0:
76,64,235919,21,0,3:0:0:0:
70,49,236074,1,0,3:0:0:0:
0,272,236229,54,0,B|40:280|76:224|76:224|104:256|148:248|148:248|136:296|152:352|216:356|240:353,1,337.875000515556,4|0,0:0|0:0,0:0:0:0:
234,353,237473,70,0,B|266:317|246:261|246:261|234:197|153:156|97:232|137:288|165:312|246:261|246:261|301:212|365:248,1,510,4|0,0:0|0:0,0:0:0:0:
359,245,239960,6,0,B|315:229|275:165|304:88|304:88|337:132|403:145|439:105|451:81|455:21|455:21|411:-3|383:13|371:49,1,510,2|0,0:0|0:0,0:0:0:0:
373,42,242447,70,0,B|336:49|298:18|298:18|268:36|256:66|256:66|190:36|99:30|27:109|50:212|162:220|184:153,1,510,2|0,0:0|0:0,0:0:0:0:
156,54,244934,6,0,B|108:38|68:46|40:98|40:98|56:134|48:174|48:174|60:210|60:210|44:242|60:294,1,340,2|0,0:0|0:0,0:0:0:0:
145,349,246333,2,0,L|188:347,1,42.5
296,332,246644,21,8,0:0:0:0:
304,336,246722,1,8,0:0:0:0:
312,340,246799,1,8,0:0:0:0:
368,236,246955,1,8,0:0:0:0:
452,324,247110,1,8,0:0:0:0:
360,160,247266,1,8,0:0:0:0:
312,340,247421,6,0,B|268:348|240:336|240:336|204:360|172:340,1,127.500004863739,4|0,3:2|3:0,0:0:0:0:
96,272,247887,1,0,0:0:0:0:
207,212,248043,2,0,L|200:276,1,63.7500024318696,8|0,0:0|0:0,0:0:0:0:
80,176,248354,1,0,3:0:0:0:
168,128,248509,1,0,0:0:0:0:
72,96,248665,70,0,L|64:32,1,63.7500024318696,0|0,3:0|0:0,0:0:0:0:
267,83,248976,2,0,P|229:131|168:128,1,127.500004863739,0|8,3:0|0:0,0:0:0:0:
164,40,249442,1,8,0:0:0:0:
267,167,249597,2,0,L|343:179,1,63.7500024318696,0|0,3:0|0:0,0:0:0:0:
467,156,249908,6,0,B|403:172|403:172|403:216|367:236,1,127.500004863739,4|0,3:2|3:0,0:0:0:0:
280,332,250374,1,0,0:0:0:0:
272,256,250530,2,0,B|348:260|316:296|400:300,1,127.500004863739,8|0,0:0|3:0,0:0:0:0:
480,232,250996,1,0,0:0:0:0:
467,156,251152,70,0,L|475:72,1,63.7500024318696,0|0,3:0|0:0,0:0:0:0:
389,299,251463,2,0,L|397:383,1,63.7500024318696,0|0,3:0|0:0,0:0:0:0:
395,362,251696,1,0,0:0:0:0:
395,362,251773,1,8,0:0:0:0:
232,236,251929,1,8,0:0:0:0:
372,184,252084,1,0,3:0:0:0:
280,332,252240,1,0,3:0:0:0:
132,220,252395,6,0,P|124:180|136:140,1,63.7500024318696,4|0,3:2|0:0,0:0:0:0:
232,236,252706,2,0,P|240:276|228:316,1,63.7500024318696,0|0,3:0|0:0,0:0:0:0:
196,120,253017,2,0,L|280:132,1,63.7500024318696,8|0,0:0|0:0,0:0:0:0:
332,140,253250,1,0,0:0:0:0:
332,140,253328,1,0,3:0:0:0:
460,268,253483,70,0,B|412:272|412:272|374:259|374:259|324:264,1,136,4|0,0:0|0:0,0:0:0:0:
235,364,253950,2,0,P|228:331|234:297,1,68,0|0,3:0|0:0,0:0:0:0:
280,188,254260,1,8,0:0:0:0:
140,260,254416,1,8,0:0:0:0:
235,364,254571,2,0,L|315:360,1,68,0|0,3:0|3:0,0:0:0:0:
32,248,254882,5,8,0:0:0:0:
200,180,255038,1,4,1:0:0:0:
36,112,255193,1,0,3:0:0:0:
328,48,255349,69,8,0:0:0:0:
129,128,255505,1,4,1:0:0:0:
324,204,255659,1,0,3:0:0:0:
160,40,255815,5,8,0:0:0:0:
304,308,255970,1,4,1:0:0:0:
393,215,256437,70,0,P|365:187|321:207,1,89.2499972763062
313,199,256748,6,0,P|358:177|406:218,1,114.749996498108,2|0,0:0|0:0,0:0:0:0:
415,212,257058,54,0,P|367:169|300:199,1,140.25000428009,2|0,0:0|0:0,0:0:0:0:
224,248,257369,6,0,B|192:228|160:240|160:240|124:232|92:248|92:248|48:256|48:256|20:240|0:184|48:152|72:148|72:148|120:168|124:208|120:224,1,408,4|2,1:0|0:0,0:0:0:0:
136,316,258613,5,2,0:0:0:0:
224,248,258924,53,2,0:0:0:0:
121,211,259235,6,0,L|109:127,1,68,2|8,0:0|0:0,0:0:0:0:
124,116,259468,1,8,0:0:0:0:
149,98,259545,1,8,0:0:0:0:
178,91,259623,1,8,0:0:0:0:
208,94,259701,1,8,0:0:0:0:
235,108,259778,1,8,0:0:0:0:
256,131,259856,22,0,P|304:172|388:96,1,187.000005706787,4|8,3:2|0:0,0:0:0:0:
284,16,260323,1,0,0:0:0:0:
284,16,260400,1,0,0:0:0:0:
284,16,260478,1,0,3:0:0:0:
328,208,260634,1,0,3:0:0:0:
488,140,260789,1,8,0:0:0:0:
372,15,260944,38,0,L|388:107,1,93.5000028533936,0|0,0:0|3:0,0:0:0:0:
488,216,261255,1,0,0:0:0:0:
272,168,261411,1,8,0:0:0:0:
464,68,261566,1,0,0:0:0:0:
356,288,261722,2,0,B|304:280|304:280|272:332|204:312,1,140.25000428009,0|0,3:0|0:0,0:0:0:0:
155,228,262033,2,0,P|200:220|239:243,1,93.5000028533936,8|0,0:0|0:0,0:0:0:0:
336,364,262343,5,4,3:2:0:0:
408,216,262499,1,0,0:0:0:0:
239,243,262654,1,8,0:0:0:0:
356,288,262810,1,0,0:0:0:0:
212,84,262965,2,0,B|198:128|198:128|214:172,1,93.5000028533936,0|0,3:0|3:0,0:0:0:0:
239,243,263198,1,0,0:0:0:0:
239,243,263276,1,8,0:0:0:0:
464,124,263431,6,0,B|396:132|396:132|348:116|348:116|276:124,1,187.000005706787,4|0,0:0|0:0,0:0:0:0:
388,12,263898,1,8,0:0:0:0:
344,208,264053,2,0,L|340:304,1,93.5000028533936,0|0,0:0|3:0,0:0:0:0:
180,48,264364,1,0,3:0:0:0:
280,123,264520,1,8,0:0:0:0:
88,84,264675,1,0,0:0:0:0:
264,8,264830,5,4,3:2:0:0:
204,232,264986,1,0,0:0:0:0:
204,232,265064,1,0,0:0:0:0:
204,232,265141,1,8,0:0:0:0:
167,7,265297,1,0,0:0:0:0:
384,184,265452,1,0,3:0:0:0:
172,136,265608,1,0,3:0:0:0:
372,36,265763,1,8,0:0:0:0:
343,251,265919,38,0,B|319:267|279:251|279:251|259:319|183:311,1,165.749992412568,4|0,0:0|0:0,0:0:0:0:
43,214,266229,6,0,B|80:220|80:220|104:232|104:232|128:224|128:224|204:232,1,165.749992412568,4|0,0:0|0:0,0:0:0:0:
372,172,266540,6,0,L|308:184,1,55.2499974708558,4|0,0:0|0:0,0:0:0:0:
136,304,266696,5,8,0:0:0:0:
184,136,266851,1,8,0:0:0:0:
224,352,267007,37,0,3:0:0:0:
43,214,267162,1,0,3:0:0:0:
264,128,267317,6,0,B|344:116|316:168|408:156,1,140.25000428009,4|0,3:2|0:0,0:0:0:0:
460,120,267628,2,0,P|472:72|452:28,1,93.5000028533936,8|0,0:0|0:0,0:0:0:0:
284,204,267939,1,0,3:0:0:0:
460,240,268095,1,0,3:0:0:0:
388,80,268250,1,8,0:0:0:0:
305,306,268406,6,0,B|241:318|201:266|201:266|129:298,1,187.000005706787,0|0,3:0|0:0,0:0:0:0:
184,376,268872,1,8,0:0:0:0:
284,204,269027,1,0,0:0:0:0:
108,108,269183,2,0,B|72:88|72:88|100:192,1,140.25000428009,4|0,3:2|0:0,0:0:0:0:
273,279,269494,2,0,B|309:299|309:299|281:195,1,140.25000428009,8|0,0:0|0:0,0:0:0:0:
204,160,269805,6,0,B|144:172|144:172|100:220|100:220|24:236,1,187.000005706787,4|8,3:2|0:0,0:0:0:0:
192,248,270271,1,0,0:0:0:0:
192,248,270349,1,0,0:0:0:0:
192,248,270426,1,0,3:0:0:0:
52,144,270582,1,0,3:0:0:0:
208,68,270737,1,8,0:0:0:0:
56,324,270893,38,0,L|40:232,1,93.5000028533936,0|0,0:0|3:0,0:0:0:0:
132,88,271204,1,0,0:0:0:0:
109,211,271359,1,8,0:0:0:0:
32,48,271514,1,0,0:0:0:0:
188,152,271670,2,0,B|232:160|260:136|260:136|304:136|340:164,1,140.25000428009,4|0,3:2|0:0,0:0:0:0:
304,292,271981,2,0,P|292:248|364:272,1,140.25000428009,8|0,0:0|0:0,0:0:0:0:
440,276,272292,5,4,3:2:0:0:
408,80,272447,2,0,B|392:128|392:128|408:184,1,93.5000028533936,0|8,0:0|0:0,0:0:0:0:
508,216,272758,1,0,0:0:0:0:
500,70,272913,2,0,L|388:82,1,93.5000028533936,0|0,3:0|3:0,0:0:0:0:
332,88,273147,1,0,0:0:0:0:
332,88,273224,1,8,0:0:0:0:
130,246,273380,6,0,B|233:230|193:306|309:290,1,187.000005706787,4|0,0:0|0:0,0:0:0:0:
152,328,273846,1,8,0:0:0:0:
281,209,274001,1,0,0:0:0:0:
108,164,274157,1,0,3:0:0:0:
244,352,274312,1,0,3:0:0:0:
244,352,274390,1,0,0:0:0:0:
244,352,274468,1,8,0:0:0:0:
260,132,274623,1,0,0:0:0:0:
130,246,274779,5,4,3:2:0:0:
348,288,274934,1,0,0:0:0:0:
116,252,275090,1,8,0:0:0:0:
380,188,275245,1,0,0:0:0:0:
262,42,275400,2,0,B|248:88|248:88|260:132,1,93.5000028533936,0|0,3:0|3:0,0:0:0:0:
348,288,275711,1,8,0:0:0:0:
476,194,275867,38,0,B|412:186|412:186|364:212|364:212|288:204,1,178.499994552612,4|0,0:0|0:0,0:0:0:0:
168,112,276178,6,0,B|232:104|232:104|280:130|280:130|356:122,1,178.499994552612,4|0,0:0|0:0,0:0:0:0:
424,80,276488,5,12,0:0:0:0:
427,58,276566,1,8,0:0:0:0:
431,36,276644,1,8,0:0:0:0:
476,194,276799,1,0,3:0:0:0:
339,123,276955,2,0,B|255:113|295:163|195:147,1,127.5,8|0,0:0|0:0,0:0:0:0:
172,216,277266,6,0,P|140:164|160:92,2,136,4|0|10,0:0|3:0|0:0,0:0:0:0:
252,236,278043,1,0,0:0:0:0:
252,236,278198,2,0,P|257:270|255:304,1,68,0|8,0:0|0:0,0:0:0:0:
184,344,278509,37,0,0:0:0:0:
336,268,278665,1,8,0:0:0:0:
172,216,278820,2,0,P|160:168|180:60,1,136,0|8,3:0|0:0,0:0:0:0:
169,82,279442,1,0,0:0:0:0:
260,124,279597,1,2,0:0:0:0:
340,60,279753,6,0,L|416:48,1,68,0|8,3:0|0:0,0:0:0:0:
508,172,280064,2,0,P|456:184|392:128,1,136,0|8,0:0|0:0,0:0:0:0:
340,60,280530,1,0,0:0:0:0:
465,107,280685,1,0,3:0:0:0:
280,200,280841,6,0,B|241:211|208:184|208:184|176:236|136:232|116:228,1,170,4|0,0:0|0:0,0:0:0:0:
24,128,281307,1,8,0:0:0:0:
112,56,281463,1,0,0:0:0:0:
120,64,281540,1,0,0:0:0:0:
128,72,281618,6,0,P|141:112|136:154,1,85,4|0,3:2|3:0,0:0:0:0:
55,259,281929,2,0,P|90:235|132:229,1,85,8|0,3:2|3:0,0:0:0:0:
212,272,282162,1,0,0:0:0:0:
212,272,282240,38,0,L|204:368,1,93.5000028533936,4|0,3:2|0:0,0:0:0:0:
376,220,282551,2,0,L|364:120,1,93.5000028533936,8|0,0:0|0:0,0:0:0:0:
272,176,282862,1,0,3:0:0:0:
408,312,283017,1,0,3:0:0:0:
408,312,283095,1,0,0:0:0:0:
408,312,283172,1,8,0:0:0:0:
497,71,283328,6,0,B|467:88|424:76|424:76|378:31|315:62,1,187.000005706787,4|0,0:0|0:0,0:0:0:0:
212,272,283794,1,8,0:0:0:0:
376,220,283950,1,0,0:0:0:0:
248,12,284105,1,0,3:0:0:0:
272,176,284260,1,0,3:0:0:0:
272,176,284338,1,0,0:0:0:0:
272,176,284416,1,8,0:0:0:0:
376,48,284571,1,0,0:0:0:0:
164,124,284727,6,0,L|68:108,1,93.5000028533936,4|0,3:2|0:0,0:0:0:0:
212,272,285038,1,8,0:0:0:0:
0,264,285193,2,0,B|63:254|63:254|104:214|104:214|171:204,1,187.000005706787,4|0,0:0|3:0,0:0:0:0:
80,356,285659,1,8,0:0:0:0:
292,300,285815,6,0,B|308:264|308:264|292:192,1,85,4|0,0:0|0:0,0:0:0:0:
264,100,286126,1,0,3:0:0:0:
212,272,286281,1,8,0:0:0:0:
364,156,286437,38,0,P|416:148|480:256,1,170,4|0,0:0|3:0,0:0:0:0:
298,219,286903,1,8,0:0:0:0:
180,68,287058,6,0,P|128:60|64:168,1,170,4|0,0:0|3:0,0:0:0:0:
212,272,287525,1,8,0:0:0:0:
140,140,287680,6,0,L|132:224,1,85,4|0,0:0|0:0,0:0:0:0:
328,292,287991,2,8,L|320:236,1,42.5
216,180,288147,2,8,L|224:124,1,42.5
368,48,288302,6,0,B|384:92|384:92|368:152,1,85,6|0,1:0|0:0,0:0:0:0:
212,272,288613,1,0,3:0:0:0:
292,96,288768,1,8,0:0:0:0:
410,255,288924,38,0,L|321:249,1,89.2499972763062,6|0,1:0|0:0,0:0:0:0:
132,124,289235,1,0,3:0:0:0:
264,336,289390,1,8,0:0:0:0:
44,256,289545,6,0,B|31:210|31:210|47:166,1,93.5000028533936,6|0,1:0|0:0,0:0:0:0:
236,100,289856,1,0,3:0:0:0:
120,324,290012,1,8,0:0:0:0:
4,80,290167,6,0,L|124:92,1,97.7500018644333,6|0,1:0|0:0,0:0:0:0:
312,200,290478,1,8,0:0:0:0:
280,182,290555,1,8,0:0:0:0:
244,182,290633,1,8,0:0:0:0:
213,201,290711,1,8,0:0:0:0:
196,232,290789,6,0,L|188:344,1,101.999996887207,6|0,1:0|3:0,0:0:0:0:
424,300,291100,1,0,0:0:0:0:
327,280,291255,2,0,P|325:331|351:373,1,101.999996887207,8|0,0:0|0:0,0:0:0:0:
489,226,291566,2,0,P|446:200|396:202,1,101.999996887207,2|0,3:2|3:0,0:0:0:0:
188,333,291877,37,8,0:0:0:0:
312,184,292033,1,0,0:0:0:0:
116,202,292188,1,2,3:2:0:0:
240,236,292343,1,0,0:0:0:0:
240,236,292421,1,0,0:0:0:0:
240,236,292499,1,8,0:0:0:0:
176,64,292654,2,0,B|156:200|156:200|176:152|236:152,1,203.999993774414,4|2,1:2|3:2,0:0:0:0:
360,112,293121,1,8,0:0:0:0:
376,276,293276,6,0,L|274:283,1,101.999996887207,6|0,1:0|0:0,0:0:0:0:
88,300,293587,1,0,0:0:0:0:
184,280,293742,2,0,P|186:331|160:373,1,101.999996887207,10|0,0:0|0:0,0:0:0:0:
23,226,294053,2,0,P|65:200|115:202,1,101.999996887207,2|0,3:2|3:0,0:0:0:0:
308,336,294364,5,8,0:0:0:0:
88,300,294520,1,0,0:0:0:0:
200,112,294675,2,0,B|215:155|215:155|204:211,1,101.999996887207,2|0,3:2|0:0,0:0:0:0:
184,280,294908,1,0,0:0:0:0:
184,280,294986,1,8,0:0:0:0:
96,108,295141,1,4,1:2:0:0:
88,300,295297,1,0,3:0:0:0:
272,146,295452,5,8,0:0:0:0:
306,130,295529,1,8,0:0:0:0:
343,132,295607,1,8,0:0:0:0:
376,151,295685,1,8,0:0:0:0:
396,183,295763,38,0,L|372:288,1,101.999996887207,6|0,1:0|3:0,0:0:0:0:
424,84,296074,1,0,0:0:0:0:
327,104,296229,2,0,P|325:54|351:12,1,101.999996887207,10|0,0:0|0:0,0:0:0:0:
489,158,296540,2,0,P|446:185|396:183,1,101.999996887207,2|0,3:2|3:0,0:0:0:0:
204,48,296851,5,8,0:0:0:0:
320,204,297007,1,0,0:0:0:0:
96,220,297162,1,2,3:2:0:0:
248,132,297317,1,0,0:0:0:0:
248,132,297395,1,0,0:0:0:0:
248,132,297473,1,8,0:0:0:0:
200,324,297628,2,0,B|184:272|184:272|204:220,1,101.999996887207,4|0,1:2|3:0,0:0:0:0:
332,80,297939,2,0,B|348:132|348:132|328:184,1,101.999996887207,2|8,3:2|0:0,0:0:0:0:
84,281,298250,6,0,B|92:236|100:205|100:205|76:157|76:157|82:125|88:85,1,203.999993774414,6|0,1:0|0:0,0:0:0:0:
160,12,298716,2,0,P|186:54|185:104,1,101.999996887207,10|0,0:0|0:0,0:0:0:0:
16,216,299027,1,10,3:2:0:0:
87,86,299183,1,0,3:0:0:0:
180,204,299338,2,0,L|292:220,1,101.999996887207,8|0,0:0|0:0,0:0:0:0:
228,84,299649,5,12,3:2:0:0:
236,312,299805,1,0,0:0:0:0:
236,312,299882,1,0,0:0:0:0:
236,312,299960,1,10,0:0:0:0:
444,176,300115,38,0,P|397:120|326:137,1,152.999995330811,4|0,3:2|0:0,0:0:0:0:
280,219,300426,6,0,P|233:276|162:259,1,152.999995330811,4|0,3:2|0:0,0:0:0:0:
88,176,300737,5,4,3:2:0:0:
444,176,302136,22,0,L|459:176,2,15.9375006079674,0|0|4,0:0|0:0|0:0,0:0:0:0:
