osu file format v14

[General]
AudioFilename: ffffffhhhhaaaannnaaaaa.mp3
AudioLeadIn: 1418
PreviewTime: 256670
Countdown: 0
SampleSet: Normal
StackLeniency: 0.7
Mode: 0
LetterboxInBreaks: 0
WidescreenStoryboard: 0

[Editor]
DistanceSpacing: 0.5
BeatDivisor: 4
GridSize: 4
TimelineZoom: 3.599998

[Metadata]
Title:Wonder Stella
TitleUnicode:ワンダーステラ
Artist:fhana
ArtistUnicode:fhána
Creator:sukiNathan
Version:Marvel
Source:Fate/kaleid liner プリズマイリヤ ツヴァイ ヘルツ!
Tags:Prisma☆Illya 2wei Herz! Illya Prisma Herz towana yuxugi waga kevin mitsunaga junichi sato
BeatmapID:794750
BeatmapSetID:361790

[Difficulty]
HPDrainRate:6
CircleSize:4.2
OverallDifficulty:8.4
ApproachRate:9.3
SliderMultiplier:1.8
SliderTickRate:1

[Events]
//Background and Video events
0,0,"onee-chan.jpg",0,0
//Break Periods
//Storyboard Layer 0 (Background)
//Storyboard Layer 1 (Fail)
//Storyboard Layer 2 (Pass)
//Storyboard Layer 3 (Foreground)
//Storyboard Sound Samples

[TimingPoints]
1204,310.880829015544,4,2,0,50,1,0
1204,-133.333333333333,4,2,0,50,0,0
10374,-100,4,2,1,60,0,0
20944,-111.111111111111,4,2,1,50,0,0
35867,-100,4,2,1,55,0,0
38354,-100,4,1,1,60,0,0
48457,-133.333333333333,4,2,1,55,0,0
53431,-100,4,2,1,60,0,0
57473,-166.666666666667,4,2,0,20,0,0
57784,-125,4,2,0,30,0,0
58095,-100,4,2,0,40,0,0
58406,-90.9090909090909,4,1,1,60,0,1
66955,-76.9230769230769,4,1,1,60,0,0
67732,-76.9230769230769,4,1,1,60,0,0
68354,-90.9090909090909,4,1,1,60,0,1
76903,-76.9230769230769,4,1,1,60,0,0
78302,-117.647058823529,4,2,1,60,0,0
81877,-90.9090909090909,4,1,1,60,0,1
87939,-133.333333333333,4,2,0,50,0,0
119805,-133.333333333333,4,2,1,50,0,0
120426,-100,4,2,1,55,0,0
130530,-133.333333333333,4,2,1,55,0,0
132395,-100,4,2,1,70,0,0
132862,-90.9090909090909,4,1,1,60,0,1
140323,-100,4,2,1,60,0,0
142810,-100,4,1,1,60,0,0
152913,-133.333333333333,4,2,1,55,0,0
157887,-100,4,1,1,60,0,0
161929,-166.666666666667,4,2,0,20,0,0
162240,-125,4,2,0,30,0,0
162551,-100,4,2,0,40,0,0
162862,-90.9090909090909,4,1,1,60,0,1
171411,-76.9230769230769,4,1,1,60,0,0
172810,-90.9090909090909,4,1,1,60,0,1
187732,-90.9090909090909,4,1,1,60,0,0
192706,-90.9090909090909,4,1,1,60,0,1
197680,-90.9090909090909,4,2,1,60,0,0
202654,-90.9090909090909,4,1,1,60,0,1
202810,-90.9090909090909,4,1,1,50,0,1
203121,-90.9090909090909,4,1,1,60,0,1
203276,-90.9090909090909,4,1,1,50,0,1
203587,-90.9090909090909,4,1,1,60,0,1
203742,-90.9090909090909,4,1,1,50,0,1
204053,-90.9090909090909,4,1,1,60,0,1
204209,-90.9090909090909,4,1,1,50,0,1
204520,-90.9090909090909,4,1,1,60,0,1
204675,-90.9090909090909,4,1,1,50,0,1
204986,-90.9090909090909,4,1,1,60,0,1
205141,-90.9090909090909,4,2,1,60,0,1
206229,-90.9090909090909,4,2,1,60,0,0
207628,-200,4,2,0,50,0,1
207706,-200,4,2,0,50,0,0
216644,-166.666666666667,4,2,1,50,0,0
216955,-153.846153846154,4,2,1,50,0,0
217266,-142.857142857143,4,2,1,50,0,0
217577,-133.333333333333,4,2,1,50,0,0
237162,-133.333333333333,4,2,0,30,0,0
237473,-285.714285714286,4,2,0,50,0,0
246178,-133.333333333333,4,2,1,50,0,0
254882,-100,4,2,1,50,0,0
256437,-166.666666666667,4,2,0,20,0,0
256748,-125,4,2,0,30,0,0
257058,-100,4,2,0,40,0,0
257369,-133.333333333333,4,2,1,50,0,1
257447,-133.333333333333,4,2,0,50,0,0
259235,-90.9090909090909,4,2,1,50,0,0
259701,-90.9090909090909,4,2,1,50,0,0
259856,-90.9090909090909,4,1,1,60,0,1
265919,-76.9230769230769,4,1,1,60,0,0
267317,-90.9090909090909,4,1,1,60,0,1
275867,-76.9230769230769,4,1,1,60,0,0
277266,-117.647058823529,4,2,1,60,0,0
280841,-100,4,1,1,60,0,0
282240,-90.9090909090909,4,1,1,60,0,1
290789,-100,4,1,1,60,0,0
302136,-100,4,2,0,50,0,0

[Colours]
Combo1 : 153,6,189
Combo2 : 37,245,235
Combo3 : 231,41,14
Combo4 : 100,88,250

[HitObjects]
312,370,582,5,0,0:0:0:0:
312,370,893,1,0,0:0:0:0:
312,370,1204,6,0,P|347:333|334:239,1,135.000005149842,2|0,0:0|0:0,0:0:0:0:
210,276,1670,2,0,P|256:295|289:292,1,67.5000025749208,0|0,0:0|0:0,0:0:0:0:
398,198,1981,2,0,P|351:178|318:181,1,67.5000025749208,0|0,0:0|0:0,0:0:0:0:
212,249,2292,6,0,P|263:241|369:264,1,135.000005149842,2|0,0:0|0:0,0:0:0:0:
153,343,2758,1,0,0:0:0:0:
153,343,3069,2,0,P|96:345|56:358,1,67.5000025749208,2|0,0:0|0:0,0:0:0:0:
0,250,3380,2,0,P|57:248|97:235,1,67.5000025749208
225,135,3691,6,0,P|136:156|69:143,1,135.000005149842,2|0,0:0|0:0,0:0:0:0:
244,67,4157,2,0,L|249:224,1,135.000005149842,2|0,0:0|0:0,0:0:0:0:
230,371,4623,1,2,0:0:0:0:
281,295,4779,6,0,P|370:274|437:287,1,135.000005149842,2|0,0:0|0:0,0:0:0:0:
204,229,5245,1,0,0:0:0:0:
204,229,5556,2,0,P|165:226|115:233,1,67.5000025749208,2|0,0:0|0:0,0:0:0:0:
289,378,5867,2,0,P|328:381|378:374,1,67.5000025749208
319,237,6178,6,0,P|323:170|307:73,1,135.000005149842,2|0,0:0|0:0,0:0:0:0:
204,229,6644,1,0,0:0:0:0:
212,52,6799,2,0,P|208:89|212:129,1,67.5000025749208,2|0,0:0|0:0,0:0:0:0:
106,163,7110,1,2,0:0:0:0:
214,253,7266,6,0,P|251:257|291:253,1,67.5000025749208,2|0,0:0|0:0,0:0:0:0:
76,177,7577,2,0,P|39:173|-1:177,1,67.5000025749208
194,78,7887,2,0,P|255:103|339:100,1,135.000005149842,2|0,0:0|0:0,0:0:0:0:
468,91,8354,1,2,0:0:0:0:
393,25,8509,1,2,0:0:0:0:
406,166,8665,6,0,L|416:322,1,135.000005149842,2|0,0:0|0:0,0:0:0:0:
316,351,9131,1,0,0:0:0:0:
316,351,9286,2,0,P|257:310|192:340,1,135.000005149842,2|0,0:0|0:0,0:0:0:0:
56,348,9753,2,0,P|79:355|124:353,1,67.5000025749208,2|0,0:0|0:0,0:0:0:0:
297,242,10064,2,0,P|274:235|229:237,1,67.5000025749208,2|0,0:0|0:0,0:0:0:0:
118,190,10374,5,8,0:0:0:0:
118,166,10452,1,8,0:0:0:0:
117,141,10530,1,8,0:0:0:0:
230,236,10685,1,8,0:0:0:0:
0,241,10841,1,8,0:0:0:0:
116,44,10996,1,8,0:0:0:0:
119,271,11152,6,0,L|121:376,1,90,6|0,0:0|0:0,0:0:0:0:
236,125,11463,2,0,L|237:35,1,90,2|0,0:0|0:0,0:0:0:0:
309,294,11773,1,8,0:0:0:0:
412,160,11929,1,2,0:0:0:0:
412,160,12007,1,0,1:0:0:0:
412,160,12084,1,2,0:0:0:0:
230,236,12240,1,2,0:0:0:0:
330,104,12395,5,2,0:0:0:0:
401,255,12551,1,2,0:0:0:0:
391,35,12706,1,2,0:0:0:0:
396,20,13017,5,8,0:0:0:0:
202,143,13172,1,8,0:0:0:0:
369,200,13328,5,2,0:0:0:0:
251,6,13483,1,2,0:0:0:0:
121,193,13639,6,0,L|0:184,1,90,6|0,0:0|0:0,0:0:0:0:
297,306,13950,2,0,L|418:315,1,90,2|0,0:0|0:0,0:0:0:0:
227,158,14260,2,0,L|219:258,1,90,8|2,0:0|0:0,0:0:0:0:
314,91,14571,5,2,0:0:0:0:
121,193,14727,1,8,0:0:0:0:
321,211,14882,1,2,0:0:0:0:
152,77,15038,1,8,0:0:0:0:
220,248,15193,1,2,0:0:0:0:
240,32,15349,1,2,0:0:0:0:
240,32,15426,1,2,0:0:0:0:
240,32,15504,5,8,0:0:0:0:
121,193,15659,1,8,0:0:0:0:
321,211,15815,1,2,0:0:0:0:
112,80,15970,1,8,0:0:0:0:
353,107,16126,6,0,L|445:116,1,90,6|0,0:0|0:0,0:0:0:0:
220,248,16437,2,0,L|128:239,1,90,2|0,0:0|0:0,0:0:0:0:
333,381,16748,1,8,0:0:0:0:
451,273,16903,1,2,0:0:0:0:
451,273,16981,1,0,1:0:0:0:
451,273,17058,1,2,0:0:0:0:
351,149,17214,1,10,0:0:0:0:
247,335,17369,5,2,0:0:0:0:
445,174,17525,1,8,0:0:0:0:
255,157,17680,1,2,0:0:0:0:
242,147,17991,5,8,0:0:0:0:
421,15,18147,1,8,0:0:0:0:
210,22,18302,5,2,0:0:0:0:
396,139,18457,1,2,0:0:0:0:
87,191,18613,5,12,0:0:0:0:
314,77,18768,1,2,0:0:0:0:
314,77,18924,1,2,0:0:0:0:
274,267,19079,5,12,0:0:0:0:
150,22,19235,1,2,0:0:0:0:
150,22,19390,1,2,0:0:0:0:
321,178,19545,5,8,0:0:0:0:
87,191,19701,2,0,L|-4:195,1,90,6|2,0:0|0:0,0:0:0:0:
201,86,20012,5,8,0:0:0:0:
215,289,20167,1,2,0:0:0:0:
321,178,20323,1,0,0:0:0:0:
321,178,20400,1,0,1:0:0:0:
321,178,20478,1,8,0:0:0:0:
103,90,20634,1,8,0:0:0:0:
297,73,20789,1,8,0:0:0:0:
117,294,20944,1,6,0:0:0:0:
106,308,21255,5,2,0:0:0:0:
341,282,21411,1,2,0:0:0:0:
352,270,21722,2,0,P|414:272|445:289,1,80.9999975280763,8|0,0:0|0:0,0:0:0:0:
260,369,22033,2,0,P|198:367|167:350,1,80.9999975280763,0|2,0:0|0:0,0:0:0:0:
17,220,22343,6,0,P|79:213|178:242,1,161.999995056153,2|2,0:0|0:0,0:0:0:0:
127,117,22810,2,0,P|129:55|146:24,1,80.9999975280763,0|8,0:0|0:0,0:0:0:0:
270,214,23121,2,0,P|268:276|251:307,1,80.9999975280763
245,94,23431,1,2,0:0:0:0:
228,93,23742,5,8,0:0:0:0:
466,104,23898,1,2,0:0:0:0:
478,113,24209,2,0,L|476:217,1,80.9999975280763,8|0,0:0|0:0,0:0:0:0:
339,340,24520,2,0,L|340:259,1,80.9999975280763,0|2,0:0|0:0,0:0:0:0:
228,93,24830,6,0,P|179:170|222:257,1,161.999995056153,2|2,0:0|0:0,0:0:0:0:
275,178,25297,1,2,0:0:0:0:
153,8,25452,1,8,0:0:0:0:
297,44,25608,1,8,0:0:0:0:
101,134,25763,1,2,0:0:0:0:
289,183,25919,6,0,P|361:162|416:81,1,161.999995056153,6|0,0:0|0:0,0:0:0:0:
178,216,26385,2,0,P|165:263|172:303,1,80.9999975280763,2|0,0:0|0:0,0:0:0:0:
204,103,26696,2,0,L|20:144,1,161.999995056153,8|0,0:0|0:0,0:0:0:0:
120,31,27162,1,0,0:0:0:0:
280,89,27317,5,2,0:0:0:0:
165,214,27473,1,8,0:0:0:0:
315,99,27628,2,0,L|402:128,1,80.9999975280763
186,240,27939,2,0,L|99:269,1,80.9999975280763,8|2,0:0|0:0,0:0:0:0:
30,176,28250,1,8,0:0:0:0:
228,154,28406,6,0,P|273:199|251:308,1,161.999995056153,6|2,0:0|0:0,0:0:0:0:
371,222,28872,2,0,L|458:251,1,80.9999975280763,2|2,0:0|0:0,0:0:0:0:
337,62,29183,1,8,0:0:0:0:
439,40,29338,1,8,0:0:0:0:
317,153,29494,1,2,0:0:0:0:
250,6,29649,6,0,P|194:31|169:130,1,161.999995056153,6|8,0:0|0:0,0:0:0:0:
259,101,30115,1,2,0:0:0:0:
65,171,30271,1,0,0:0:0:0:
65,171,30349,1,0,1:0:0:0:
65,171,30426,1,8,0:0:0:0:
224,193,30582,1,8,0:0:0:0:
61,74,30737,1,8,0:0:0:0:
133,279,30893,1,8,0:0:0:0:
165,85,31048,6,0,L|178:-3,1,80.9999975280763,6|0,0:0|0:0,0:0:0:0:
338,174,31359,2,0,L|349:254,1,80.9999975280763,2|0,0:0|0:0,0:0:0:0:
302,36,31670,1,8,0:0:0:0:
206,217,31825,1,2,0:0:0:0:
192,225,32136,6,0,P|116:236|50:221,1,121.499996292114,2|0,0:0|0:0,0:0:0:0:
44,213,32447,1,8,0:0:0:0:
176,324,32602,2,0,P|251:323|266:326,1,80.9999975280763,2|0,0:0|0:0,0:0:0:0:
267,158,32913,2,0,L|273:57,1,80.9999975280763,8|0,0:0|0:0,0:0:0:0:
162,109,33224,1,2,0:0:0:0:
383,124,33380,1,2,0:0:0:0:
399,124,33691,5,2,0:0:0:0:
160,233,33846,1,2,0:0:0:0:
362,258,34001,1,0,0:0:0:0:
362,258,34079,1,0,0:0:0:0:
362,258,34157,1,8,0:0:0:0:
280,98,34312,1,2,0:0:0:0:
262,289,34468,1,2,0:0:0:0:
127,175,34623,6,0,L|25:170,1,80.9999975280763,8|2,0:0|0:0,0:0:0:0:
92,79,34934,1,8,0:0:0:0:
78,263,35090,2,0,L|70:364,1,80.9999975280763,2|0,0:0|0:0,0:0:0:0:
173,170,35400,1,8,0:0:0:0:
0,155,35556,1,8,0:0:0:0:
97,65,35711,1,8,0:0:0:0:
78,263,35867,6,0,L|259:277,1,180,6|0,0:0|0:0,0:0:0:0:
409,359,36333,2,0,L|313:351,1,90,2|0,0:0|0:0,0:0:0:0:
481,206,36644,6,0,B|490:250|471:317,1,90,2|0,1:0|0:0,0:0:0:0:
324,132,36955,2,0,B|315:88|334:21,1,90,2|0,1:0|0:0,0:0:0:0:
390,213,37266,6,0,B|346:222|301:209,1,90,2|0,1:0|0:0,0:0:0:0:
404,117,37577,2,0,B|447:109|493:123,1,90,2|0,1:0|0:0,0:0:0:0:
295,98,37887,5,8,0:0:0:0:
446,238,38043,1,8,0:0:0:0:
472,0,38198,1,8,0:0:0:0:
263,116,38354,6,0,P|197:133|54:131,1,180,6|2,0:0|0:0,0:0:0:0:
244,254,38820,2,0,P|274:309|282:350,1,90,8|0,0:0|0:0,0:0:0:0:
168,334,39131,1,2,0:0:0:0:
355,258,39286,1,2,0:0:0:0:
201,159,39442,2,0,P|213:115|237:77,1,90,8|0,0:0|0:0,0:0:0:0:
124,84,39753,5,2,0:0:0:0:
317,160,39908,1,2,0:0:0:0:
279,7,40064,1,8,0:0:0:0:
102,97,40219,2,0,L|17:69,1,90,2|0,0:0|0:0,0:0:0:0:
119,220,40530,1,2,0:0:0:0:
9,254,40685,1,8,0:0:0:0:
214,168,40841,6,0,P|233:218|174:323,1,180,6|0,0:0|0:0,0:0:0:0:
269,96,41307,2,0,L|279:7,1,90,8|0,0:0|0:0,0:0:0:0:
375,45,41618,1,2,0:0:0:0:
177,24,41773,1,2,0:0:0:0:
252,202,41929,2,0,P|301:217|360:207,1,90,8|2,0:0|0:0,0:0:0:0:
308,114,42240,5,0,0:0:0:0:
282,306,42395,1,2,0:0:0:0:
131,169,42551,2,0,P|82:154|23:164,1,90,8|0,0:0|0:0,0:0:0:0:
222,96,42862,1,2,0:0:0:0:
172,275,43017,1,2,0:0:0:0:
358,191,43172,2,0,L|370:95,1,90,8|2,0:0|0:0,0:0:0:0:
266,293,43483,6,0,P|314:334|441:293,1,180,6|8,0:0|0:0,0:0:0:0:
356,231,43950,1,0,0:0:0:0:
172,275,44105,2,0,L|76:308,1,90,2|0,0:0|0:0,0:0:0:0:
204,367,44416,5,8,0:0:0:0:
233,198,44571,2,0,L|261:6,1,180,2|2,0:0|0:0,0:0:0:0:
339,173,45038,2,0,P|386:174|433:188,1,90,8|0,0:0|0:0,0:0:0:0:
372,279,45349,1,2,0:0:0:0:
399,70,45504,1,2,0:0:0:0:
231,161,45659,1,8,0:0:0:0:
427,185,45815,1,2,0:0:0:0:
182,82,45970,6,0,P|134:148|167:234,2,180,6|8|2,0:0|0:0|0:0,0:0:0:0:
231,161,46748,1,2,0:0:0:0:
97,305,46903,1,8,0:0:0:0:
338,265,47058,6,0,B|445:243|405:314|528:295,1,180,6|0,0:0|0:0,0:0:0:0:
244,309,47525,2,0,P|240:245|250:216,1,90,8|2,0:0|0:0,0:0:0:0:
357,32,47836,1,8,0:0:0:0:
134,163,47991,1,2,0:0:0:0:
367,186,48147,1,8,0:0:0:0:
168,21,48302,1,2,0:0:0:0:
263,105,48457,6,0,L|426:116,2,135.000005149842,6|2|8,0:0|0:0|0:0,0:0:0:0:
245,209,49235,1,0,1:0:0:0:
245,209,49312,1,0,1:0:0:0:
245,209,49390,1,2,0:0:0:0:
326,282,49545,1,2,1:0:0:0:
235,339,49701,5,0,0:0:0:0:
153,264,49856,2,0,L|18:273,1,135.000005149842,8|0,0:0|0:0,0:0:0:0:
98,368,50323,1,8,0:0:0:0:
81,170,50478,1,2,1:0:0:0:
81,170,50556,1,0,1:0:0:0:
81,170,50634,1,2,1:0:0:0:
176,266,50789,1,8,0:0:0:0:
210,119,50944,5,2,0:0:0:0:
308,162,51100,2,0,P|344:162|415:93,1,135.000005149842,8|0,0:0|0:0,0:0:0:0:
410,234,51566,1,8,0:0:0:0:
324,67,51722,1,8,0:0:0:0:
416,253,51877,1,8,0:0:0:0:
257,254,52033,6,0,L|170:246,1,67.5000025749208,6|0,0:0|0:0,0:0:0:0:
332,348,52343,1,8,0:0:0:0:
420,268,52499,2,0,L|487:274,1,67.5000025749208,2|0,0:0|0:0,0:0:0:0:
487,274,52732,1,0,1:0:0:0:
487,274,52810,1,8,0:0:0:0:
346,179,52965,1,8,0:0:0:0:
332,348,53121,1,8,0:0:0:0:
455,183,53276,1,8,0:0:0:0:
237,166,53431,6,0,L|40:145,2,180,6|2|8,0:0|0:0|0:0,0:0:0:0:
137,272,54209,1,2,0:0:0:0:
137,272,54286,1,0,1:0:0:0:
137,272,54364,1,2,0:0:0:0:
39,81,54520,6,0,P|4:126|47:233,1,180,6|8,0:0|0:0,0:0:0:0:
169,161,54986,2,0,L|77:154,1,90,2|0,0:0|0:0,0:0:0:0:
235,257,55297,1,8,0:0:0:0:
248,77,55452,1,8,0:0:0:0:
80,154,55608,1,8,0:0:0:0:
314,180,55763,6,0,P|352:151|354:42,1,135,6|0,0:0|0:0,0:0:0:0:
358,38,56074,1,2,0:0:0:0:
392,249,56229,1,2,0:0:0:0:
189,169,56385,2,0,L|67:181,1,90,12|2,0:0|0:0,0:0:0:0:
256,291,56696,1,2,0:0:0:0:
256,44,56851,1,8,0:0:0:0:
418,71,57007,1,2,0:0:0:0:
94,71,57162,1,6,0:0:0:0:
94,71,57473,6,0,P|67:104|58:138,1,53.9999983520508
280,140,57784,6,0,P|261:93|227:61,1,72,2|0,0:0|0:0,0:0:0:0:
111,240,58095,6,0,P|165:259|234:239,1,90,2|0,0:0|0:0,0:0:0:0:
493,232,58406,6,0,B|419:221|419:221|379:247|379:247|304:236,1,198.000006042481,6|8,0:0|0:0,0:0:0:0:
185,228,58872,1,0,0:0:0:0:
336,138,59027,1,2,0:0:0:0:
306,331,59183,1,2,0:0:0:0:
230,126,59338,1,8,0:0:0:0:
50,266,59494,6,0,P|7:197|45:82,1,198.000006042481,2|2,0:0|0:0,0:0:0:0:
282,144,59960,1,8,0:0:0:0:
137,169,60115,1,2,0:0:0:0:
254,44,60271,2,0,P|317:44|355:65,1,99.0000030212403,2|0,0:0|0:0,0:0:0:0:
439,243,60582,2,0,P|376:243|338:222,1,99.0000030212403,8|0,0:0|0:0,0:0:0:0:
99,86,60893,6,0,B|226:81|156:161|320:140,1,198.000006042481,6|8,0:0|0:0,0:0:0:0:
254,44,61359,1,0,0:0:0:0:
127,182,61514,1,2,0:0:0:0:
346,187,61670,1,2,0:0:0:0:
98,184,61825,1,8,0:0:0:0:
377,188,61981,6,0,P|407:265|355:377,1,198.000006042481,2|2,0:0|0:0,0:0:0:0:
277,267,62447,1,8,0:0:0:0:
380,85,62602,1,2,0:0:0:0:
186,123,62758,2,0,L|185:6,1,99.0000030212403,2|0,0:0|0:0,0:0:0:0:
331,192,63069,2,0,L|330:290,1,99.0000030212403,8|0,0:0|0:0,0:0:0:0:
79,305,63380,6,0,P|159:294|231:348,1,148.50000453186,6|0,0:0|2:0,0:0:0:0:
234,349,63691,1,8,0:0:0:0:
191,137,63846,1,0,0:0:0:0:
344,213,64001,2,0,P|428:221|462:208,1,99.0000030212403,2|2,0:0|0:0,0:0:0:0:
318,365,64312,1,8,0:0:0:0:
191,137,64468,6,0,B|174:87|174:87|189:24,1,99.0000030212403,6|0,0:0|0:0,0:0:0:0:
427,166,64779,2,0,B|443:211|443:211|429:279,1,99.0000030212403,2|8,0:0|0:0,0:0:0:0:
185,229,65090,2,0,B|256:206|256:206|356:225,1,148.50000453186,2|0,0:0|2:0,0:0:0:0:
356,228,65400,1,0,0:0:0:0:
277,328,65556,1,8,0:0:0:0:
260,102,65711,1,0,0:0:0:0:
95,182,65867,6,0,L|-4:213,1,99.0000030212403,6|0,0:0|0:0,0:0:0:0:
207,255,66178,1,8,0:0:0:0:
134,52,66333,1,0,0:0:0:0:
241,129,66488,2,0,L|340:98,1,99.0000030212403,2|2,0:0|0:0,0:0:0:0:
423,17,66799,1,8,0:0:0:0:
274,255,66955,6,0,P|378:262|394:207,1,175.499991966248,6|0,0:0|2:0,0:0:0:0:
481,175,67266,2,0,P|493:232|468:302,1,116.999994644165,6|8,0:0|0:0,0:0:0:0:
267,80,67577,5,6,0:0:0:0:
300,48,67654,1,0,0:0:0:0:
346,47,67732,1,8,0:0:0:0:
391,267,67887,1,2,0:0:0:0:
202,203,68043,1,2,0:0:0:0:
478,97,68198,1,4,0:3:0:0:
192,118,68354,6,0,B|141:127|108:80|108:80|53:76|19:131,1,198.000006042481,6|8,0:0|0:0,0:0:0:0:
201,24,68820,1,0,0:0:0:0:
317,193,68976,1,2,0:0:0:0:
109,199,69131,1,2,0:0:0:0:
305,74,69286,1,8,0:0:0:0:
97,77,69442,6,0,P|30:107|3:227,1,198.000006042481,2|2,0:0|0:0,0:0:0:0:
209,61,69908,1,8,0:0:0:0:
109,199,70064,1,2,0:0:0:0:
312,173,70219,2,0,P|310:246|289:280,1,99.0000030212403,2|0,0:0|0:0,0:0:0:0:
91,355,70530,2,0,P|155:320|195:321,1,99.0000030212403,8|0,0:0|0:0,0:0:0:0:
456,322,70841,6,0,B|337:299|389:374|267:354,1,198.000006042481,4|8,0:0|0:0,0:0:0:0:
452,203,71307,1,0,0:0:0:0:
298,267,71463,1,2,0:0:0:0:
327,93,71618,1,2,0:0:0:0:
485,208,71773,1,8,0:0:0:0:
263,172,71929,6,0,L|55:144,1,198.000006042481,2|2,0:0|0:0,0:0:0:0:
267,75,72395,1,8,0:0:0:0:
234,273,72551,1,2,0:0:0:0:
368,156,72706,2,0,L|472:142,1,99.0000030212403,2|0,0:0|0:0,0:0:0:0:
145,268,73017,2,0,L|46:254,1,99.0000030212403,8|0,0:0|0:0,0:0:0:0:
249,115,73328,6,0,B|247:185|247:185|269:236|269:236|267:311,1,198.000006042481,6|8,0:0|0:0,0:0:0:0:
345,156,73794,1,0,0:0:0:0:
174,275,73950,1,2,0:0:0:0:
372,350,74105,1,2,0:0:0:0:
141,276,74260,1,8,0:0:0:0:
399,249,74416,6,0,P|443:208|399:68,1,198.000006042481,6|2,0:0|0:0,0:0:0:0:
459,317,74882,1,8,0:0:0:0:
345,156,75038,1,2,0:0:0:0:
256,313,75193,2,0,P|179:314|143:290,1,99.0000030212403,2|0,0:0|0:0,0:0:0:0:
36,151,75504,2,0,P|113:150|149:174,1,99.0000030212403,8|0,0:0|0:0,0:0:0:0:
400,44,75815,6,0,P|339:66|206:12,1,198.000006042481,6|8,0:0|0:0,0:0:0:0:
490,42,76281,1,0,0:0:0:0:
309,174,76437,1,2,0:0:0:0:
511,252,76592,1,2,0:0:0:0:
367,28,76748,1,8,0:0:0:0:
217,208,76903,6,0,P|278:267|360:249,1,175.499991966248,6|0,0:0|2:0,0:0:0:0:
418,176,77214,2,0,P|331:162|283:198,1,116.999994644165,6|8,0:0|0:0,0:0:0:0:
138,256,77525,5,4,0:0:0:0:
140,209,77602,1,0,0:0:0:0:
143,162,77680,1,8,0:0:0:0:
10,348,77836,1,2,0:0:0:0:
253,355,77991,1,2,0:0:0:0:
15,216,78147,1,4,0:3:0:0:
138,256,78302,6,0,P|212:275|315:248,1,153.000002918243,6|2,0:0|0:0,0:0:0:0:
365,344,78768,1,0,0:0:0:0:
444,207,78924,2,0,P|453:255|443:289,1,76.5000014591217,2|0,1:0|0:0,0:0:0:0:
325,155,79235,1,2,0:0:0:0:
418,99,79390,1,2,0:0:0:0:
306,167,79545,5,0,0:0:0:0:
326,10,79701,1,0,1:0:0:0:
214,76,79856,2,0,L|123:62,1,76.5000014591217,2|0,0:0|0:0,0:0:0:0:
329,93,80167,1,2,0:0:0:0:
332,78,80478,1,2,0:0:0:0:
299,256,80634,1,0,1:0:0:0:
210,143,80789,5,2,0:0:0:0:
412,180,80944,1,0,1:0:0:0:
193,242,81100,2,0,P|131:242|95:233,1,76.5000014591217,2|0,0:0|0:0,0:0:0:0:
299,256,81411,1,2,0:0:0:0:
236,340,81566,1,0,1:0:0:0:
259,156,81722,1,2,0:0:0:0:
49,318,81877,6,0,P|14:239|59:155,1,148.50000453186,6|0,0:0|2:0,0:0:0:0:
44,161,82188,1,8,0:0:0:0:
256,341,82343,1,0,0:0:0:0:
256,78,82499,1,0,0:0:0:0:
256,78,82577,1,0,0:0:0:0:
256,77,82654,1,10,0:0:0:0:
130,175,82810,1,8,0:0:0:0:
382,175,82965,1,2,0:0:0:0:
256,244,83121,1,2,0:0:0:0:
449,96,83276,6,0,P|482:149|424:277,1,198.000006042481,6|8,0:0|0:0,0:0:0:0:
263,294,83742,1,0,0:0:0:0:
382,175,83898,1,2,0:0:0:0:
412,379,84053,1,2,0:0:0:0:
377,144,84209,1,8,0:0:0:0:
226,298,84364,6,0,L|39:311,1,148.50000453186,6|0,0:0|2:0,0:0:0:0:
38,314,84675,1,2,0:0:0:0:
277,222,84830,2,0,P|316:297|299:338,1,99.0000030212403,8|0,0:0|0:0,0:0:0:0:
311,346,85064,1,0,0:0:0:0:
311,346,85141,2,0,L|438:352,1,99.0000030212403,2|2,0:0|0:0,0:0:0:0:
377,144,85452,1,8,0:0:0:0:
493,212,85608,1,2,0:0:0:0:
194,210,85763,5,12,0:0:0:0:
256,68,85919,1,2,0:0:0:0:
324,271,86074,1,2,0:0:0:0:
69,261,86229,5,12,0:0:0:0:
309,161,86385,1,2,0:0:0:0:
122,57,86540,1,2,0:0:0:0:
234,298,86696,1,8,0:0:0:0:
354,18,86851,5,6,0:0:0:0:
256,192,86929,12,0,87939,0:0:0:0:
236,328,88250,6,0,P|269:324|302:314,1,67.5000025749208,6|0,0:0|0:0,0:0:0:0:
363,146,88561,2,0,P|330:150|298:161,1,67.5000025749208
475,248,88872,2,0,P|424:233|313:251,1,135.000005149842,2|0,0:0|0:0,0:0:0:0:
202,256,89338,1,0,0:0:0:0:
251,132,89494,6,0,L|245:44,1,67.5000025749208,2|0,0:0|0:0,0:0:0:0:
355,0,89805,1,0,0:0:0:0:
385,118,89960,1,0,0:0:0:0:
385,118,90038,1,0,0:0:0:0:
385,118,90115,1,2,0:0:0:0:
330,226,90271,1,0,0:0:0:0:
463,211,90426,1,0,0:0:0:0:
412,315,90582,1,0,0:0:0:0:
312,231,90737,6,0,P|273:231|229:245,1,67.5000025749208
134,353,91048,2,0,P|173:353|217:339,1,67.5000025749208
32,355,91359,2,0,P|10:299|39:206,1,135.000005149842,2|0,0:0|0:0,0:0:0:0:
133,281,91825,1,0,0:0:0:0:
158,167,91981,6,0,L|151:24,1,135.000005149842,2|0,0:0|0:0,0:0:0:0:
151,32,92603,1,2,0:0:0:0:
66,95,92758,1,0,0:0:0:0:
242,87,92913,1,0,0:0:0:0:
257,88,93224,6,0,L|414:78,1,135.000005149842
357,207,93691,1,0,0:0:0:0:
488,190,93846,2,0,P|500:235|497:261,1,67.5000025749208,2|0,0:0|0:0,0:0:0:0:
367,272,94157,2,0,P|355:227|358:201,1,67.5000025749208
232,195,94468,6,0,P|160:209|101:171,1,135.000005149842,2|0,0:0|0:0,0:0:0:0:
177,103,94934,1,2,0:0:0:0:
177,103,95012,1,0,0:0:0:0:
177,103,95090,1,0,0:0:0:0:
115,18,95245,1,2,0:0:0:0:
266,41,95400,1,0,0:0:0:0:
278,50,95711,6,0,L|283:206,1,135.000005149842
292,338,96178,1,0,0:0:0:0:
196,265,96333,2,0,P|138:268|106:287,1,67.5000025749208,2|0,0:0|0:0,0:0:0:0:
197,170,96644,1,0,0:0:0:0:
285,202,96799,6,0,P|343:199|373:177,1,67.5000025749208,0|2,0:0|0:0,0:0:0:0:
337,287,97110,1,0,0:0:0:0:
310,113,97266,1,0,0:0:0:0:
441,172,97421,1,0,0:0:0:0:
441,172,97499,1,0,0:0:0:0:
441,172,97577,5,2,0:0:0:0:
251,211,97732,1,0,0:0:0:0:
382,73,97887,1,0,0:0:0:0:
427,289,98043,1,0,0:0:0:0:
218,220,98198,5,6,0:0:0:0:
499,77,98509,1,0,0:0:0:0:
486,86,98820,2,0,P|472:188|480:236,1,135.000005149842,2|0,0:0|0:0,0:0:0:0:
487,338,99286,1,0,0:0:0:0:
373,300,99442,6,0,P|295:300|277:304,1,67.5000025749208,2|0,0:0|0:0,0:0:0:0:
341,377,99753,1,0,0:0:0:0:
339,218,99908,1,2,0:0:0:0:
339,218,99986,1,0,0:0:0:0:
339,218,100064,1,0,0:0:0:0:
420,292,100219,1,2,0:0:0:0:
256,301,100374,1,0,0:0:0:0:
243,310,100685,6,0,L|84:315,1,135.000005149842
48,218,101152,1,0,0:0:0:0:
48,218,101229,1,0,0:0:0:0:
48,218,101307,2,0,L|141:213,1,67.5000025749208,2|0,0:0|0:0,0:0:0:0:
210,144,101618,1,0,0:0:0:0:
218,274,101773,1,0,0:0:0:0:
300,184,101929,6,0,P|301:136|295:104,1,67.5000025749208,2|0,0:0|0:0,0:0:0:0:
394,271,102240,2,0,P|393:319|399:351,1,67.5000025749208
287,278,102551,1,2,0:0:0:0:
393,176,102706,1,0,0:0:0:0:
210,144,102862,1,0,0:0:0:0:
196,150,103172,6,0,L|41:130,1,135.000005149842
141,51,103639,1,0,0:0:0:0:
128,231,103794,2,0,P|120:284|108:304,1,67.5000025749208,2|0,0:0|0:0,0:0:0:0:
33,244,104105,1,0,0:0:0:0:
214,286,104260,1,0,0:0:0:0:
214,286,104338,1,0,0:0:0:0:
214,286,104416,6,0,L|306:304,1,67.5000025749208,2|0,0:0|0:0,0:0:0:0:
267,207,104727,1,0,0:0:0:0:
232,374,104882,1,2,0:0:0:0:
99,256,105038,2,0,L|7:238,1,67.5000025749208,0|2,0:0|0:0,0:0:0:0:
161,149,105349,1,0,0:0:0:0:
168,138,105659,6,0,P|225:85|205:14,1,135.000005149842,2|0,0:0|0:0,0:0:0:0:
146,62,106126,1,0,0:0:0:0:
306,103,106281,2,0,L|392:118,1,67.5000025749208,2|0,0:0|0:0,0:0:0:0:
356,26,106592,1,0,0:0:0:0:
326,191,106748,6,0,L|310:278,1,67.5000025749208,0|2,0:0|0:0,0:0:0:0:
411,239,107058,1,0,0:0:0:0:
234,208,107214,1,0,0:0:0:0:
295,355,107369,1,2,0:0:0:0:
295,355,107447,1,0,0:0:0:0:
295,355,107525,5,2,0:0:0:0:
333,164,107680,1,0,0:0:0:0:
200,306,107836,1,0,0:0:0:0:
396,338,107991,1,0,0:0:0:0:
209,188,108147,5,4,0:0:0:0:
415,52,108457,1,0,0:0:0:0:
422,63,108768,2,0,P|339:62|264:79,1,135.000005149842
301,181,109235,1,0,0:0:0:0:
194,121,109390,6,0,P|184:58|184:29,1,67.5000025749208,2|0,0:0|0:0,0:0:0:0:
301,181,109701,2,0,P|311:244|311:273,1,67.5000025749208
206,226,110012,1,2,0:0:0:0:
265,339,110167,2,0,P|312:349|396:305,1,135.000005149842
206,226,110634,6,0,P|159:216|75:260,2,135.000005149842,2|0|0,0:0|0:0|0:0,0:0:0:0:
161,309,111411,1,0,0:0:0:0:
250,333,111566,1,0,0:0:0:0:
85,369,111722,1,0,0:0:0:0:
268,329,111877,6,0,L|421:295,1,135.000005149842,2|0,0:0|0:0,0:0:0:0:
462,213,112343,1,0,0:0:0:0:
363,170,112499,2,0,P|350:131|348:99,1,67.5000025749208,2|0,0:0|0:0,0:0:0:0:
415,22,112810,1,0,0:0:0:0:
401,22,113121,6,0,P|343:54|268:45,1,135.000005149842,2|0,0:0|0:0,0:0:0:0:
331,152,113587,1,0,0:0:0:0:
205,139,113742,2,0,L|210:226,1,67.5000025749208
97,89,114053,2,0,L|92:2,1,67.5000025749208
6,159,114364,6,0,L|12:319,1,135.000005149842,2|0,0:0|0:0,0:0:0:0:
106,359,114830,1,0,0:0:0:0:
190,245,114986,2,0,P|136:250|94:258,1,67.5000025749208,2|0,0:0|0:0,0:0:0:0:
256,310,115297,1,0,0:0:0:0:
242,169,115452,1,0,0:0:0:0:
302,233,115608,6,0,P|368:228|422:183,2,135.000005149842,2|0|0,0:0|0:0|0:0,0:0:0:0:
328,113,116385,1,0,0:0:0:0:
206,147,116540,1,0,0:0:0:0:
245,37,116696,6,0,P|291:7|331:2,1,67.5000025749208,2|0,0:0|0:0,0:0:0:0:
206,147,117007,2,0,P|147:102|141:20,1,135.000005149842,2|0,0:0|0:0,0:0:0:0:
328,113,117473,1,0,0:0:0:0:
245,37,117628,1,0,0:0:0:0:
377,14,117784,1,0,0:0:0:0:
386,23,118095,6,0,P|425:66|430:148,1,135.000005149842,6|0,0:0|0:0,0:0:0:0:
328,113,118561,1,0,0:0:0:0:
361,233,118716,2,0,P|402:256|450:261,1,67.5000025749208
328,113,119027,2,0,P|287:90|239:85,1,67.5000025749208,2|0,0:0|0:0,0:0:0:0:
121,185,119338,6,0,B|201:164|177:217|274:196,1,135.000005149842,2|0,0:0|0:0,0:0:0:0:
141,293,119805,1,8,0:0:0:0:
134,308,119882,1,8,0:0:0:0:
127,323,119960,1,8,0:0:0:0:
242,101,120115,1,8,0:0:0:0:
26,129,120271,1,8,0:0:0:0:
263,223,120426,6,0,P|337:183|351:91,1,180,6|2,0:0|0:0,0:0:0:0:
132,42,120893,2,0,P|121:87|133:145,1,90,2|0,0:0|0:0,0:0:0:0:
222,94,121203,1,8,0:0:0:0:
127,224,121359,1,2,0:0:0:0:
127,224,121437,1,0,1:0:0:0:
127,224,121514,1,2,0:0:0:0:
37,89,121670,1,8,0:0:0:0:
42,335,121825,5,4,0:0:0:0:
127,224,121981,2,0,P|235:234|292:284,1,180,8|0,0:0|0:0,0:0:0:0:
220,352,122447,1,8,0:0:0:0:
359,222,122602,1,0,1:0:0:0:
203,371,122758,1,2,0:0:0:0:
376,198,122913,6,0,L|497:60,1,180,6|8,0:0|0:0,0:0:0:0:
278,52,123380,1,2,0:0:0:0:
287,36,123691,1,8,0:0:0:0:
169,191,123846,1,0,0:0:0:0:
169,191,123924,1,0,1:0:0:0:
169,191,124001,1,2,0:0:0:0:
106,33,124157,1,8,0:0:0:0:
282,135,124312,6,0,P|301:181|251:293,1,180,6|2,0:0|0:0,0:0:0:0:
169,191,124779,1,0,0:0:0:0:
98,308,124934,1,8,0:0:0:0:
166,162,125090,1,2,0:0:0:0:
277,284,125245,1,2,0:0:0:0:
56,209,125400,6,0,P|44:160|111:57,1,180,6|8,0:0|0:0,0:0:0:0:
121,284,125867,2,0,L|31:308,1,90,2|0,0:0|0:0,0:0:0:0:
313,247,126178,1,8,0:0:0:0:
208,197,126333,2,0,L|240:416,1,180,2|8,0:0|0:0,0:0:0:0:
242,128,126799,6,0,P|182:124|146:150,1,90,6|0,0:0|0:0,0:0:0:0:
38,222,127110,2,0,P|98:226|134:200,1,90,2|0,0:0|0:0,0:0:0:0:
186,40,127421,1,8,0:0:0:0:
219,238,127577,1,8,0:0:0:0:
71,149,127732,1,2,0:0:0:0:
321,111,127887,1,2,0:0:0:0:
256,338,128043,5,6,0:0:0:0:
110,191,128354,1,2,0:0:0:0:
256,46,128665,1,2,0:0:0:0:
402,191,128976,1,2,0:0:0:0:
256,192,129131,1,0,0:0:0:0:
256,192,129209,1,0,0:0:0:0:
256,192,129286,5,2,0:0:0:0:
99,346,129597,5,2,0:0:0:0:
101,35,129908,1,2,0:0:0:0:
410,35,130219,1,2,0:0:0:0:
410,192,130374,1,0,0:0:0:0:
410,219,130452,1,0,0:0:0:0:
410,246,130530,6,0,P|357:255|315:247,1,67.5000025749208,6|0,0:0|0:0,0:0:0:0:
343,130,130841,2,0,P|377:129|410:138,1,67.5000025749208,2|0,0:0|0:0,0:0:0:0:
168,253,131152,2,0,P|134:254|102:246,1,67.5000025749208,2|0,0:0|0:0,0:0:0:0:
88,162,131385,1,0,0:0:0:0:
101,138,131463,2,0,P|134:129|168:130,1,67.5000025749208,2|0,0:0|0:0,0:0:0:0:
309,262,131773,5,6,0:0:0:0:
310,19,131929,1,8,0:0:0:0:
450,132,132084,1,8,0:0:0:0:
168,130,132240,1,8,0:0:0:0:
410,230,132395,5,4,0:3:0:0:
390,199,132473,1,2,0:0:0:0:
365,172,132551,1,2,0:0:0:0:
333,156,132628,1,2,0:0:0:0:
296,157,132706,1,2,0:0:0:0:
261,167,132784,1,2,0:0:0:0:
229,191,132862,6,0,L|111:201,1,99.0000030212403,6|0,0:0|0:0,0:0:0:0:
349,87,133172,1,2,0:0:0:0:
398,263,133328,2,0,L|516:273,1,99.0000030212403,8|0,0:0|0:0,0:0:0:0:
351,353,133639,1,2,0:0:0:0:
468,174,133794,1,2,0:0:0:0:
254,258,133950,1,8,0:0:0:0:
371,168,134105,6,0,P|272:117|163:150,1,198.000006042481,2|2,0:0|0:0,0:0:0:0:
0,220,134571,2,0,P|45:240|107:239,1,99.0000030212403,8|2,0:0|0:0,0:0:0:0:
70,145,134882,1,2,0:0:0:0:
29,335,135038,1,0,0:0:0:0:
213,257,135193,1,8,0:0:0:0:
8,70,135349,6,0,P|77:47|166:139,1,198.000006042481,6|2,0:0|0:0,0:0:0:0:
78,244,135815,2,0,L|69:124,1,99.0000030212403,8|0,0:0|0:0,0:0:0:0:
260,234,136126,1,2,0:0:0:0:
191,368,136281,1,2,0:0:0:0:
88,257,136437,1,8,0:0:0:0:
304,329,136592,6,0,B|353:343|353:343|423:335,1,99.0000030212403,2|0,0:0|0:0,0:0:0:0:
317,137,136903,2,0,B|268:123|268:123|198:131,1,99.0000030212403,2|8,0:0|0:0,0:0:0:0:
65,236,137214,2,0,B|137:226|137:226|185:241|185:241|283:231,1,198.000006042481,2|0,0:0|0:0,0:0:0:0:
119,349,137680,1,8,0:0:0:0:
200,124,137836,6,0,P|297:114|377:197,1,198.000006042481,6|2,0:0|0:0,0:0:0:0:
122,184,138302,2,0,P|105:133|118:78,1,99.0000030212403,8|0,0:0|0:0,0:0:0:0:
13,227,138613,1,2,0:0:0:0:
228,202,138768,1,2,0:0:0:0:
108,49,138924,1,8,0:0:0:0:
140,277,139079,6,0,P|199:311|332:243,1,198.000006042481,2|2,0:0|0:0,0:0:0:0:
413,215,139545,1,8,0:0:0:0:
228,202,139701,1,2,0:0:0:0:
429,90,139856,2,0,P|383:72|334:74,1,99.0000030212403,2|0,0:0|0:0,0:0:0:0:
150,94,140167,1,8,0:0:0:0:
413,215,140323,6,0,P|344:193|208:227,1,180,6|0,0:0|0:0,0:0:0:0:
150,94,140789,1,2,1:0:0:0:
82,212,140944,1,0,0:0:0:0:
267,91,141100,6,0,P|289:26|287:-15,1,90,2|0,1:0|0:0,0:0:0:0:
82,212,141411,2,0,P|86:256|104:297,1,90,2|0,1:0|0:0,0:0:0:0:
150,94,141722,6,0,P|85:72|44:74,1,90,2|0,1:0|0:0,0:0:0:0:
202,193,142033,2,0,P|267:215|308:213,1,90,2|0,1:0|0:0,0:0:0:0:
385,124,142343,5,8,0:0:0:0:
359,320,142499,1,8,0:0:0:0:
187,189,142654,1,8,0:0:0:0:
429,229,142810,6,0,P|476:301|450:391,1,180,6|2,0:0|0:0,0:0:0:0:
269,324,143276,2,0,P|314:318|384:324,1,90,8|0,0:0|0:0,0:0:0:0:
176,375,143587,1,2,0:0:0:0:
281,221,143742,1,2,0:0:0:0:
89,228,143898,2,0,P|43:225|-23:206,1,90,8|0,0:0|0:0,0:0:0:0:
59,325,144209,5,2,0:0:0:0:
54,139,144364,1,2,0:0:0:0:
206,235,144520,2,0,L|197:324,1,90,8|2,0:0|0:0,0:0:0:0:
220,123,144830,1,0,0:0:0:0:
306,298,144986,1,2,0:0:0:0:
97,275,145141,1,8,0:0:0:0:
332,180,145297,6,0,L|348:0,1,180,6|2,0:0|0:0,0:0:0:0:
138,81,145763,2,0,P|187:97|236:92,1,90,8|0,0:0|0:0,0:0:0:0:
197,0,146074,1,2,0:0:0:0:
177,187,146229,1,2,0:0:0:0:
53,15,146385,5,8,0:0:0:0:
52,167,146540,2,0,L|54:380,1,180,2|2,0:0|0:0,0:0:0:0:
270,250,147007,2,0,P|289:202|282:151,1,90,8|0,0:0|0:0,0:0:0:0:
168,321,147317,1,2,0:0:0:0:
347,344,147473,1,0,0:0:0:0:
177,187,147628,2,0,L|56:171,1,90,8|0,0:0|0:0,0:0:0:0:
286,45,147939,6,0,P|367:24|469:80,1,180,6|8,0:0|0:0,0:0:0:0:
442,290,148406,1,0,0:0:0:0:
363,135,148561,2,0,P|350:177|356:222,1,90,2|2,0:0|0:0,0:0:0:0:
455,186,148872,1,8,0:0:0:0:
260,165,149027,6,0,L|39:145,1,180,2|2,0:0|0:0,0:0:0:0:
287,252,149494,2,0,L|276:341,1,90,8|0,0:0|3:0,3:0:0:0:
210,160,149805,1,2,0:0:0:0:
383,309,149960,1,2,0:0:0:0:
182,285,150115,1,8,0:0:0:0:
387,192,150271,1,2,0:0:0:0:
118,203,150426,6,0,P|71:164|57:51,2,180,6|8|2,0:0|0:0|0:0,0:0:0:0:
174,92,151204,1,2,0:0:0:0:
77,308,151359,1,8,0:0:0:0:
330,241,151514,6,0,B|377:226|377:226|423:283|389:379,1,180,6|0,0:0|0:0,0:0:0:0:
277,155,151981,2,0,P|270:91|281:53,1,90,8|2,0:0|0:0,0:0:0:0:
373,12,152292,1,8,0:0:0:0:
150,186,152447,1,2,0:0:0:0:
402,198,152602,1,8,0:0:0:0:
189,9,152758,1,2,0:0:0:0:
276,113,152913,6,0,P|287:182|271:276,2,135.000005149842,6|2|8,0:0|0:0|0:0,0:0:0:0:
211,25,153691,1,0,1:0:0:0:
211,25,153768,1,0,1:0:0:0:
211,25,153846,1,2,0:0:0:0:
171,125,154001,1,2,1:0:0:0:
110,34,154157,5,0,0:0:0:0:
67,138,154312,2,0,P|60:204|71:271,1,135.000005149842,8|0,0:0|0:0,0:0:0:0:
243,262,154779,1,8,0:0:0:0:
165,371,154934,1,2,1:0:0:0:
165,371,155012,1,0,1:0:0:0:
165,371,155090,1,2,1:0:0:0:
74,268,155245,1,8,0:0:0:0:
275,261,155400,5,2,0:0:0:0:
242,173,155556,2,0,P|281:168|364:240,1,135.000005149842,8|0,0:0|0:0,0:0:0:0:
275,261,156022,1,8,0:0:0:0:
339,94,156178,1,8,0:0:0:0:
159,118,156333,1,0,1:0:0:0:
372,88,156488,6,0,L|452:76,1,67.5000025749208,2|0,0:0|0:0,0:0:0:0:
238,19,156799,1,8,0:0:0:0:
134,125,156955,2,0,L|54:137,1,67.5000025749208,2|0,0:0|0:0,0:0:0:0:
67,135,157188,1,0,1:0:0:0:
67,135,157266,1,8,0:0:0:0:
184,27,157421,1,8,0:0:0:0:
206,206,157577,1,8,0:0:0:0:
34,144,157732,1,8,0:0:0:0:
264,110,157887,6,0,P|303:149|287:281,2,180,6|2|8,0:0|0:0|0:0,0:0:0:0:
184,27,158665,1,2,0:0:0:0:
387,87,158820,1,2,0:0:0:0:
206,206,158976,6,0,L|5:227,1,180,6|2,0:0|0:0,0:0:0:0:
248,315,159442,2,0,L|370:332,1,90,2|0,0:0|0:0,0:0:0:0:
159,375,159753,1,8,0:0:0:0:
299,237,159908,1,8,0:0:0:0:
108,201,160064,1,2,0:0:0:0:
350,167,160219,6,0,P|388:226|364:296,1,135,6|0,0:0|2:0,0:0:0:0:
354,310,160530,1,2,0:0:0:0:
459,136,160685,1,2,0:0:0:0:
231,152,160841,2,0,L|116:161,1,90,12|2,0:0|0:0,0:0:0:0:
178,40,161152,1,2,0:0:0:0:
188,273,161307,1,8,0:0:0:0:
340,139,161463,1,2,0:0:0:0:
16,165,161618,1,4,0:0:0:0:
16,165,161929,6,0,L|20:235,1,53.9999983520508
159,375,162240,6,0,L|153:294,1,72,2|0,0:0|0:0,0:0:0:0:
225,62,162551,6,0,L|232:169,1,90,2|0,0:0|0:0,0:0:0:0:
327,346,162862,6,0,P|403:296|504:341,1,198.000006042481,6|8,0:0|0:0,0:0:0:0:
467,165,163328,1,0,0:0:0:0:
300,186,163483,1,2,0:0:0:0:
375,53,163639,1,2,0:0:0:0:
491,193,163794,1,8,0:0:0:0:
273,219,163950,6,0,L|46:231,1,198.000006042481,2|2,0:0|0:0,0:0:0:0:
384,160,164416,1,8,0:0:0:0:
168,128,164571,1,2,0:0:0:0:
281,0,164727,2,0,L|283:106,1,99.0000030212403,2|2,0:0|0:0,0:0:0:0:
434,314,165038,2,0,L|435:215,1,99.0000030212403,8|0,0:0|0:0,0:0:0:0:
126,196,165349,6,0,B|195:192|195:192|248:215|248:215|336:210,1,198.000006042481,6|8,0:0|0:0,0:0:0:0:
270,107,165815,1,0,0:0:0:0:
176,293,165970,1,0,0:0:0:0:
58,119,166126,1,2,0:0:0:0:
176,326,166281,1,8,0:0:0:0:
308,114,166437,6,0,P|406:112|479:196,1,198.000006042481,2|2,0:0|0:0,0:0:0:0:
243,20,166903,1,8,0:0:0:0:
365,221,167058,1,2,0:0:0:0:
143,131,167214,2,0,P|132:179|139:228,1,99.0000030212403,2|0,0:0|0:0,0:0:0:0:
366,127,167525,2,0,P|372:78|361:30,1,99.0000030212403,8|0,0:0|0:0,0:0:0:0:
228,182,167836,6,0,B|323:166|270:223|394:222,1,148.50000453186,6|0,0:0|2:0,0:0:0:0:
395,218,168147,1,8,0:0:0:0:
242,281,168302,1,0,0:0:0:0:
169,108,168457,2,0,P|117:111|57:128,1,99.0000030212403,2|2,0:0|0:0,0:0:0:0:
269,36,168768,1,8,0:0:0:0:
137,245,168924,6,0,B|131:297|131:297|156:356,1,99.0000030212403,6|0,0:0|0:0,0:0:0:0:
391,179,169235,2,0,B|397:127|397:127|372:68,1,99.0000030212403,2|8,0:0|0:0,0:0:0:0:
242,281,169545,2,0,P|335:297|383:331,1,148.50000453186,2|0,0:0|2:0,0:0:0:0:
398,349,169856,1,0,0:0:0:0:
361,152,170012,1,8,0:0:0:0:
208,306,170167,1,0,0:0:0:0:
448,229,170323,6,0,P|471:162|463:129,1,99.0000030212403,4|0,0:0|0:0,0:0:0:0:
325,0,170634,1,8,0:0:0:0:
437,29,170789,1,0,0:0:0:0:
252,87,170944,2,0,P|230:130|234:179,1,99.0000030212403,2|2,0:0|0:0,0:0:0:0:
134,110,171255,1,8,0:0:0:0:
454,170,171411,6,0,P|411:109|340:181,1,175.499991966248,6|0,0:0|2:0,0:0:0:0:
387,260,171722,2,0,L|526:273,1,116.999994644165,6|8,0:0|0:0,0:0:0:0:
259,337,172033,5,6,0:0:0:0:
263,290,172110,1,0,0:0:0:0:
267,243,172188,1,8,0:0:0:0:
130,360,172343,1,2,0:0:0:0:
378,373,172499,1,2,0:0:0:0:
274,154,172654,1,4,0:3:0:0:
503,270,172810,6,0,B|466:235|419:249|419:249|388:300|321:289,1,198.000006042481,6|10,0:0|0:0,0:0:0:0:
460,341,173276,1,0,0:0:0:0:
345,206,173431,1,2,0:0:0:0:
506,138,173587,1,2,0:0:0:0:
481,360,173742,1,8,0:0:0:0:
309,214,173898,6,0,P|223:202|123:269,1,198.000006042481,2|2,0:0|0:0,0:0:0:0:
386,156,174364,1,8,0:0:0:0:
243,332,174520,1,2,0:0:0:0:
400,261,174675,2,0,P|461:270|507:263,1,99.0000030212403,2|0,0:0|0:0,0:0:0:0:
163,216,174986,2,0,P|101:220|58:238,1,99.0000030212403,8|0,0:0|0:0,0:0:0:0:
325,331,175297,6,0,B|258:337|258:337|204:313|204:313|123:323,1,198.000006042481,6|8,0:0|0:0,0:0:0:0:
89,129,175763,1,0,0:0:0:0:
7,245,175919,1,2,0:0:0:0:
201,207,176074,1,2,0:0:0:0:
133,322,176229,1,8,0:0:0:0:
272,112,176385,6,0,P|199:92|92:157,1,198.000006042481,2|2,0:0|0:0,0:0:0:0:
201,207,176851,1,8,0:0:0:0:
247,3,177007,1,2,0:0:0:0:
395,110,177162,2,0,L|512:123,1,99.0000030212403,2|0,0:0|0:0,0:0:0:0:
147,219,177473,2,0,L|48:229,1,99.0000030212403,8|0,0:0|0:0,0:0:0:0:
284,34,177784,6,0,P|256:113|317:215,1,198.000006042481,6|8,0:0|0:0,0:0:0:0:
395,110,178250,1,0,0:0:0:0:
289,326,178406,2,0,P|368:310|392:284,1,99.0000030212403,2|2,0:0|0:0,0:0:0:0:
119,242,178716,1,8,0:0:0:0:
290,129,178872,6,0,P|298:80|284:34,1,99.0000030212403,2|0,0:0|0:0,0:0:0:0:
101,31,179183,1,0,0:0:0:0:
119,242,179338,2,0,P|52:256|9:241,1,99.0000030212403,8|2,0:0|0:0,0:0:0:0:
237,243,179649,2,0,L|242:358,1,99.0000030212403,2|0,0:0|0:0,0:0:0:0:
66,134,179960,2,0,L|70:35,1,99.0000030212403,8|0,0:0|0:0,0:0:0:0:
365,113,180271,6,0,B|238:93|298:166|152:149,1,198.000006042481,6|8,0:0|0:0,0:0:0:0:
328,215,180737,1,0,0:0:0:0:
208,65,180893,1,2,0:0:0:0:
424,58,181048,1,2,0:0:0:0:
222,178,181203,1,8,0:0:0:0:
414,264,181359,6,0,P|466:264|522:242,1,99.0000030212403,2|0,0:0|0:0,0:0:0:0:
242,278,181670,1,2,0:0:0:0:
374,380,181825,1,8,0:0:0:0:
340,157,181981,1,2,0:0:0:0:
205,272,182136,2,0,P|138:300|59:303,1,148.50000453186,2|0,0:0|2:0,0:0:0:0:
24,292,182447,1,8,0:0:0:0:
215,384,182602,1,2,0:0:0:0:
183,169,182758,6,0,P|189:112|315:63,1,198.000006042481,6|8,0:0|0:0,0:0:0:0:
284,154,183224,1,0,0:0:0:0:
101,114,183380,1,2,0:0:0:0:
166,273,183535,1,2,0:0:0:0:
205,84,183691,1,8,0:0:0:0:
160,302,183846,6,0,P|98:298|35:264,1,99.0000030212403,2|0,0:0|0:0,0:0:0:0:
310,133,184157,2,0,P|372:137|435:171,1,99.0000030212403,2|8,0:0|0:0,0:0:0:0:
323,285,184468,1,2,0:0:0:0:
169,114,184623,2,0,L|180:16,1,99.0000030212403,2|0,0:0|0:0,0:0:0:0:
374,169,184934,2,0,B|393:236|393:236|368:316,1,148.50000453186,8|0,0:0|2:0,0:0:0:0:
299,353,185245,6,0,P|388:334|456:374,1,148.50000453186,6|0,0:0|2:0,0:0:0:0:
468,381,185556,1,8,0:0:0:0:
309,244,185711,1,0,0:0:0:0:
466,260,185867,1,2,0:0:0:0:
274,370,186022,1,2,0:0:0:0:
403,139,186178,1,8,0:0:0:0:
129,217,186333,6,0,B|176:199|208:231|208:231|237:216|237:216|266:247|310:243,1,198.000006042481,6|2,0:0|0:0,0:0:0:0:
156,290,186799,1,8,0:0:0:0:
301,166,186955,1,2,0:0:0:0:
156,63,187110,1,2,0:0:0:0:
336,55,187266,5,8,0:0:0:0:
336,55,187343,1,8,0:0:0:0:
336,55,187421,2,0,L|345:103,1,49.5000015106202,2|2,0:0|0:0,0:0:0:0:
409,269,187577,2,0,L|421:206,1,49.5000015106202,2|2,0:0|0:0,0:0:0:0:
276,211,187732,6,0,B|225:214|225:214|169:248,1,99.0000030212403,6|0,0:0|0:0,0:0:0:0:
200,97,188043,1,2,0:0:0:0:
264,348,188198,1,6,0:0:0:0:
267,367,188509,1,2,0:0:0:0:
363,120,188665,2,0,B|414:123|414:123|470:157,1,99.0000030212403,6|0,0:0|0:0,0:0:0:0:
285,3,188976,5,2,0:0:0:0:
309,261,189131,1,4,0:0:0:0:
327,267,189442,1,2,0:0:0:0:
103,247,189597,1,6,0:0:0:0:
227,139,189753,1,8,0:0:0:0:
213,348,189908,1,6,0:0:0:0:
100,118,190064,1,2,0:0:0:0:
360,140,190219,6,0,B|416:140|416:140|465:122,1,99.0000030212403,6|0,0:0|0:0,0:0:0:0:
274,18,190530,1,2,0:0:0:0:
311,280,190685,1,6,0:0:0:0:
329,286,190996,1,2,0:0:0:0:
144,183,191152,2,0,B|88:183|88:183|39:201,1,99.0000030212403,6|0,0:0|0:0,0:0:0:0:
196,329,191463,5,2,0:0:0:0:
265,87,191618,1,6,0:0:0:0:
273,69,191929,1,2,0:0:0:0:
118,171,192084,1,6,0:0:0:0:
339,224,192240,1,0,1:0:0:0:
367,232,192317,1,0,1:0:0:0:
395,240,192395,5,4,0:0:0:0:
128,263,192551,1,8,0:0:0:0:
226,104,192706,1,6,0:0:0:0:
219,346,192862,5,8,0:0:0:0:
58,173,193017,1,8,0:0:0:0:
294,148,193172,5,6,0:0:0:0:
128,263,193328,1,8,0:0:0:0:
304,344,193483,1,8,0:0:0:0:
200,111,193639,5,6,0:0:0:0:
351,249,193794,1,8,0:0:0:0:
386,49,193950,1,8,0:0:0:0:
235,244,194105,5,6,0:0:0:0:
431,176,194260,1,8,0:0:0:0:
282,33,194416,1,8,0:0:0:0:
357,269,194571,5,4,0:0:0:0:
172,146,194727,1,0,0:0:0:0:
144,157,194805,1,0,0:0:0:0:
116,168,194882,5,6,0:0:0:0:
88,178,194960,1,0,0:0:0:0:
59,188,195038,1,0,0:0:0:0:
31,198,195115,1,0,0:0:0:0:
2,207,195193,1,2,0:0:0:0:
252,138,195349,5,6,0:0:0:0:
172,289,195504,1,8,0:0:0:0:
109,68,195659,5,6,0:0:0:0:
256,239,195815,1,8,0:0:0:0:
61,286,195970,1,8,0:0:0:0:
220,108,196126,5,6,0:0:0:0:
184,316,196281,1,8,0:0:0:0:
336,194,196437,1,8,0:0:0:0:
95,164,196592,5,6,0:0:0:0:
278,270,196748,1,8,0:0:0:0:
88,351,196903,1,8,0:0:0:0:
222,152,197058,5,6,0:0:0:0:
316,339,197214,1,8,0:0:0:0:
318,312,197292,1,8,0:0:0:0:
319,285,197369,1,6,0:0:0:0:
93,248,197525,1,2,0:0:0:0:
222,152,197680,5,2,0:0:0:0:
219,171,197757,1,2,0:0:0:0:
217,191,197835,1,2,0:0:0:0:
215,211,197913,1,2,0:0:0:0:
213,230,197990,1,2,0:0:0:0:
317,147,198147,5,2,1:0:0:0:
236,24,198302,1,0,0:0:0:0:
133,130,198457,1,2,0:0:0:0:
323,59,198613,5,2,1:0:0:0:
222,152,198768,1,2,0:0:0:0:
143,37,198924,1,2,0:0:0:0:
317,147,199079,5,2,1:0:0:0:
133,130,199235,1,2,0:0:0:0:
211,271,199390,1,2,0:0:0:0:
231,49,199545,5,4,1:0:0:0:
71,182,199701,2,0,L|140:187,1,49.5000015106202,2|2,0:0|0:0,0:0:0:0:
341,203,199856,1,4,1:0:0:0:
221,193,200012,1,2,0:0:0:0:
408,282,200167,5,2,1:0:0:0:
274,277,200323,1,2,0:0:0:0:
274,277,200400,1,2,0:0:0:0:
274,277,200478,1,0,0:0:0:0:
492,169,200634,5,2,1:0:0:0:
346,149,200789,1,0,0:0:0:0:
408,282,200944,1,2,0:0:0:0:
428,115,201100,5,2,1:0:0:0:
336,231,201255,1,0,0:0:0:0:
483,249,201411,1,2,0:0:0:0:
436,57,201566,5,2,1:0:0:0:
417,196,201722,1,0,0:0:0:0:
292,123,201877,1,2,0:0:0:0:
448,38,202033,5,6,1:0:0:0:
314,223,202188,2,0,L|321:166,1,49.5000015106202,2|2,0:0|0:0,0:0:0:0:
342,14,202343,1,6,1:0:0:0:
509,172,202499,1,0,0:0:0:0:
256,78,202654,5,6,0:0:0:0:
426,260,202810,1,8,0:0:0:0:
432,211,202887,1,8,0:0:0:0:
439,161,202965,1,8,0:0:0:0:
256,357,203121,5,6,0:0:0:0:
73,161,203276,1,8,0:0:0:0:
80,211,203354,1,8,0:0:0:0:
86,260,203431,1,8,0:0:0:0:
70,37,203587,5,6,0:0:0:0:
305,108,203742,1,8,0:0:0:0:
256,93,203820,1,8,0:0:0:0:
209,109,203898,1,8,0:0:0:0:
442,37,204053,5,6,0:0:0:0:
256,177,204209,1,8,0:0:0:0:
256,226,204286,1,8,0:0:0:0:
256,275,204364,1,8,0:0:0:0:
394,184,204520,5,6,0:0:0:0:
207,342,204674,1,8,0:0:0:0:
256,357,204752,1,8,0:0:0:0:
303,341,204830,1,8,0:0:0:0:
118,184,204986,1,2,0:0:0:0:
426,317,205141,5,4,1:3:0:0:
86,317,205297,1,4,1:3:0:0:
66,319,205608,5,4,1:3:0:0:
256,35,205763,1,4,1:3:0:0:
256,15,206074,5,4,1:3:0:0:
256,357,206229,1,4,1:3:0:0:
93,352,207628,6,0,B|125:292|53:244|53:244|114:272|193:244|133:176|133:176|66:194|47:139|47:139|78:105|136:103,1,495,6|2,0:0|0:0,0:0:0:0:
216,120,209494,2,0,P|216:77|195:44,2,67.5,2|2|2,0:0|0:0|0:0,0:0:0:0:
208,214,210115,6,0,P|265:186|321:270,1,180,6|2,0:0|0:0,0:0:0:0:
52,268,211359,2,0,B|171:243|121:318|236:304,1,180,2|2,0:0|0:0,0:0:0:0:
412,167,212602,6,0,B|388:149|382:112|382:112|357:-15|501:-15|498:121|382:112|382:112|299:106|296:42,1,450,6|2,0:0|0:0,0:0:0:0:
216,13,214468,2,0,P|205:51|220:103,1,90,2|2,0:0|0:0,0:0:0:0:
250,182,214934,1,0,0:0:0:0:
160,167,215090,6,0,P|113:165|29:258,1,180,6|0,0:0|0:0,0:0:0:0:
29,256,216023,1,2,0:0:0:0:
142,288,216178,1,2,0:0:0:0:
142,288,216333,1,0,0:0:0:0:
142,288,216644,6,0,L|215:297,1,53.9999983520508,8|8,0:0|0:0,0:0:0:0:
384,239,216955,6,0,L|304:248,1,58.4999973220826,2|2,0:0|0:0,0:0:0:0:
120,159,217266,6,0,L|182:167,1,62.9999980773926,2|4,0:0|0:3,0:0:0:0:
421,118,217577,6,0,P|377:100|291:113,1,135.000005149842,6|2,0:0|0:0,0:0:0:0:
239,0,218043,1,0,0:0:0:0:
138,73,218198,1,8,0:0:0:0:
138,59,218509,1,2,0:0:0:0:
66,162,218665,1,8,0:0:0:0:
191,169,218820,5,2,0:0:0:0:
56,177,218976,1,8,0:0:0:0:
202,185,219131,2,0,L|314:194,1,101.250003862381,2|0,0:0|0:0,0:0:0:0:
331,179,219442,2,0,P|345:123|335:70,2,101.250003862381,2|0|8,0:0|0:0|0:0,0:0:0:0:
286,275,220064,6,0,P|339:259|429:304,1,135.000005149842,2|2,0:0|0:0,0:0:0:0:
343,362,220530,1,0,0:0:0:0:
200,336,220685,2,0,P|184:283|229:193,1,135.000005149842,8|2,0:0|0:0,0:0:0:0:
313,142,221152,1,8,0:0:0:0:
181,97,221307,5,2,0:0:0:0:
333,148,221463,1,8,0:0:0:0:
165,89,221618,2,0,L|102:62,1,67.5000025749208,2|0,0:0|1:0,0:0:0:0:
103,62,221851,1,0,1:0:0:0:
103,62,221929,1,0,1:0:0:0:
92,154,222084,1,8,0:0:0:0:
156,0,222240,2,0,L|236:31,1,67.5000025749208,2|0,0:0|0:0,0:0:0:0:
389,91,222551,6,0,P|327:67|269:98,1,135.000005149842,6|2,0:0|0:0,0:0:0:0:
333,148,223017,1,0,0:0:0:0:
465,128,223172,2,0,P|471:80|465:56,1,67.5000025749208,8|0,0:0|0:0,0:0:0:0:
406,198,223483,1,2,0:0:0:0:
389,91,223639,1,8,0:0:0:0:
409,224,223794,6,0,L|418:305,1,67.5000025749208,2|8,0:0|0:0,0:0:0:0:
310,198,224105,2,0,P|260:190|197:215,1,101.250003862381,2|0,0:0|0:0,0:0:0:0:
191,224,224416,1,8,0:0:0:0:
274,288,224571,1,0,0:0:0:0:
247,104,224727,2,0,L|239:36,1,67.5000025749208,0|8,0:0|0:0,0:0:0:0:
106,27,225038,6,0,P|89:101|120:155,1,135.000005149842,6|2,0:0|0:0,0:0:0:0:
194,82,225504,1,0,0:0:0:0:
205,201,225659,1,8,0:0:0:0:
278,135,225815,1,8,0:0:0:0:
115,150,225970,2,0,L|27:155,1,67.5000025749208,2|8,0:0|0:0,0:0:0:0:
86,232,226281,5,2,0:0:0:0:
82,69,226436,1,8,0:0:0:0:
87,255,226592,2,0,L|88:322,1,67.5000025749208,2|0,0:0|1:0,0:0:0:0:
89,322,226825,1,0,1:0:0:0:
89,322,226903,1,0,1:0:0:0:
7,285,227058,1,8,0:0:0:0:
171,285,227213,1,4,0:3:0:0:
89,168,227369,1,4,0:3:0:0:
195,295,227525,6,0,P|265:304|339:263,1,135.000005149842,6|0,0:0|0:0,0:0:0:0:
252,200,227991,1,0,0:0:0:0:
389,192,228147,2,0,L|468:198,1,67.5000025749208,8|0,0:0|0:0,0:0:0:0:
430,108,228457,1,2,0:0:0:0:
415,277,228613,1,8,0:0:0:0:
432,90,228768,6,0,L|439:15,1,67.5000025749208,2|8,0:0|0:0,0:0:0:0:
310,105,229079,1,0,0:0:0:0:
297,110,229390,2,0,P|265:119|232:122,1,67.5000025749208,8|0,0:0|1:0,0:0:0:0:
232,122,229623,1,0,0:0:0:0:
232,122,229701,1,2,0:0:0:0:
251,36,229856,1,8,0:0:0:0:
280,200,230012,6,0,P|289:229|285:282,1,67.5000025749208,2|8,0:0|0:0,0:0:0:0:
175,317,230323,1,2,0:0:0:0:
266,341,230478,1,0,0:0:0:0:
180,225,230634,2,0,L|113:234,1,67.5000025749208,2|0,0:0|0:0,0:0:0:0:
113,234,230867,1,0,1:0:0:0:
113,234,230944,1,2,0:0:0:0:
136,136,231100,1,8,0:0:0:0:
25,167,231255,5,2,0:0:0:0:
61,53,231411,1,8,0:0:0:0:
154,142,231566,1,2,0:0:0:0:
11,183,231722,1,0,1:0:0:0:
11,183,231799,1,0,1:0:0:0:
11,183,231877,1,2,1:0:0:0:
54,35,232033,1,8,0:0:0:0:
101,210,232188,1,4,0:3:0:0:
440,69,232499,6,0,P|374:59|320:120,1,135.000005149842,6|0,0:0|0:0,0:0:0:0:
398,137,232965,1,2,0:0:0:0:
255,140,233121,2,0,P|249:88|258:64,1,67.5000025749208,8|0,0:0|0:0,0:0:0:0:
411,160,233431,2,0,P|416:193|409:225,1,67.5000025749208,0|2,0:0|0:0,0:0:0:0:
204,197,233742,6,0,P|247:183|341:191,1,135.000005149842,2|0,0:0|0:0,0:0:0:0:
209,102,234209,1,2,0:0:0:0:
112,190,234364,2,0,P|78:190|44:186,1,67.5000025749208,8|0,0:0|0:0,0:0:0:0:
45,186,234597,1,0,1:0:0:0:
45,186,234675,1,2,0:0:0:0:
86,101,234830,1,8,0:0:0:0:
74,276,234986,6,0,L|70:343,1,67.5000025749208,6|0,0:0|1:0,0:0:0:0:
70,343,235219,1,0,1:0:0:0:
70,343,235297,1,0,1:0:0:0:
175,311,235452,1,2,0:0:0:0:
160,197,235608,5,8,0:0:0:0:
197,331,235763,1,8,0:0:0:0:
48,284,235919,1,2,0:0:0:0:
167,173,236074,1,8,0:0:0:0:
104,358,236229,5,6,0:0:0:0:
256,192,236307,12,2,237162,0:0:0:0:
338,261,237473,6,0,B|300:230|249:255|249:255|242:205|242:205|178:280|91:292|23:229|26:153,1,440.999986541748,6|0,0:0|0:0,0:0:0:0:
138,147,239960,6,0,B|247:128|221:16|221:16|269:32|317:20|317:20|337:48|337:48|402:4|470:49,1,440.999986541748,2|0,0:0|0:0,0:0:0:0:
403,129,242447,6,0,B|369:168|289:168|289:168|379:206|375:296|352:293|352:293|297:246|210:258,1,440.999986541748,2|0,0:0|0:0,0:0:0:0:
113,282,244934,6,0,B|101:250|119:218|119:218|35:210|19:294|51:326|54:329,1,220.499993270874,2|2,0:0|0:0,0:0:0:0:
136,369,246178,6,0,P|171:370|220:368,1,67.5000025749208
256,288,246488,1,0,0:0:0:0:
256,192,246644,5,0,1:0:0:0:
256,192,246722,1,0,1:0:0:0:
256,192,246799,1,8,1:0:0:0:
152,268,246955,1,8,0:0:0:0:
360,268,247110,1,8,0:0:0:0:
256,92,247266,1,8,0:0:0:0:
256,288,247421,6,0,P|280:342|369:382,2,135.000005149842,6|2|8,0:0|0:0|0:0,0:0:0:0:
360,268,248198,1,0,0:0:0:0:
360,268,248276,1,0,1:0:0:0:
360,268,248354,1,2,0:0:0:0:
290,186,248509,1,8,0:0:0:0:
363,108,248665,6,0,P|405:104|441:111,1,67.5000025749208,2|8,0:0|0:0,0:0:0:0:
291,41,248976,1,2,0:0:0:0:
285,25,249286,1,8,0:0:0:0:
213,145,249442,1,8,0:0:0:0:
390,125,249597,1,2,0:0:0:0:
282,9,249753,1,2,0:0:0:0:
306,165,249908,6,0,L|319:304,1,135.000005149842,6|2,0:0|0:0,0:0:0:0:
321,384,250374,1,0,0:0:0:0:
225,250,250530,2,0,P|163:241|82:276,1,135.000005149842,8|2,0:0|0:0,0:0:0:0:
175,353,250996,1,8,0:0:0:0:
28,363,251152,5,2,0:0:0:0:
197,358,251307,1,8,0:0:0:0:
7,370,251463,1,2,0:0:0:0:
97,239,251618,1,2,0:0:0:0:
97,239,251696,1,2,0:0:0:0:
97,239,251773,5,8,0:0:0:0:
105,375,251929,1,8,0:0:0:0:
193,237,252084,1,2,0:0:0:0:
0,249,252240,1,2,0:0:0:0:
169,323,252395,6,0,P|236:311|274:247,1,135.000005149842,4|2,0:0|0:0,0:0:0:0:
193,237,252862,1,0,0:0:0:0:
353,277,253017,2,0,L|431:296,1,67.5000025749208,8|2,0:0|0:0,0:0:0:0:
419,293,253250,1,0,1:0:0:0:
419,293,253328,1,2,0:0:0:0:
317,141,253483,6,0,P|274:172|266:263,1,135.000005149842,6|8,0:0|0:0,0:0:0:0:
390,112,253950,2,0,P|347:69|317:66,1,67.5000025749208,2|0,0:0|0:0,0:0:0:0:
388,194,254260,1,8,0:0:0:0:
254,82,254416,1,8,0:0:0:0:
427,19,254571,1,2,0:0:0:0:
317,141,254727,1,2,0:0:0:0:
489,140,254882,5,12,0:0:0:0:
327,52,255038,1,2,0:0:0:0:
349,265,255193,1,2,0:0:0:0:
448,42,255349,5,12,0:0:0:0:
245,171,255504,1,2,0:0:0:0:
476,257,255659,1,0,1:0:0:0:
310,22,255815,1,4,0:3:0:0:
342,298,255970,5,4,0:0:0:0:
342,298,256437,6,0,P|310:295|281:296,1,53.9999983520508
154,164,256748,6,0,P|206:163|239:168,1,72,2|0,0:0|0:0,0:0:0:0:
374,40,257058,6,0,P|318:36|263:39,1,90,2|0,0:0|0:0,0:0:0:0:
483,118,257369,6,0,P|497:183|469:244,1,135.000005149842,6|0,0:0|0:0,0:0:0:0:
393,165,257836,2,0,P|341:153|309:156,1,67.5000025749208,2|0,0:0|0:0,0:0:0:0:
421,321,258147,2,0,P|473:333|505:330,1,67.5000025749208,2|0,0:0|0:0,0:0:0:0:
349,250,258457,1,0,0:0:0:0:
349,250,258613,6,0,L|333:346,1,67.5000025749208,2|0,0:0|0:0,0:0:0:0:
484,119,258924,2,0,L|472:52,1,67.5000025749208,2|0,0:0|0:0,0:0:0:0:
346,113,259235,5,2,0:0:0:0:
463,283,259390,1,8,0:0:0:0:
469,259,259468,1,8,0:0:0:0:
466,234,259545,1,8,0:0:0:0:
428,68,259701,1,0,0:0:0:0:
423,112,259779,1,0,0:0:0:0:
441,153,259856,6,0,P|367:112|271:159,1,198.000006042481,6|8,0:0|0:0,0:0:0:0:
359,222,260323,1,0,0:0:0:0:
456,47,260478,1,2,0:0:0:0:
251,56,260634,1,2,0:0:0:0:
359,244,260789,1,8,0:0:0:0:
227,46,260944,6,0,P|140:45|56:154,1,198.000006042481,2|2,0:0|0:0,0:0:0:0:
320,228,261411,1,8,0:0:0:0:
186,170,261566,1,2,0:0:0:0:
333,245,261722,2,0,B|345:291|345:291|331:340,1,99.0000030212403,2|0,0:0|0:0,0:0:0:0:
76,342,262033,2,0,B|62:292|62:292|74:246,1,99.0000030212403,8|0,0:0|0:0,0:0:0:0:
206,42,262343,6,0,B|224:111|224:111|203:185,1,148.50000453186,6|0,0:0|2:0,0:0:0:0:
192,207,262654,1,8,0:0:0:0:
91,117,262810,1,0,0:0:0:0:
333,113,262965,2,0,L|453:109,1,99.0000030212403,2|2,0:0|0:0,0:0:0:0:
251,6,263276,1,8,0:0:0:0:
192,207,263431,6,0,P|177:157|189:99,1,99.0000030212403,6|0,0:0|0:0,0:0:0:0:
383,104,263742,1,2,0:0:0:0:
300,264,263898,1,8,0:0:0:0:
506,247,264053,1,2,0:0:0:0:
269,270,264209,2,0,L|169:280,1,99.0000030212403,2|0,0:0|0:0,0:0:0:0:
200,163,264520,1,8,0:0:0:0:
378,346,264675,1,2,0:0:0:0:
312,146,264830,6,0,L|410:136,1,99.0000030212403,6|0,0:0|0:0,0:0:0:0:
202,98,265141,1,8,0:0:0:0:
366,244,265297,1,0,0:0:0:0:
130,221,265452,2,0,L|31:211,1,99.0000030212403,2|2,0:0|0:0,0:0:0:0:
236,351,265763,1,0,0:0:0:0:
323,145,265919,6,0,P|255:187|190:113,1,175.499991966248,6|0,0:0|2:0,0:0:0:0:
332,63,266229,2,0,P|394:103|401:160,1,116.999994644165,6|8,0:0|0:0,0:0:0:0:
114,107,266540,5,6,0:0:0:0:
139,67,266618,1,0,0:0:0:0:
184,56,266696,1,8,0:0:0:0:
248,288,266851,1,2,0:0:0:0:
259,17,267007,1,2,0:0:0:0:
41,133,267162,1,4,0:3:0:0:
323,145,267317,6,0,B|376:166|415:128|415:128|464:114|513:156,1,198.000006042481,6|8,0:0|0:0,0:0:0:0:
359,245,267784,1,0,0:0:0:0:
355,73,267939,1,2,0:0:0:0:
485,254,268095,1,2,0:0:0:0:
240,260,268250,1,8,0:0:0:0:
494,235,268406,6,0,L|497:29,1,198.000006042481,2|2,0:0|0:0,0:0:0:0:
260,136,268872,1,8,0:0:0:0:
361,257,269027,1,2,0:0:0:0:
447,20,269183,2,0,P|398:13|351:26,1,99.0000030212403,2|0,0:0|0:0,0:0:0:0:
361,257,269494,2,0,P|410:263|458:252,1,99.0000030212403,8|0,0:0|0:0,0:0:0:0:
126,123,269805,6,0,B|257:94|191:176|340:146,1,198.000006042481,6|8,0:0|0:0,0:0:0:0:
286,64,270271,1,0,0:0:0:0:
172,211,270426,1,2,0:0:0:0:
399,211,270582,1,2,0:0:0:0:
186,103,270737,1,8,0:0:0:0:
377,106,270893,6,0,P|464:130|498:230,1,198.000006042481,2|2,0:0|0:0,0:0:0:0:
492,27,271359,1,8,0:0:0:0:
399,211,271514,1,2,0:0:0:0:
254,53,271670,2,0,P|202:50|131:70,1,99.0000030212403,2|0,0:0|0:0,0:0:0:0:
301,217,271981,2,0,P|353:220|424:200,1,99.0000030212403,8|0,0:0|0:0,0:0:0:0:
199,357,272292,6,0,P|116:333|-18:366,1,198.000006042481,6|8,0:0|0:0,0:0:0:0:
113,188,272758,1,2,0:0:0:0:
19,255,272913,1,2,0:0:0:0:
189,270,273069,1,2,0:0:0:0:
27,118,273224,1,8,0:0:0:0:
219,133,273380,6,0,B|286:138|286:138|336:175|336:175|429:185,1,198.000006042481,6|2,0:0|0:0,3:0:0:0:
249,232,273846,1,8,0:0:0:0:
379,89,274001,1,2,0:0:0:0:
135,84,274157,2,0,B|123:133|123:133|139:198,1,99.0000030212403,2|0,0:0|0:0,0:0:0:0:
348,351,274468,2,0,B|359:303|359:303|347:254,1,99.0000030212403,8|0,0:0|0:0,0:0:0:0:
76,297,274779,6,0,P|159:340|272:302,1,198.000006042481,6|8,0:0|0:0,0:0:0:0:
176,214,275245,1,0,0:0:0:0:
376,383,275400,1,2,0:0:0:0:
380,160,275556,1,2,0:0:0:0:
227,362,275711,1,8,0:0:0:0:
320,103,275867,6,0,P|306:75|217:151,1,175.499991966248,6|0,0:0|2:0,0:0:0:0:
400,143,276178,2,0,P|397:61|366:22,1,116.999994644165,6|0,0:0|0:0,0:0:0:0:
129,63,276488,5,6,0:0:0:0:
113,106,276566,1,0,0:0:0:0:
126,151,276644,1,8,0:0:0:0:
246,16,276799,1,2,0:0:0:0:
3,24,276955,1,4,0:3:0:0:
133,248,277110,1,2,0:0:0:0:
122,115,277266,6,0,P|203:104|280:135,1,153.000002918243,6|2,0:0|0:0,0:0:0:0:
349,231,277732,1,0,0:0:0:0:
417,126,277887,2,0,P|417:82|405:42,1,76.5000014591217,2|0,0:0|0:0,0:0:0:0:
349,231,278198,1,2,0:0:0:0:
493,226,278354,1,2,0:0:0:0:
431,337,278509,5,0,0:0:0:0:
322,234,278665,1,0,1:0:0:0:
231,342,278820,2,0,L|125:348,1,76.5000014591217,2|0,0:0|0:0,0:0:0:0:
46,244,279131,1,2,1:0:0:0:
32,251,279442,1,2,0:0:0:0:
90,146,279597,1,0,1:0:0:0:
172,255,279753,5,2,0:0:0:0:
13,262,279908,1,0,1:0:0:0:
190,148,280064,2,0,P|190:88|184:64,1,76.5000014591217,2|0,0:0|0:0,0:0:0:0:
303,104,280374,1,2,0:0:0:0:
76,115,280530,1,0,1:0:0:0:
196,267,280685,1,2,0:0:0:0:
270,9,280841,6,0,P|353:20|400:89,1,135,6|0,0:0|2:0,0:0:0:0:
394,75,281152,1,8,0:0:0:0:
331,291,281307,1,2,0:0:0:0:
177,141,281463,1,0,0:0:0:0:
177,141,281540,1,0,0:0:0:0:
177,141,281618,1,10,0:0:0:0:
93,322,281773,1,2,0:0:0:0:
267,209,281929,1,4,0:3:0:0:
63,111,282084,1,2,0:0:0:0:
298,213,282240,6,0,P|394:228|524:201,1,198.000006042481,6|8,0:0|0:0,0:0:0:0:
379,111,282706,1,0,0:0:0:0:
344,327,282862,1,2,0:0:0:0:
203,188,283017,1,2,0:0:0:0:
418,123,283172,1,8,0:0:0:0:
214,213,283328,6,0,P|118:228|-12:201,1,198.000006042481,6|2,0:0|0:0,0:0:0:0:
263,298,283794,2,0,P|336:294|378:305,1,99.0000030212403,8|0,0:0|0:0,0:0:0:0:
360,299,284027,1,0,0:0:0:0:
360,299,284105,1,2,0:0:0:0:
171,371,284260,1,2,0:0:0:0:
310,174,284416,1,8,0:0:0:0:
452,374,284571,1,2,0:0:0:0:
185,239,284727,5,12,0:0:0:0:
428,231,284882,1,2,0:0:0:0:
319,361,285038,1,2,0:0:0:0:
309,81,285193,5,12,0:0:0:0:
169,262,285349,1,2,0:0:0:0:
460,251,285504,1,2,0:0:0:0:
178,125,285659,1,8,0:0:0:0:
439,111,285815,5,4,0:0:0:0:
453,124,286126,1,2,0:0:0:0:
321,308,286281,1,8,0:0:0:0:
307,52,286437,5,6,0:0:0:0:
306,32,286748,1,2,0:0:0:0:
433,73,286903,1,8,0:0:0:0:
183,84,287058,1,6,0:0:0:0:
168,70,287369,5,2,0:0:0:0:
280,217,287525,1,8,0:0:0:0:
34,195,287680,1,6,0:0:0:0:
150,289,287836,1,2,0:0:0:0:
168,70,287991,1,8,0:0:0:0:
168,70,288069,1,8,0:0:0:0:
168,70,288147,2,8,L|161:139,1,49.5000015106202
150,289,288302,6,0,B|225:279|225:279|314:321,1,148.50000453186,6|0,0:0|2:0,0:0:0:0:
313,329,288613,1,2,0:0:0:0:
95,367,288768,1,8,0:0:0:0:
249,192,288924,6,0,B|280:126|280:126|270:51,1,148.50000453186,6|0,0:0|2:0,0:0:0:0:
268,21,289235,1,2,0:0:0:0:
394,128,289390,1,8,0:0:0:0:
190,272,289545,6,0,B|262:278|262:278|329:243,1,148.50000453186,6|0,0:0|2:0,0:0:0:0:
355,229,289856,1,2,0:0:0:0:
143,359,290012,1,8,0:0:0:0:
44,124,290167,6,0,B|23:169|23:169|34:240,1,99.0000030212403,6|2,0:0|0:0,0:0:0:0:
176,94,290478,1,8,0:0:0:0:
209,85,290555,1,8,0:0:0:0:
242,75,290633,1,8,0:0:0:0:
275,65,290711,1,8,0:0:0:0:
306,56,290789,6,0,P|392:74|421:174,1,180,6|2,0:0|0:0,0:0:0:0:
227,182,291255,2,0,L|352:157,1,90,8|0,0:0|0:0,0:0:0:0:
128,214,291566,1,2,0:0:0:0:
228,77,291722,1,2,0:0:0:0:
300,253,291877,1,8,0:0:0:0:
91,226,292033,1,2,0:0:0:0:
254,51,292188,6,0,P|171:69|60:46,1,180,0|8,0:0|0:0,0:0:0:0:
352,26,292654,2,0,P|418:33|476:63,1,90,2|2,0:0|0:0,0:0:0:0:
339,173,292965,1,0,0:0:0:0:
371,187,293043,1,0,0:0:0:0:
407,189,293121,1,8,0:0:0:0:
190,147,293276,6,0,L|170:343,1,180,6|2,0:0|0:0,0:0:0:0:
378,221,293742,2,0,B|332:217|332:217|279:234,1,90,8|0,0:0|0:0,0:0:0:0:
348,328,294053,1,2,0:0:0:0:
327,123,294209,1,2,0:0:0:0:
470,226,294364,1,8,0:0:0:0:
348,354,294520,1,2,0:0:0:0:
418,143,294675,6,0,P|402:62|302:35,1,180,0|8,0:0|0:0,0:0:0:0:
375,248,295141,2,0,P|432:253|493:240,1,90,2|2,0:0|0:0,0:0:0:0:
256,224,295452,1,10,0:0:0:0:
256,224,295530,1,2,0:0:0:0:
256,224,295608,2,0,L|235:170,1,45,2|2,0:0|0:0,0:0:0:0:
190,82,295763,6,0,P|131:94|-20:71,1,180,6|2,0:0|0:0,0:0:0:0:
148,224,296229,2,0,P|153:280|145:330,1,90,8|2,0:0|0:0,0:0:0:0:
44,276,296540,1,8,0:0:0:0:
256,264,296696,1,2,0:0:0:0:
144,125,296851,1,8,0:0:0:0:
26,289,297007,1,2,0:0:0:0:
216,181,297162,6,0,B|317:152|287:226|426:186,1,180,2|8,0:0|0:0,0:0:0:0:
256,264,297628,1,2,0:0:0:0:
360,106,297784,1,2,0:0:0:0:
135,145,297940,1,0,0:0:0:0:
130,181,298017,1,0,0:0:0:0:
140,216,298095,1,8,0:0:0:0:
237,28,298250,6,0,B|168:22|168:22|127:38|127:38|34:31,1,180,6|2,0:0|0:0,0:0:0:0:
281,122,298716,2,0,L|383:132,1,90,8|2,0:0|0:0,0:0:0:0:
177,156,299027,1,8,0:0:0:0:
336,8,299183,1,2,0:0:0:0:
317,229,299338,2,0,L|307:331,1,90,8|2,0:0|0:0,0:0:0:0:
463,197,299649,5,10,0:0:0:0:
295,107,299805,1,10,3:0:0:0:
329,103,299882,1,8,3:0:0:0:
362,117,299960,1,8,3:0:0:0:
212,208,300115,2,0,P|143:201|108:175,1,90,2|0,0:0|2:0,0:0:0:0:
398,9,300426,2,0,P|467:16|502:42,1,90,2|0,0:0|2:0,0:0:0:0:
219,23,300737,1,2,0:0:0:0:
256,192,302136,6,0,L|256:170,2,22.5,0|0|2,0:0|0:0|0:0,0:0:0:0:
