osu file format v14

[General]
AudioFilename: Wonder Stella.mp3
AudioLeadIn: 0
PreviewTime: 57710
Countdown: 1
SampleSet: Soft
StackLeniency: 0.7
Mode: 0
LetterboxInBreaks: 1
WidescreenStoryboard: 0

[Editor]
DistanceSpacing: 1.5
BeatDivisor: 4
GridSize: 4
TimelineZoom: 1

[Metadata]
Title:Wonder Stella
TitleUnicode:ワンダーステラ
Artist:fhana
ArtistUnicode:fhána
Creator:hvick225
Version:Insane
Source:fate/kaleid liner プリズマイリヤ ツヴァイ ヘルツ!
Tags:
BeatmapID:754520
BeatmapSetID:341220

[Difficulty]
HPDrainRate:6
CircleSize:4.2
OverallDifficulty:8
ApproachRate:9
SliderMultiplier:1.8
SliderTickRate:1

[Events]
//Background and Video events
Video,0,"2weiopmovie.avi"
0,0,"BG.jpg",0,0
//Break Periods
//Storyboard Layer 0 (Background)
//Storyboard Layer 1 (Fail)
//Storyboard Layer 2 (Pass)
//Storyboard Layer 3 (Foreground)
//Storyboard Sound Samples

[TimingPoints]
1126,310.880829015544,4,2,1,50,1,0
1126,-133.333333333333,4,2,1,50,0,0
11074,-111.111111111111,4,2,1,60,0,0
58332,-100,4,2,1,60,0,1
78228,-111.111111111111,4,2,1,60,0,0

[HitObjects]
308,304,1126,6,0,P|380:316|448:276,2,135.000005149842,4|0|0,0:0|0:0|0:0,0:0:0:0:
236,224,1903,2,0,L|248:152,1,67.5000025749208
100,28,2214,6,0,L|124:188,1,135.000005149842
144,312,2680,1,0,0:0:0:0:
144,312,2991,1,0,0:0:0:0:
236,224,3146,1,0,0:0:0:0:
36,164,3302,2,0,L|48:232,1,67.5000025749208
244,324,3613,6,0,P|296:332|352:324,1,101.250003862381,4|0,0:0|0:0,0:0:0:0:
380,312,3923,2,0,L|384:236,1,67.5000025749208
316,152,4234,1,0,0:0:0:0:
383,244,4390,1,0,0:0:0:0:
228,208,4545,5,0,0:0:0:0:
400,100,4701,1,0,0:0:0:0:
264,28,4856,2,0,L|104:36,1,135.000005149842
120,300,5478,1,0,0:0:0:0:
228,208,5633,1,0,0:0:0:0:
83,169,5789,2,0,P|75:219|88:268,1,101.250003862381
120,300,6100,6,0,L|196:292,1,67.5000025749208,4|0,0:0|0:0,0:0:0:0:
308,336,6410,2,0,L|384:344,1,67.5000025749208
472,236,6721,2,0,B|448:196|448:196|464:104,1,135.000005149842
300,24,7188,2,0,L|308:132,1,101.250003862381,4|0,0:0|0:0,0:0:0:0:
308,164,7499,2,0,L|232:152,1,67.5000025749208
144,80,7809,1,0,0:0:0:0:
241,153,7965,1,0,0:0:0:0:
144,248,8120,6,0,B|80:268|28:252|28:252|40:264,1,135.000005149842
236,320,8587,2,0,P|280:304|336:312,1,101.250003862381,4|0,0:0|0:0,0:0:0:0:
376,328,8898,2,0,P|412:332|452:324,1,67.5000025749208
416,84,9208,6,0,L|408:232,1,135.000005149842
316,280,9675,1,4,0:0:0:0:
232,216,9830,2,0,P|196:224|152:228,1,67.5000025749208
48,72,10141,2,0,P|81:75|114:83,1,67.5000025749208,0|8,0:0|0:0,0:0:0:0:
114,83,10374,1,8,0:0:0:0:
114,83,10452,1,8,0:0:0:0:
224,28,10607,1,8,0:0:0:0:
124,96,10763,1,8,0:0:0:0:
224,188,10918,1,8,0:0:0:0:
324,92,11074,6,0,P|396:80|484:80,2,161.999995056153,6|2|8,0:0|0:0|0:0,0:0:0:0:
220,168,11851,1,0,0:0:0:0:
220,168,11929,1,0,0:0:0:0:
220,168,12006,1,0,0:0:0:0:
136,48,12162,1,2,0:0:0:0:
28,144,12317,6,2,P|26:187|32:244,1,80.9999975280763
232,320,12628,2,0,P|240:256|228:180,1,121.499996292114,2|0,0:0|0:0,0:0:0:0:
220,168,12939,1,8,0:0:0:0:
132,260,13094,1,0,0:0:0:0:
332,328,13250,1,0,0:0:0:0:
332,328,13561,6,0,P|374:325|416:320,1,80.9999975280763,4|0,0:0|0:0,0:0:0:0:
484,192,13872,2,0,P|443:187|403:184,1,80.9999975280763
252,244,14182,2,0,P|194:253|116:260,1,121.499996292114,8|0,0:0|0:0,0:0:0:0:
92,244,14493,1,0,0:0:0:0:
176,144,14649,1,0,0:0:0:0:
314,179,14804,6,0,P|350:256|318:344,1,161.999995056153,6|0,0:0|0:0,0:0:0:0:
112,288,15271,1,0,0:0:0:0:
112,288,15348,1,0,0:0:0:0:
112,288,15426,1,8,0:0:0:0:
252,244,15581,1,0,0:0:0:0:
96,288,15737,1,2,0:0:0:0:
331,327,15892,1,0,0:0:0:0:
140,180,16048,6,0,P|48:180|12:248,2,161.999995056153,6|2|8,0:0|0:0|0:0,0:0:0:0:
212,336,16825,1,0,0:0:0:0:
212,336,16903,1,0,0:0:0:0:
212,336,16980,1,0,0:0:0:0:
260,216,17136,1,2,0:0:0:0:
100,272,17291,6,0,P|96:316|104:356,1,80.9999975280763,2|0,0:0|0:0,0:0:0:0:
360,344,17602,2,0,P|308:360|228:348,1,121.499996292114,2|0,0:0|0:0,0:0:0:0:
212,336,17913,1,8,0:0:0:0:
260,216,18069,1,0,0:0:0:0:
96,124,18224,1,0,0:0:0:0:
152,240,18379,1,0,0:0:0:0:
152,240,18457,1,0,0:0:0:0:
152,240,18535,5,8,0:0:0:0:
200,76,18690,1,2,0:0:0:0:
152,240,18846,1,2,0:0:0:0:
80,132,19001,5,8,0:0:0:0:
272,208,19157,1,2,0:0:0:0:
80,132,19312,1,2,0:0:0:0:
156,256,19467,5,8,0:0:0:0:
244,92,19623,2,0,P|336:82|420:80,1,161.999995056153,2|0,0:0|0:0,0:0:0:0:
480,152,20089,1,8,0:0:0:0:
416,276,20245,1,0,0:0:0:0:
416,276,20322,1,0,0:0:0:0:
416,276,20400,5,8,0:0:0:0:
272,208,20556,1,8,0:0:0:0:
428,268,20711,1,8,0:0:0:0:
260,216,20866,2,0,P|240:280|264:332,1,121.499996292114,4|0,0:0|0:0,0:0:0:0:
328,364,21177,1,0,0:0:0:0:
160,280,21333,2,0,P|123:292|76:296,1,80.9999975280763,2|0,0:0|0:0,0:0:0:0:
8,112,21644,6,0,P|68:99|132:104,1,121.499996292114,8|0,0:0|0:0,0:0:0:0:
168,120,21955,2,0,L|172:28,1,80.9999975280763
76,188,22265,1,2,0:0:0:0:
256,152,22421,2,0,P|328:176|424:152,1,161.999995056153,2|0,0:0|0:0,0:0:0:0:
480,68,22887,5,8,0:0:0:0:
452,284,23043,1,2,0:0:0:0:
452,284,23353,2,0,B|396:272|396:272|312:296,1,121.499996292114,4|0,0:0|0:0,0:0:0:0:
264,320,23664,1,0,0:0:0:0:
352,184,23820,2,0,L|356:92,1,80.9999975280763,2|0,0:0|0:0,0:0:0:0:
212,44,24131,6,8,B|168:56|120:40|120:40|132:84,1,121.499996292114,8|0,0:0|0:0,0:0:0:0:
140,116,24442,2,0,L|52:112,1,80.9999975280763
12,224,24752,1,2,0:0:0:0:
80,328,24908,1,2,0:0:0:0:
196,288,25063,1,0,0:0:0:0:
72,340,25219,1,2,0:0:0:0:
188,300,25374,5,8,0:0:0:0:
12,224,25530,1,8,0:0:0:0:
12,224,25685,1,8,0:0:0:0:
136,36,25841,2,0,P|129:119|128:205,1,161.999995056153,4|0,0:0|0:0,0:0:0:0:
296,332,26307,2,0,P|340:330|384:324,1,80.9999975280763,2|0,0:0|0:0,0:0:0:0:
460,196,26618,5,8,0:0:0:0:
304,124,26773,1,0,0:0:0:0:
328,244,26929,5,2,0:0:0:0:
488,188,27084,1,2,0:0:0:0:
460,304,27239,5,0,0:0:0:0:
304,236,27395,1,8,0:0:0:0:
476,312,27550,2,0,L|388:332,1,80.9999975280763,2|0,0:0|0:0,0:0:0:0:
397,329,27784,1,0,0:0:0:0:
397,329,27861,5,8,0:0:0:0:
332,236,28017,1,2,0:0:0:0:
396,352,28172,1,0,0:0:0:0:
488,148,28328,2,0,B|432:132|432:132|408:100|408:100|340:84,1,161.999995056153,4|2,0:0|0:0,0:0:0:0:
128,128,28794,2,0,P|120:84|136:32,1,80.9999975280763
256,160,29105,1,8,0:0:0:0:
0,108,29260,1,2,0:0:0:0:
136,24,29416,1,2,0:0:0:0:
60,276,29571,6,0,P|140:296|244:296,1,161.999995056153,4|2,0:0|0:0,0:0:0:0:
380,272,30037,1,2,0:0:0:0:
276,180,30193,1,0,0:0:0:0:
276,180,30271,1,0,0:0:0:0:
276,180,30348,1,8,0:0:0:0:
324,356,30504,1,8,0:0:0:0:
472,248,30659,1,8,0:0:0:0:
316,368,30815,1,8,0:0:0:0:
364,156,30970,6,0,P|328:100|216:108,2,161.999995056153,4|2|8,0:0|0:0|0:0,0:0:0:0:
264,284,31747,1,2,0:0:0:0:
264,284,32058,2,0,B|212:288|176:268|176:268|120:288,1,121.499996292114,4|0,0:0|0:0,0:0:0:0:
116,296,32369,1,2,0:0:0:0:
16,264,32524,1,0,0:0:0:0:
40,368,32680,1,0,0:0:0:0:
104,196,32835,6,0,P|104:140|100:104,1,80.9999975280763,8|0,0:0|0:0,0:0:0:0:
44,28,33146,1,2,0:0:0:0:
200,96,33302,2,0,P|308:93|388:80,1,161.999995056153,4|0,0:0|0:0,0:0:0:0:
492,36,33768,1,2,0:0:0:0:
448,196,33923,1,2,0:0:0:0:
380,80,34079,5,8,0:0:0:0:
464,220,34234,1,2,0:0:0:0:
308,168,34390,1,0,0:0:0:0:
368,316,34545,2,0,P|290:317|196:304,1,161.999995056153,8|2,0:0|0:0,0:0:0:0:
152,136,35012,2,0,P|212:136|280:148,1,121.499996292114,2|0,0:0|0:0,0:0:0:0:
308,168,35322,1,8,0:0:0:0:
160,236,35478,1,2,0:0:0:0:
200,44,35633,1,2,0:0:0:0:
308,168,35789,1,6,0:0:0:0:
220,320,35944,6,0,P|176:332|136:336,1,80.9999975280763,8|0,0:0|0:0,0:0:0:0:
12,172,36255,2,0,P|52:176|91:187,1,80.9999975280763,8|0,0:0|0:0,0:0:0:0:
256,252,36566,2,0,P|239:215|229:176,1,80.9999975280763,8|0,0:0|0:0,0:0:0:0:
188,20,36877,2,0,P|164:52|135:80,1,80.9999975280763,8|0,0:0|0:0,0:0:0:0:
229,176,37188,6,0,P|270:184|312:184,1,80.9999975280763,8|0,0:0|0:0,0:0:0:0:
452,36,37499,2,0,P|412:40|368:52,1,80.9999975280763,8|0,0:0|0:0,0:0:0:0:
440,188,37809,1,8,0:0:0:0:
316,288,37965,1,8,0:0:0:0:
276,100,38120,1,8,0:0:0:0:
440,188,38276,6,0,P|432:240|436:352,1,161.999995056153,8|0,0:0|0:0,0:0:0:0:
316,288,38742,2,0,P|256:280|204:312,1,121.499996292114,8|0,0:0|0:0,0:0:0:0:
176,340,39053,1,2,0:0:0:0:
80,264,39208,1,0,0:0:0:0:
144,160,39364,2,0,P|182:173|228:176,1,80.9999975280763,8|0,0:0|0:0,0:0:0:0:
360,88,39675,5,2,0:0:0:0:
316,288,39830,1,2,0:0:0:0:
440,188,39986,1,0,0:0:0:0:
