osu file format v14

[General]
AudioFilename: wonder stella.mp3
AudioLeadIn: 700
PreviewTime: 57459
Countdown: 0
SampleSet: Soft
StackLeniency: 0.7
Mode: 0
LetterboxInBreaks: 0
WidescreenStoryboard: 0

[Editor]
DistanceSpacing: 1.3
BeatDivisor: 4
GridSize: 4
TimelineZoom: 2

[Metadata]
Title:Wonder Stella
TitleUnicode:ワンダーステラ
Artist:fhana
ArtistUnicode:fhána
Creator:eINess
Version:Expert
Source:Fate/kaleid liner プリズマイリヤ ツヴァイ ヘルツ!
Tags:Opening Prisma Illya 2wei! Xinely Momochikun Pho Flask kawaiwkyik Rizia Norman
BeatmapID:758070
BeatmapSetID:343020

[Difficulty]
HPDrainRate:7
CircleSize:4.3
OverallDifficulty:8.1
ApproachRate:9.3
SliderMultiplier:1.98
SliderTickRate:1

[Events]
//Background and Video events
Video,0,"video-stella.avi"
0,0,"BG0100.png",0,0
//Break Periods
//Storyboard Layer 0 (Background)
//Storyboard Layer 1 (Fail)
//Storyboard Layer 2 (Pass)
//Storyboard Layer 3 (Foreground)
//Storyboard Sound Samples

[TimingPoints]
879,310.880829015544,4,2,2,30,1,0
879,-111.111111111111,4,2,2,30,0,0
10205,-111.111111111111,4,2,1,40,0,0
10827,-90.9090909090909,4,2,1,50,0,1
20619,-111.111111111111,4,2,1,40,0,0
22485,-111.111111111111,4,2,2,40,0,0
22640,-111.111111111111,4,2,1,40,0,0
22796,-111.111111111111,4,2,2,40,0,0
22951,-111.111111111111,4,2,1,40,0,0
26215,-111.111111111111,4,2,2,40,0,0
26371,-111.111111111111,4,2,1,40,0,0
29946,-111.111111111111,4,2,2,40,0,0
30101,-111.111111111111,4,2,1,40,0,0
38029,-100,4,2,1,50,0,0
48132,-142.857142857143,4,2,1,40,0,0
53106,-111.111111111111,4,2,1,50,0,0
56837,-142.857142857143,4,2,1,40,0,0
57148,-71.4285714285714,4,2,2,60,0,0
57459,-125,4,2,1,20,0,0
57770,-100,4,2,1,30,0,0
58081,-83.3333333333333,4,2,1,60,0,1
66630,-71.4285714285714,4,2,1,60,0,0
66941,-55.5555555555556,4,2,1,60,0,0
67252,-111.111111111111,4,2,1,60,0,0
67718,-95.2380952380952,4,2,1,60,0,0
68029,-83.3333333333333,4,2,1,60,0,1
76578,-71.4285714285714,4,2,1,60,0,0
76889,-55.5555555555556,4,2,1,60,0,0
77200,-111.111111111111,4,2,1,60,0,0
77666,-125,4,2,1,60,0,0
77977,-100,4,2,1,60,0,0
86604,-100,4,2,1,40,0,0
87303,-100,4,2,1,30,0,0
87770,-100,4,2,2,20,0,0

[Colours]
Combo1 : 255,0,128
Combo2 : 0,128,255
Combo3 : 255,128,255
Combo4 : 128,128,192
Combo5 : 255,128,64
Combo6 : 128,64,64

[HitObjects]
160,176,879,6,0,B|216:168|216:168|280:184|280:184|368:168,1,178.199994561768,6|0,0:0|0:0,0:0:0:0:
216,88,1345,2,0,L|112:104,1,89.0999972808839,0|2,0:0|0:0,0:0:0:0:
272,208,1656,2,0,L|360:194,1,89.0999972808839
412,312,1967,1,0,0:0:0:0:
216,352,2122,6,0,P|200:288|216:240,2,89.0999972808839,2|0|0,0:0|0:0|0:0,0:0:0:0:
456,248,2744,2,0,L|440:136,1,89.0999972808839,2|0,0:3|0:0,0:0:0:0:
284,119,3055,2,0,L|272:208,1,89.0999972808839
360,72,3366,6,0,P|304:32|200:88,1,178.199994561768,6|0,0:0|0:0,0:0:0:0:
136,220,3832,2,0,B|272:208|272:208|239:234,1,178.199994561768,2|0,0:0|0:0,0:0:0:0:
136,340,4298,1,0,0:0:0:0:
36,248,4454,6,0,B|24:176|72:140|72:140|92:112|56:64,1,178.199994561768,2|0,0:0|0:0,0:0:0:0:
136,220,4920,1,0,0:0:0:0:
236,208,5231,2,0,L|146:204,1,89.0999972808839,2|4,0:3|0:3,0:0:0:0:
164,360,5542,2,0,L|289:352,1,89.0999972808839
336,192,5853,6,0,L|148:188,1,178.199994561768,6|0,0:0|0:0,0:0:0:0:
72,272,6319,1,0,0:0:0:0:
0,116,6474,2,0,B|44:60|128:84|128:84|88:32,1,178.199994561768,2|0,0:0|0:0,0:0:0:0:
216,152,6941,6,0,P|232:108|224:48,1,89.0999972808839,4|0,0:3|0:0,0:0:0:0:
388,180,7252,2,0,P|341:187|293:223,1,89.0999972808839
328,28,7562,2,0,P|358:63|415:85,1,89.0999972808839,0|2,0:0|0:3,0:0:0:0:
228,232,7873,1,0,0:0:0:0:
444,260,8029,1,0,0:0:0:0:
312,348,8184,1,0,0:0:0:0:
140,208,8340,6,0,P|172:160|304:188,1,178.199994561768,6|0,0:0|0:0,0:0:0:0:
240,324,8806,1,0,0:0:0:0:
56,264,8961,2,0,B|48:192|48:192|56:152|56:152|44:64,1,178.199994561768,2|0,0:0|0:0,0:0:0:0:
140,208,9428,6,0,L|150:297,1,89.0999972808839,4|0,0:3|0:0,0:0:0:0:
240,152,9739,2,0,L|250:63,1,89.0999972808839
316,232,10049,1,2,0:1:0:0:
272,40,10205,1,8,0:0:0:0:
124,128,10360,1,2,0:0:0:0:
368,120,10516,1,8,0:0:0:0:
216,248,10671,1,8,0:0:0:0:
212,256,10749,1,8,0:0:0:0:
208,264,10827,6,0,L|212:376,1,108.900003323364,6|0,0:0|0:0,0:0:0:0:
400,200,11138,2,0,P|376:164|304:144,1,108.900003323364,8|0,0:0|0:0,0:0:0:0:
139,207,11448,1,2,0:0:0:0:
316,232,11604,1,0,0:0:0:0:
132,236,11759,1,8,0:0:0:0:
320,204,11915,1,0,0:0:0:0:
124,128,12070,6,0,L|15:118,1,108.900003323364,2|2,0:0|0:0,0:0:0:0:
264,40,12381,2,0,L|148:52,1,108.900003323364,8|0,0:0|0:0,0:0:0:0:
344,120,12692,2,0,L|464:104,1,108.900003323364,6|2,0:0|0:0,0:0:0:0:
320,204,13003,1,8,0:0:0:0:
364,36,13158,1,2,0:0:0:0:
504,160,13314,6,0,P|516:220|504:284,1,108.900003323364,6|0,0:0|0:0,0:0:0:0:
384,376,13625,2,0,B|368:312|368:312|376:256,1,108.900003323364,8|0,0:0|0:0,0:0:0:0:
344,120,13935,2,0,P|268:128|232:108,1,108.900003323364,2|2,0:0|0:0,0:0:0:0:
168,264,14246,2,0,P|244:256|280:276,1,108.900003323364,8|0,0:0|0:0,0:0:0:0:
129,360,14557,6,0,P|63:280|102:183,1,217.800006646729,6|8,0:0|0:0,0:0:0:0:
276,148,15024,1,0,0:0:0:0:
276,148,15101,1,0,0:0:0:0:
276,148,15179,2,0,L|168:140,1,108.900003323364,6|2,0:0|0:0,0:0:0:0:
328,32,15490,1,8,0:0:0:0:
132,72,15645,1,2,0:0:0:0:
360,48,15801,6,0,L|468:41,1,108.900003323364,6|0,0:0|0:0,0:0:0:0:
304,168,16112,2,0,L|196:160,1,108.900003323364,8|0,0:0|0:0,0:0:0:0:
376,248,16423,2,0,L|484:241,1,108.900003323364,2|2,0:0|0:0,0:0:0:0:
320,368,16733,2,0,L|212:360,1,108.900003323364,8|0,0:0|0:0,0:0:0:0:
44,304,17044,5,2,0:0:0:0:
228,240,17200,1,2,0:0:0:0:
8,216,17355,1,8,0:0:0:0:
196,348,17511,1,0,0:0:0:0:
176,164,17666,2,0,L|184:48,1,108.900003323364,6|8,0:0|0:0,0:0:0:0:
116,232,17977,1,8,0:3:0:0:
288,176,18132,1,2,0:0:0:0:
399,320,18288,6,0,B|343:360|267:320|267:320|237:349|195:347,1,217.800006646729,6|8,0:0|0:0,0:0:0:0:
8,216,18754,2,0,B|64:256|140:216|140:216|170:245|211:243,1,217.800006646729,6|2,0:0|0:0,0:0:0:0:
260,104,19220,1,2,0:0:0:0:
88,60,19376,6,0,P|24:128|108:148,1,217.800006646729,6|2,0:0|0:0,0:0:0:0:
224,32,19842,1,8,0:0:0:0:
288,176,19998,1,2,0:0:0:0:
288,176,20075,1,2,0:0:0:0:
288,176,20153,1,2,0:0:0:0:
136,140,20309,1,2,0:0:0:0:
304,36,20464,1,8,0:0:0:0:
380,184,20619,6,0,B|384:236|384:236|356:308|356:308|360:368,1,178.199994561768,6|0,0:0|0:0,0:0:0:0:
184,212,21086,2,0,P|244:200|292:220,1,89.0999972808839,8|0,0:0|0:0,0:0:0:0:
152,352,21397,2,0,P|92:364|44:344,1,89.0999972808839,2|0,0:0|0:0,0:0:0:0:
8,208,21708,2,0,L|0:320,1,89.0999972808839,0|2,0:0|0:0,0:0:0:0:
160,236,22018,6,0,L|140:48,1,178.199994561768,2|2,0:0|0:0,0:0:0:0:
276,104,22485,2,0,P|324:112|368:80,1,89.0999972808839,2|8,0:0|0:0,0:0:0:0:
476,200,22796,2,0,P|424:196|380:228,1,89.0999972808839,2|0,0:0|0:0,0:0:0:0:
280,356,23106,6,0,B|259:276|259:276|248:256|248:256|248:232|248:232|232:176,1,178.199994561768,6|2,0:0|0:0,0:0:0:0:
76,120,23573,2,0,P|128:112|188:128,1,89.0999972808839,2|0,0:0|0:0,0:0:0:0:
360,64,23884,2,0,P|308:56|248:72,1,89.0999972808839,8|0,0:0|0:0,0:0:0:0:
324,212,24195,1,0,0:0:0:0:
440,120,24350,1,2,0:0:0:0:
512,256,24505,6,0,P|496:332|384:316,1,178.199994561768,2|2,0:0|0:0,0:0:0:0:
420,204,24972,1,2,0:0:0:0:
280,356,25127,2,0,P|232:320|232:280,1,89.0999972808839,6|8,0:0|0:0,0:0:0:0:
400,312,25438,1,2,0:0:0:0:
172,372,25594,6,0,P|148:312|216:208,1,178.199994561768,6|2,0:0|0:0,0:0:0:0:
36,152,26060,2,0,L|148:156,1,89.0999972808839,8|2,0:0|0:0,0:0:0:0:
272,32,26371,1,8,0:0:0:0:
320,192,26526,1,2,0:0:0:0:
480,112,26682,2,0,P|431:105|387:113,1,89.0999972808839,0|2,0:0|0:0,0:0:0:0:
392,271,26992,6,0,P|436:278|480:272,1,89.0999972808839,6|2,0:0|0:0,0:0:0:0:
248,140,27303,2,0,P|232:176|244:244,1,89.0999972808839,2|0,0:0|0:0,0:0:0:0:
344,380,27614,1,2,0:0:0:0:
180,316,27770,2,0,L|90:319,1,89.0999972808839,2|8,0:0|0:0,0:0:0:0:
40,144,28081,6,0,B|126:146|126:146|160:136|160:136|248:140,1,178.199994561768,6|2,0:0|0:0,0:0:0:0:
396,72,28547,2,0,P|360:32|324:112,1,178.199994561768,2|8,0:0|0:0,0:0:0:0:
488,252,29013,1,2,0:0:0:0:
512,104,29169,1,2,0:0:0:0:
332,236,29324,6,0,L|236:224,1,89.0999972808839,6|0,0:0|0:0,0:0:0:0:
372,316,29635,1,2,0:0:0:0:
236,152,29790,1,8,0:0:0:0:
160,320,29946,1,2,0:0:0:0:
332,236,30101,1,2,0:0:0:0:
168,344,30257,1,2,0:0:0:0:
72,160,30412,1,8,0:0:0:0:
240,184,30568,1,2,0:0:0:0:
9,225,30723,6,0,P|-13:188|-16:144,1,89.0999972808839,6|0,0:0|0:0,0:0:0:0:
168,52,31034,2,0,P|164:95|140:133,1,89.0999972808839,2|0,0:0|0:0,0:0:0:0:
32,28,31345,1,8,0:0:0:0:
244,96,31500,1,2,0:0:0:0:
252,108,31811,6,0,L|452:100,1,178.199994561768,6|8,0:0|0:0,0:0:0:0:
504,256,32277,2,0,P|512:208|496:156,1,89.0999972808839,2|0,0:0|0:0,0:0:0:0:
360,68,32588,1,8,0:0:0:0:
420,212,32744,1,0,0:0:0:0:
240,144,32899,1,2,0:0:0:0:
140,244,33055,6,0,B|120:300|148:344|148:344|184:368|232:344,1,178.199994561768,6|2,0:0|0:0,0:0:0:0:
256,184,33521,1,8,0:0:0:0:
64,220,33676,2,0,P|52:288|60:344,1,89.0999972808839,2|8,0:0|0:0,0:0:0:0:
256,228,33987,1,0,0:0:0:0:
120,156,34143,1,2,0:0:0:0:
224,52,34298,6,0,P|275:47|344:76,1,89.0999972808839,6|2,0:0|0:0,0:0:0:0:
400,188,34609,1,0,0:0:0:0:
488,36,34765,2,0,B|495:78|495:78|488:136,1,89.0999972808839,2|0,0:0|0:0,0:0:0:0:
320,60,35075,1,8,0:0:0:0:
248,248,35231,1,8,0:0:0:0:
440,208,35386,1,2,0:0:0:0:
240,268,35542,6,0,B|180:262|180:262|117:278|117:278|44:272,1,178.199994561768,6|0,0:0|0:0,0:0:0:0:
284,352,36008,2,0,L|195:345,1,89.0999972808839,2|0,0:0|0:0,0:0:0:0:
104,196,36319,2,0,L|15:189,1,89.0999972808839,2|0,0:0|0:0,0:0:0:0:
199,62,36630,2,0,P|200:106|184:148,1,89.0999972808839,8|0,0:0|0:0,0:0:0:0:
347,86,36941,6,0,P|307:66|280:32,1,89.0999972808839,2|0,0:0|0:0,0:0:0:0:
251,203,37252,2,0,P|288:179|332:172,1,89.0999972808839,2|0,0:0|0:0,0:0:0:0:
512,280,37562,1,8,0:0:0:0:
328,276,37718,1,8,0:0:0:0:
476,180,37873,1,8,0:0:0:0:
360,360,38029,6,0,B|292:384|248:320|248:320|224:344|168:344,1,198,6|0,0:0|0:0,0:0:0:0:
4,244,38495,2,0,P|49:225|98:227,1,99,8|0,0:0|0:0,0:0:0:0:
28,344,38806,1,2,0:0:0:0:
189,253,38961,2,0,L|200:140,1,99,2|8,0:0|0:0,0:0:0:0:
328,276,39272,1,0,0:0:0:0:
420,120,39428,6,0,P|376:112|304:132,1,99,6|0,0:0|0:0,0:0:0:0:
468,216,39739,1,8,0:0:0:0:
296,292,39894,2,0,B|284:244|284:244|292:164,1,99,2|0,0:0|0:0,0:0:0:0:
176,52,40205,2,0,B|188:100|188:100|180:180,1,99,2|8,0:0|0:0,0:0:0:0:
4,244,40516,6,0,B|56:216|112:252|112:252|168:276|212:240,1,198,6|2,0:0|0:0,0:0:0:0:
52,336,40982,1,8,0:0:0:0:
151,169,41138,1,2,0:0:0:0:
296,292,41293,2,0,P|352:296|432:268,1,99,2|0,0:0|0:0,0:0:0:0:
272,140,41604,1,8,0:0:0:0:
448,96,41759,6,0,L|444:200,1,99,0|2,0:0|0:0,0:0:0:0:
204,80,42070,2,0,P|248:52|324:68,1,99,2|8,0:0|0:0,0:0:0:0:
436,212,42381,1,0,0:0:0:0:
272,140,42537,1,2,0:0:0:0:
224,316,42692,1,2,0:0:0:0:
176,104,42847,1,8,0:0:0:0:
344,216,43003,1,2,0:0:0:0:
126,279,43158,6,0,B|88:260|88:260|56:216|67:159,1,148.5,6|0,0:0|0:0,0:0:0:0:
88,84,43469,2,0,P|40:84|1:113,1,99,8|0,0:0|0:0,0:0:0:0:
180,204,43780,1,2,0:0:0:0:
43,316,43935,2,0,P|14:276|0:229,1,99,10|8,0:0|0:0,0:0:0:0:
208,132,44246,6,0,P|252:176|252:228,1,99,0|2,0:0|0:0,0:0:0:0:
156,356,44557,2,0,P|182:299|231:281,1,99,2|8,0:0|0:0,0:0:0:0:
392,288,44868,2,0,P|331:300|287:272,1,99,0|2,0:0|0:0,0:0:0:0:
180,204,45179,1,2,0:0:0:0:
312,64,45334,1,8,0:0:0:0:
348,228,45490,1,2,0:0:0:0:
184,116,45645,6,0,L|28:112,1,148.5,6|0,0:0|0:0,0:0:0:0:
16,40,45956,2,0,L|136:44,1,99,8|0,0:0|0:0,0:0:0:0:
180,204,46267,1,2,0:0:0:0:
292,48,46423,1,2,0:0:0:0:
444,140,46578,1,8,0:0:0:0:
297,285,46733,6,0,P|278:195|360:152,1,198,6|2,0:0|0:0,0:0:0:0:
424,348,47200,2,0,B|352:348|352:348|316:324|316:324|220:324,1,198,8|2,0:0|0:0,0:0:0:0:
408,228,47666,1,2,0:0:0:0:
180,204,47822,1,8,0:0:0:0:
356,120,47977,1,2,0:0:0:0:
297,285,48132,6,0,L|301:369,1,69.2999978851319,6|0,0:0|0:0,0:0:0:0:
152,292,48443,2,0,L|155:222,1,69.2999978851319,8|0,0:0|0:0,0:0:0:0:
80,352,48754,2,0,P|24:336|0:252,1,138.599995770264,2|2,0:0|0:0,0:0:0:0:
180,204,49220,1,0,0:0:0:0:
72,80,49376,5,2,0:0:0:0:
56,188,49531,1,2,0:0:0:0:
192,36,49687,1,8,0:0:0:0:
212,184,49842,1,0,0:0:0:0:
324,104,49998,2,0,P|384:84|412:92,1,69.2999978851319,2|0,0:0|0:0,0:0:0:0:
472,228,50309,2,0,P|442:244|407:247,1,69.2999978851319,8|0,0:0|0:0,0:0:0:0:
235,165,50619,6,0,L|232:304,1,138.599995770264,6|8,0:0|0:0,0:0:0:0:
336,212,51086,1,0,0:0:0:0:
155,284,51241,2,0,P|121:282|91:265,1,69.2999978851319,2|2,0:0|0:0,0:0:0:0:
64,144,51552,1,8,0:0:0:0:
80,344,51708,6,0,P|28:308|32:216,1,138.599995770264,6|0,0:0|0:0,0:0:0:0:
80,96,52174,1,2,0:0:0:0:
76,108,52252,1,0,0:0:0:0:
72,120,52329,1,0,0:0:0:0:
68,132,52407,1,0,0:0:0:0:
64,144,52485,1,8,0:0:0:0:
196,68,52640,1,2,0:0:0:0:
32,28,52796,1,8,0:0:0:0:
128,192,52951,1,8,0:0:0:0:
292,120,53106,6,0,L|284:16,1,89.0999972808839,6|0,0:0|0:0,0:0:0:0:
420,140,53417,1,8,0:0:0:0:
320,248,53573,2,0,P|260:236|204:248,1,89.0999972808839,0|2,0:0|0:0,0:0:0:0:
424,344,53884,2,0,P|344:356|308:344,1,89.0999972808839,2|8,0:0|0:0,0:0:0:0:
144,300,54195,6,0,L|160:84,1,178.199994561768,6|0,0:0|0:0,0:0:0:0:
323,27,54661,2,0,P|367:83|275:103,1,178.199994561768,2|8,0:0|0:0,0:0:0:0:
88,68,55127,1,2,0:0:0:0:
248,36,55283,1,8,0:0:0:0:
292,216,55438,6,0,B|228:204|228:204|180:212|180:212|92:192,1,178.199994561768,6|2,0:0|0:0,0:0:0:0:
224,296,55904,1,8,0:0:0:0:
24,300,56060,2,0,B|7:234|7:234|32:116,1,178.199994561768,6|2,0:0|0:0,0:0:0:0:
108,232,56526,1,8,0:0:0:0:
152,48,56682,1,2,0:0:0:0:
304,132,56837,6,0,P|352:124|348:76,1,103.949996827698,2|0,0:0|0:0,0:0:0:0:
312,204,57148,6,0,P|396:176|404:40,1,207.899993655396,2|0,0:0|0:0,0:0:0:0:
416,52,57459,6,0,L|496:44,1,79.2
304,132,57770,6,0,L|192:124,1,99
24,240,58081,6,0,P|88:212|160:288,1,178.199994561768,6|0,0:0|0:0,0:0:0:0:
84,288,58391,1,8,0:0:0:0:
244,356,58547,2,0,B|312:352|312:352|380:312,1,118.799996374512,0|2,0:0|0:0,0:0:0:0:
296,168,58858,1,0,0:0:0:0:
496,124,59013,1,8,0:0:0:0:
384,260,59169,1,2,0:0:0:0:
412,52,59324,5,0,0:0:0:0:
480,228,59480,1,2,0:0:0:0:
312,96,59635,2,0,P|256:104|224:180,1,118.799996374512,8|0,0:0|0:0,0:0:0:0:
156,328,59946,2,0,B|172:268|172:268|144:152,1,178.199994561768,2|0,0:0|0:0,0:0:0:0:
72,148,60257,2,0,L|104:288,1,118.799996374512,8|0,0:0|0:0,0:0:0:0:
279,354,60568,6,0,P|362:341|384:260,1,178.199994561768,6|0,0:0|0:0,0:0:0:0:
312,284,60879,1,8,0:0:0:0:
480,228,61034,2,0,B|488:160|488:160|464:100,1,118.799996374512,0|2,0:0|0:0,0:0:0:0:
328,208,61345,1,0,0:0:0:0:
368,24,61500,1,8,0:0:0:0:
244,136,61656,1,2,0:0:0:0:
460,100,61811,5,0,0:0:0:0:
280,60,61967,1,2,0:0:0:0:
452,88,62122,1,8,0:0:0:0:
324,248,62277,1,2,0:0:0:0:
144,144,62433,2,0,L|132:16,1,118.799996374512,2|0,0:0|0:0,0:0:0:0:
16,264,62744,2,0,L|28:136,1,118.799996374512,8|0,0:0|0:0,0:0:0:0:
92,336,63055,6,0,B|156:348|196:312|196:312|228:340|280:332,1,178.199994561768,6|0,0:0|0:0,0:0:0:0:
320,288,63366,2,0,P|384:280|456:312,1,118.799996374512,8|0,0:0|0:0,0:0:0:0:
248,192,63676,2,0,L|268:56,1,118.799996374512,2|2,0:0|0:0,0:0:0:0:
160,240,63987,1,8,0:0:0:0:
344,160,64143,6,0,P|407:173|464:226,1,118.799996374512,6|0,0:0|0:0,0:0:0:0:
288,336,64454,2,0,L|276:200,1,118.799996374512,2|8,0:0|0:0,0:0:0:0:
96,172,64765,2,0,L|85:290,1,118.799996374512,2|2,0:0|0:0,0:0:0:0:
196,160,65075,1,0,0:0:0:0:
28,96,65231,1,8,0:0:0:0:
60,304,65386,1,0,0:0:0:0:
244,232,65542,6,0,B|296:228|296:228|368:240|368:240|432:232,1,178.199994561768,6|0,0:0|0:0,0:0:0:0:
492,224,65853,1,8,0:0:0:0:
324,312,66008,1,0,0:0:0:0:
392,156,66163,2,0,L|376:20,1,118.799996374512,2|2,0:0|0:0,0:0:0:0:
316,192,66474,1,8,0:0:0:0:
208,48,66630,6,0,P|64:44|8:128,1,207.899993655396,6|2,0:0|0:0,0:0:0:0:
92,120,66941,6,0,P|184:128|88:184,1,267.299991842652,12|0,0:0|0:0,0:0:0:0:
32,236,67252,6,0,B|12:296|12:296|24:372|24:372|48:324,1,178.199994561768,6|2,0:0|0:0,0:0:0:0:
136,155,67718,2,0,L|264:160,1,103.949996827698,2|0,0:0|0:0,0:0:0:0:
432,248,68029,6,0,B|368:235|331:286|331:286|295:256|231:279,1,178.199994561768,6|0,0:0|0:0,0:0:0:0:
284,346,68340,1,8,0:0:0:0:
336,180,68495,2,0,P|412:164|476:180,1,118.799996374512,0|2,0:0|0:0,0:0:0:0:
260,156,68806,1,2,0:0:0:0:
384,32,68961,1,8,0:0:0:0:
480,152,69117,1,2,0:0:0:0:
316,96,69272,5,0,0:0:0:0:
432,248,69428,1,2,0:0:0:0:
236,192,69583,2,0,B|226:146|226:146|244:48,1,118.799996374512,8|2,0:0|0:0,0:0:0:0:
84,40,69894,2,0,B|93:85|93:85|80:156,1,118.799996374512,2|0,0:0|0:0,0:0:0:0:
24,336,70205,2,0,P|92:296|152:320,1,118.799996374512,8|0,0:0|0:0,0:0:0:0:
353,349,70516,6,0,B|296:368|296:368|178:357,1,178.199994561768,6|0,0:0|0:0,0:0:0:0:
127,303,70827,2,0,P|116:232|144:168,1,118.799996374512,8|0,0:0|0:0,0:0:0:0:
344,128,71138,1,2,0:0:0:0:
256,284,71293,1,2,0:0:0:0:
160,124,71448,1,8,0:0:0:0:
396,204,71604,1,2,0:0:0:0:
236,256,71759,5,0,0:0:0:0:
416,232,71915,1,2,0:0:0:0:
216,232,72070,2,0,L|68:224,1,118.799996374512,8|2,0:0|0:0,0:0:0:0:
344,128,72381,2,0,L|225:134,1,118.799996374512,2|0,0:0|0:0,0:0:0:0:
394,314,72692,2,0,L|276:308,1,118.799996374512,8|0,0:0|0:0,0:0:0:0:
40,356,73003,5,6,0:0:0:0:
140,296,73158,2,0,L|124:152,1,118.799996374512,0|8,0:0|0:0,0:0:0:0:
232,336,73469,1,0,0:0:0:0:
20,272,73625,1,2,0:0:0:0:
20,272,73702,1,0,0:0:0:0:
20,272,73780,1,2,0:0:0:0:
140,152,73935,1,8,0:0:0:0:
308,276,74091,6,0,B|320:276|320:276|348:288|364:272|364:272|396:324|472:324|500:280|508:232,1,237.599992749024,6|2,0:0|0:0,0:0:0:0:
444,72,74557,1,8,0:0:0:0:
429,232,74713,1,2,0:0:0:0:
292,144,74868,2,0,L|308:16,1,118.799996374512,2|0,0:0|0:0,0:0:0:0:
119,195,75179,2,0,P|174:217|230:202,1,118.799996374512,8|0,0:0|0:0,0:0:0:0:
144,44,75490,5,6,0:0:0:0:
4,152,75645,2,0,L|12:308,1,118.799996374512,0|8,0:0|0:0,0:0:0:0:
140,360,75956,1,0,0:0:0:0:
230,203,76112,2,0,P|176:181|119:196,1,118.799996374512,2|2,0:0|0:0,0:0:0:0:
280,320,76423,1,8,0:0:0:0:
364,184,76578,6,0,B|360:140|360:140|368:112|368:112|352:72|364:28|364:28|408:88,1,207.899993655396,6|0,0:0|0:0,0:0:0:0:
330,104,76889,6,0,B|296:128|260:104|260:104|244:116|244:116|208:92|164:112|164:112|164:76|188:56|188:56|200:44|224:52,1,267.299991842652,12|0,0:0|0:0,0:0:0:0:
220,120,77200,6,0,B|208:152|232:192|232:192|224:228|224:228|256:272|232:316,1,178.199994561768,6|2,0:0|0:0,0:0:0:0:
73,288,77666,2,0,L|152:280,1,79.2,2|0,0:0|0:0,0:0:0:0:
380,344,77977,6,0,P|468:332|432:240,2,198,6|8|2,0:0|0:0|0:0,0:0:0:0:
360,332,78910,1,2,0:0:0:0:
208,364,79065,1,0,0:0:0:0:
112,228,79220,6,0,P|104:164|120:108,1,99,2|0,0:0|0:0,0:0:0:0:
280,56,79531,2,0,L|156:60,1,99,2|0,0:0|0:0,0:0:0:0:
132,248,79842,2,0,L|280:260,1,148.5,8|0,0:0|0:0,0:0:0:0:
344,292,80153,1,2,0:0:0:0:
208,364,80309,1,8,0:0:0:0:
240,184,80464,6,0,L|338:194,1,99,6|0,0:0|0:0,0:0:0:0:
100,68,80775,2,0,B|228:60|228:60|188:92,1,148.5,2|0,0:0|0:0,0:0:0:0:
168,136,81086,2,0,L|36:144,1,99,8|0,0:0|0:0,0:0:0:0:
168,264,81397,1,2,0:0:0:0:
296,100,81552,6,0,P|392:100|432:192,1,198,6|2,0:0|0:0,0:0:0:0:
264,260,82018,1,8,0:0:0:0:
344,176,82174,1,0,0:0:0:0:
448,348,82329,2,0,B|388:356|388:356|308:336|308:336|224:344,1,198,6|8,0:0|0:0,0:0:0:0:
376,268,82796,1,2,0:0:0:0:
208,192,82951,6,0,B|164:128|216:56|216:56|276:72,2,198,6|8|2,0:0|0:0|0:0,0:0:0:0:
344,176,83728,1,0,0:0:0:0:
172,76,83883,1,8,0:0:0:0:
360,32,84039,6,0,B|404:60|456:36|456:36|500:80|480:140,1,198,6|2,0:0|0:0,0:0:0:0:
336,256,84505,2,0,L|324:132,1,99,8|0,0:0|0:0,0:0:0:0:
172,304,84816,2,0,P|232:320|296:304,1,99,2|2,0:0|0:0,0:0:0:0:
464,228,85127,1,8,0:0:0:0:
420,352,85283,1,0,0:0:0:0:
232,240,85438,6,0,B|204:168|240:88|240:88|216:92|204:120,1,198,6|8,0:0|0:0,0:0:0:0:
40,232,85904,2,0,P|120:240|160:208,1,99,6|2,0:0|0:0,0:0:0:0:
288,336,86215,2,0,P|204:332|168:360,1,99,6|2,0:0|0:0,0:0:0:0:
88,156,86526,1,6,0:0:0:0:
256,192,86604,12,2,87770,0:0:0:0:
