osu file format v14

[General]
AudioFilename: fhana_-_Sorairo_Picture.mp3
AudioLeadIn: 0
PreviewTime: 52200
Countdown: 0
SampleSet: Soft
StackLeniency: 0.7
Mode: 0
LetterboxInBreaks: 0
WidescreenStoryboard: 1

[Editor]
DistanceSpacing: 1.8
BeatDivisor: 4
GridSize: 4
TimelineZoom: 1.7

[Metadata]
Title:Sorairo Picture (TV Size)
TitleUnicode:Sorairo Picture (TV Size)
Artist:fhana
ArtistUnicode:fhana
Creator:lenyahitz
Version:Insane
Source:
Tags:fhana is love fhana is life <3
BeatmapID:888247
BeatmapSetID:408950

[Difficulty]
HPDrainRate:7
CircleSize:4
OverallDifficulty:7.5
ApproachRate:9
SliderMultiplier:1.7
SliderTickRate:1

[Events]
//Background and Video events
0,0,"art-wack-gorod-doma-zakat.jpg",0,0
//Break Periods
//Storyboard Layer 0 (Background)
//Storyboard Layer 1 (Fail)
//Storyboard Layer 2 (Pass)
//Storyboard Layer 3 (Foreground)
//Storyboard Sound Samples

[TimingPoints]
113,329.67032967033,4,1,1,65,1,0
7695,-200,4,1,1,65,0,0
8025,-200,4,2,0,50,0,0
18244,-100,4,2,1,65,0,0
23766,-133.333333333333,4,2,1,50,0,0
25250,-100,4,2,1,50,0,0
28711,-100,4,2,1,50,0,0
29041,-133.333333333333,4,2,1,50,0,0
47585,-133.333333333333,4,2,1,50,0,0
47915,-100,4,2,1,50,0,0
49563,-100,4,2,1,50,0,0
52200,-100,4,1,1,50,0,0
52860,-100,4,1,1,60,0,1
68684,-133.333333333333,4,1,1,60,0,1
69426,-100,4,1,1,60,0,1
73959,-100,4,2,1,50,0,0
74948,-100,4,2,1,50,0,0
81541,-133.333333333333,4,2,1,50,0,0
82036,-100,4,2,1,50,0,0
87805,-133.333333333333,4,2,1,50,0,0
88382,-142.857142857143,4,2,1,50,0,0
89041,-166.666666666667,4,2,1,50,0,0
89783,-100,4,2,1,50,0,0
94398,-100,4,1,1,60,0,1
99673,-133.333333333333,4,1,1,60,0,1
100332,-200,4,1,1,60,0,1
101074,-100,4,1,1,60,0,1
110882,-133.333333333333,4,1,1,60,0,1
111541,-100,4,1,1,60,0,1
116156,-100,4,2,0,25,0,0
117475,-100,4,2,0,25,0,0
118464,-133.333333333333,4,2,0,25,0,0

[HitObjects]
220,223,8025,6,0,P|145:232|160:151,1,170,2|0,0:0|0:0,0:0:0:0:
221,88,9014,1,2,0:0:0:0:
304,40,9343,1,0,0:0:0:0:
304,40,10003,1,0,0:0:0:0:
464,148,10497,5,0,0:0:0:0:
464,148,10580,1,0,0:0:0:0:
464,148,10662,2,0,P|418:181|358:237,1,127.5,2|0,0:0|0:0,0:0:0:0:
284,324,11651,1,2,0:0:0:0:
193,116,12640,5,0,0:0:0:0:
234,185,12805,1,0,0:0:0:0:
277,116,12970,1,2,0:0:0:0:
315,186,13134,1,0,0:0:0:0:
386,223,13299,2,0,P|389:301|356:355,2,127.5,0|0|2,0:0|0:0|0:0,0:0:0:0:
360,190,15277,5,0,0:0:0:0:
403,293,15607,2,0,L|346:333,1,63.75,2|0,0:0|0:0,0:0:0:0:
330,339,15937,2,0,L|239:315,1,85,0|2,0:0|0:0,0:0:0:0:
176,200,16596,2,0,L|272:224,1,85,0|2,0:0|0:0,0:0:0:0:
136,228,17255,5,0,0:0:0:0:
224,60,17915,1,0,0:0:0:0:
371,197,18409,5,0,0:0:0:0:
371,197,18492,1,0,0:0:0:0:
371,197,18574,1,2,0:0:0:0:
304,295,18739,1,0,0:0:0:0:
211,220,18904,2,0,P|155:177|85:190,1,127.5,8|0,0:0|0:0,0:0:0:0:
80,206,19233,2,0,L|30:281,1,85,2|0,0:0|0:0,0:0:0:0:
142,324,19563,1,8,0:0:0:0:
248,260,19728,1,0,0:0:0:0:
160,168,19893,5,2,0:0:0:0:
250,85,20058,2,0,P|307:82|348:115,1,85,0|8,0:0|0:0,0:0:0:0:
348,216,20387,2,0,L|405:279,1,85,0|2,0:0|0:0,0:0:0:0:
463,341,20717,1,0,0:0:0:0:
351,380,20882,2,0,P|325:322|240:276,1,127.5,8|2,0:0|0:0,0:0:0:0:
232,280,21211,6,0,P|144:256|128:236,2,85,2|0|8,0:0|0:0|0:0,0:0:0:0:
188,160,21707,1,0,0:0:0:0:
88,36,21871,1,2,0:0:0:0:
80,140,22036,1,0,0:0:0:0:
204,48,22200,1,8,0:0:0:0:
292,96,22365,6,0,L|377:133,2,85,0|2|0,0:0|0:0|0:0,0:0:0:0:
300,236,22860,2,0,L|396:284,1,85,8|0,0:0|0:0,0:0:0:0:
384,168,23189,1,2,0:0:0:0:
452,72,23354,1,0,0:0:0:0:
332,60,23519,1,8,0:0:0:0:
497,193,23684,1,0,0:0:0:0:
480,311,23849,6,0,L|343:332,1,127.500004863739,2|8,0:0|0:0,0:0:0:0:
265,342,24343,2,0,B|232:296|180:328|152:256,1,127.500004863739,0|0,0:0|0:0,0:0:0:0:
113,201,24838,1,8,0:0:0:0:
72,92,25003,6,0,P|120:84|148:96,1,63.7500024318696,0|2,0:0|0:0,0:0:0:0:
241,80,25332,1,0,0:0:0:0:
360,96,25497,1,8,0:0:0:0:
272,192,25662,1,0,0:0:0:0:
388,224,25827,1,2,0:0:0:0:
312,304,25992,1,0,0:0:0:0:
264,320,26156,2,0,L|150:297,1,85,8|0,0:0|0:0,0:0:0:0:
80,224,26486,6,0,P|136:180|172:180,1,85
88,64,26816,1,8,0:0:0:0:
203,60,26981,2,0,L|264:133,1,85,0|2,0:0|0:0,0:0:0:0:
392,152,27310,1,0,0:0:0:0:
388,296,27475,1,8,0:0:0:0:
251,228,27640,1,0,0:0:0:0:
116,165,27805,6,0,P|163:126|215:130,1,85,6|0,0:0|0:0,0:0:0:0:
396,164,28134,2,0,P|357:127|301:131,1,85,12|0,0:0|0:0,0:0:0:0:
256,16,28464,2,0,L|256:102,1,85,6|0,0:0|0:0,0:0:0:0:
256,235,28794,1,8,0:0:0:0:
256,235,28876,1,0,0:0:0:0:
256,235,28959,1,0,0:0:0:0:
183,305,29123,6,0,P|120:300|70:247,1,127.500004863739,2|8,0:0|0:0,0:0:0:0:
63,155,29618,1,0,0:0:0:0:
129,77,29783,1,2,0:0:0:0:
129,77,29948,2,0,L|265:78,1,127.500004863739
297,171,30442,6,0,L|298:247,1,63.7500024318696,2|0,0:0|0:0,0:0:0:0:
212,291,30772,2,0,L|213:158,1,127.500004863739,8|2,0:0|0:0,0:0:0:0:
112,167,31266,1,0,0:0:0:0:
152,269,31431,2,0,P|203:289|237:293,1,63.7500024318696,8|0,0:0|0:0,0:0:0:0:
311,322,31761,6,0,P|378:340|427:300,1,127.500004863739,2|8,0:0|0:0,0:0:0:0:
456,216,32255,1,0,0:0:0:0:
464,200,32338,1,0,0:0:0:0:
472,184,32420,2,0,L|496:112,1,63.7500024318696,2|0,0:0|0:0,0:0:0:0:
388,40,32750,1,8,0:0:0:0:
322,157,32915,6,0,L|192:121,1,127.500004863739
133,44,33409,1,8,0:0:0:0:
88,136,33574,1,0,0:0:0:0:
32,56,33739,1,2,0:0:0:0:
174,353,34069,1,0,0:0:0:0:
174,353,34233,1,0,0:0:0:0:
174,353,34398,6,0,L|303:317,1,127.500004863739,0|8,0:0|0:0,0:0:0:0:
368,228,34893,1,0,0:0:0:0:
368,228,34975,1,0,0:0:0:0:
368,228,35058,1,2,0:0:0:0:
479,230,35222,1,0,0:0:0:0:
416,84,35387,2,0,L|445:151,1,63.7500024318696,8|0,0:0|0:0,0:0:0:0:
340,72,35717,5,2,0:0:0:0:
261,38,35882,2,0,P|204:48|171:53,2,63.7500024318696,0|8|0,0:0|0:0|0:0,0:0:0:0:
168,144,36376,2,0,L|76:156,1,63.7500024318696,2|0,0:0|0:0,0:0:0:0:
240,232,36706,2,0,L|314:195,1,63.7500024318696,8|0,0:0|0:0,0:0:0:0:
408,65,37036,6,0,L|270:49,1,127.500004863739,2|8,0:0|0:0,0:0:0:0:
158,43,37530,1,0,0:0:0:0:
158,43,37613,1,0,0:0:0:0:
158,43,37695,1,2,0:0:0:0:
58,187,37860,1,0,0:0:0:0:
227,299,38189,1,0,0:0:0:0:
376,313,38519,5,0,0:0:0:0:
467,267,38684,1,0,0:0:0:0:
372,227,38849,1,0,0:0:0:0:
457,171,39014,1,0,0:0:0:0:
362,135,39178,1,0,0:0:0:0:
288,48,39343,1,0,0:0:0:0:
272,64,39426,1,0,0:0:0:0:
256,80,39508,1,0,0:0:0:0:
240,96,39591,1,0,0:0:0:0:
224,112,39673,6,0,L|132:204,1,127.500004863739,2|8,0:0|0:0,0:0:0:0:
24,220,40167,1,0,0:0:0:0:
88,336,40332,1,2,0:0:0:0:
216,284,40497,1,0,0:0:0:0:
221,292,40580,1,0,0:0:0:0:
221,292,40662,1,8,0:0:0:0:
220,189,40827,6,0,P|265:196|316:277,1,127.500004863739
374,341,41321,2,0,P|412:348|443:338,1,63.7500024318696,8|0,0:0|0:0,0:0:0:0:
500,196,41651,2,0,P|462:189|431:199,1,63.7500024318696,2|0,0:0|0:0,0:0:0:0:
326,173,41981,1,8,0:0:0:0:
248,80,42145,1,0,0:0:0:0:
236,92,42310,6,0,B|116:164,1,127.500004863739,2|8,0:0|0:0,0:0:0:0:
80,312,42805,2,0,P|172:312|224:276,1,127.500004863739,0|0,0:0|0:0,0:0:0:0:
308,328,43299,1,0,0:0:0:0:
404,280,43464,1,0,0:0:0:0:
512,272,43629,5,2,0:0:0:0:
440,184,43794,2,0,L|384:120,1,63.7500024318696,0|8,0:0|0:0,0:0:0:0:
197,215,44123,1,0,0:0:0:0:
108,96,44288,2,0,P|164:123|170:142,1,63.7500024318696,2|0,0:0|0:0,0:0:0:0:
240,32,44618,2,0,P|281:21|336:46,1,95.6250036478044,8|0,0:0|0:0,0:0:0:0:
359,70,44948,6,0,L|285:126,1,63.7500024318696
324,204,45277,1,8,0:0:0:0:
172,240,45442,2,0,L|229:196,1,63.7500024318696,0|2,0:0|0:0,0:0:0:0:
203,107,45772,1,0,0:0:0:0:
118,49,45937,2,0,L|54:109,1,63.7500024318696,8|0,0:0|0:0,0:0:0:0:
71,92,46184,1,0,0:0:0:0:
71,92,46266,5,2,0:0:0:0:
52,216,46431,2,0,P|112:208|128:192,1,63.7500024318696,0|8,0:0|0:0,0:0:0:0:
128,336,46761,1,0,0:0:0:0:
296,264,46926,2,0,P|236:272|220:288,1,63.7500024318696,2|0,0:0|0:0,0:0:0:0:
296,264,47255,1,8,0:0:0:0:
368,184,47420,1,0,0:0:0:0:
268,175,47585,5,2,0:0:0:0:
388,268,47750,1,0,0:0:0:0:
324,112,47915,1,8,0:0:0:0:
296,264,48080,1,0,0:0:0:0:
438,211,48244,5,2,0:0:0:0:
268,175,48409,1,0,0:0:0:0:
388,268,48574,1,8,0:0:0:0:
420,120,48739,1,0,0:0:0:0:
196,248,48904,5,2,0:0:0:0:
368,184,49069,1,0,0:0:0:0:
208,29,49233,1,8,0:0:0:0:
211,34,49563,5,2,0:0:0:0:
211,34,49645,1,0,0:0:0:0:
211,34,49728,1,0,0:0:0:0:
115,76,49893,1,8,0:0:0:0:
56,159,50058,1,0,0:0:0:0:
116,268,50222,2,0,L|172:188,1,85,2|0,0:0|0:0,0:0:0:0:
274,185,50552,5,0,0:0:0:0:
351,113,50717,1,0,0:0:0:0:
235,83,50882,1,0,0:0:0:0:
264,208,51047,5,0,0:0:0:0:
372,104,51211,1,0,0:0:0:0:
216,76,51376,1,0,0:0:0:0:
268,228,51541,5,0,0:0:0:0:
384,84,51706,1,0,0:0:0:0:
192,80,51871,1,0,0:0:0:0:
280,256,52036,1,0,0:0:0:0:
400,216,52200,5,0,0:0:0:0:
368,200,52283,1,0,0:0:0:0:
336,184,52365,1,0,0:0:0:0:
304,168,52448,1,0,0:0:0:0:
272,152,52530,1,0,0:0:0:0:
240,136,52613,1,0,0:0:0:0:
208,120,52695,1,0,0:0:0:0:
176,104,52777,1,0,0:0:0:0:
144,88,52860,6,0,P|160:128|152:184,1,85,6|0,0:0|0:0,0:0:0:0:
240,40,53189,2,0,L|320:66,1,85,8|0,0:0|0:0,0:0:0:0:
444,152,53519,1,2,0:0:0:0:
308,208,53684,1,0,0:0:0:0:
330,341,53849,2,0,L|238:317,1,85,8|0,0:0|0:0,0:0:0:0:
248,320,54096,1,0,0:0:0:0:
248,320,54178,1,2,0:0:0:0:
100,362,54343,5,0,0:0:0:0:
2,244,54508,2,0,P|50:222|73:186,1,85,8|0,0:0|0:0,0:0:0:0:
148,24,54838,2,0,P|100:46|77:82,1,85,8|0,0:0|0:0,0:0:0:0:
204,196,55167,2,0,L|245:67,1,127.5,8|0,0:0|0:0,0:0:0:0:
268,62,55497,6,0,L|357:36,1,85,6|0,0:0|0:0,0:0:0:0:
476,52,55827,1,8,0:0:0:0:
344,176,55992,2,0,L|432:144,1,85,0|2,0:0|0:0,0:0:0:0:
484,304,56321,2,0,P|428:268|396:268,1,85,0|0,0:0|0:0,0:0:0:0:
316,328,56651,6,0,B|228:272|296:240|184:192,1,170
76,112,57145,1,8,0:0:0:0:
212,36,57310,1,0,0:0:0:0:
283,165,57475,2,0,L|196:208,1,85,2|0,0:0|0:0,0:0:0:0:
80,340,57805,2,0,L|165:292,1,85,8|0,0:0|0:0,0:0:0:0:
264,352,58134,6,0,B|328:336|328:336|352:308|352:308|428:284,1,170,6|8,0:0|0:0,0:0:0:0:
477,236,58629,1,0,0:0:0:0:
248,208,58794,1,2,0:0:0:0:
408,104,58959,1,0,0:0:0:0:
248,208,59123,2,0,L|175:250,1,85,8|0,0:0|0:0,0:0:0:0:
156,260,59371,1,0,0:0:0:0:
140,268,59453,1,2,0:0:0:0:
2,182,59618,5,0,0:0:0:0:
98,62,59783,2,0,L|180:16,1,85,8|0,0:0|0:0,0:0:0:0:
332,15,60113,1,2,0:0:0:0:
276,156,60277,1,0,0:0:0:0:
448,176,60442,2,0,P|408:228|424:320,1,127.5,8|0,0:0|0:0,0:0:0:0:
368,312,60772,6,0,L|276:289,1,85,4|0,0:0|0:0,0:0:0:0:
112,288,61102,1,0,0:0:0:0:
112,288,61266,1,0,0:0:0:0:
16,169,61431,1,2,0:0:0:0:
141,80,61596,1,0,0:0:0:0:
141,80,61761,1,8,0:0:0:0:
224,184,61926,1,0,0:0:0:0:
224,184,62008,1,0,0:0:0:0:
224,184,62091,2,0,L|316:108,1,85,2|0,0:0|0:0,0:0:0:0:
400,64,62420,5,8,0:0:0:0:
448,208,62585,1,0,0:0:0:0:
494,353,62750,2,0,L|400:334,1,85,2|0,0:0|0:0,0:0:0:0:
288,252,63080,2,0,P|336:212|376:200,1,85,8|0,0:0|0:0,0:0:0:0:
113,48,63409,5,6,0:0:0:0:
134,199,63574,1,0,0:0:0:0:
253,103,63739,1,8,0:0:0:0:
253,103,63821,1,0,0:0:0:0:
253,103,63904,1,0,0:0:0:0:
370,201,64069,1,2,0:0:0:0:
414,51,64233,1,0,0:0:0:0:
468,148,64398,2,0,P|488:204|478:241,1,85,8|0,0:0|0:0,0:0:0:0:
380,210,64728,6,0,L|304:172,1,85,2|0,0:0|0:0,0:0:0:0:
260,20,65058,2,0,P|212:36|184:80,1,85,8|0,0:0|0:0,0:0:0:0:
108,236,65387,2,0,P|156:220|184:176,1,85,2|0,0:0|0:0,0:0:0:0:
240,344,65717,1,8,0:0:0:0:
340,224,65882,1,0,0:0:0:0:
466,363,66047,6,0,L|458:222,1,127.5,6|0,0:0|0:0,0:0:0:0:
424,184,66376,2,0,L|428:308,1,85,8|0,0:0|0:0,0:0:0:0:
280,136,66706,2,0,L|277:39,1,85,2|0,0:0|0:0,0:0:0:0:
164,257,67036,1,8,0:0:0:0:
164,257,67118,1,0,0:0:0:0:
164,257,67200,1,0,0:0:0:0:
268,340,67365,5,2,0:0:0:0:
364,164,67530,1,0,0:0:0:0:
256,248,67695,1,8,0:0:0:0:
384,288,67860,1,0,0:0:0:0:
493,294,68025,2,0,L|426:218,1,85,2|0,0:0|0:0,0:0:0:0:
268,164,68354,2,0,L|326:227,1,85,8|0,0:0|0:0,0:0:0:0:
212,48,68684,6,0,B|160:56|120:100|112:168|148:220|148:220|100:260,1,255.000009727478
119,330,69508,1,0,0:0:0:0:
205,338,69673,2,0,L|295:298,1,85,8|0,0:0|0:0,0:0:0:0:
282,303,69920,1,0,0:0:0:0:
282,303,70003,1,2,0:0:0:0:
208,184,70167,5,0,0:0:0:0:
264,36,70332,2,0,P|280:92|320:144,1,85
136,24,70662,1,2,0:0:0:0:
104,168,70827,1,0,0:0:0:0:
104,168,70992,1,8,0:0:0:0:
236,188,71156,1,0,0:0:0:0:
285,300,71321,6,0,L|425:238,1,127.5,6|0,0:0|0:0,0:0:0:0:
412,235,71651,1,8,0:0:0:0:
463,90,71816,2,0,L|368:136,1,85,0|2,0:0|0:0,0:0:0:0:
300,20,72145,2,0,P|256:56|244:104,1,85
37,152,72475,1,0,0:0:0:0:
37,152,72558,1,0,0:0:0:0:
37,152,72640,1,2,0:0:0:0:
176,214,72805,5,0,0:0:0:0:
328,108,72970,2,0,L|351:205,1,85,8|0,0:0|0:0,0:0:0:0:
369,352,73299,2,0,L|429:285,1,85,2|0,0:0|0:0,0:0:0:0:
481,145,73629,1,8,0:0:0:0:
365,44,73794,1,0,0:0:0:0:
365,44,73876,1,0,0:0:0:0:
365,44,73959,5,2,0:0:0:0:
279,137,74123,1,0,0:0:0:0:
180,55,74288,1,8,0:0:0:0:
160,144,74453,1,0,0:0:0:0:
268,52,74618,1,2,0:0:0:0:
228,220,74783,2,0,L|134:250,1,85,0|8,0:0|0:0,0:0:0:0:
19,293,75113,1,0,0:0:0:0:
127,359,75277,6,0,P|161:291|247:263,1,170,2|8,0:0|0:0,0:0:0:0:
372,260,75772,2,0,L|443:204,1,85,0|2,0:0|0:0,0:0:0:0:
505,80,76102,1,0,0:0:0:0:
386,35,76266,6,0,P|328:52|204:28,1,170,8|2,0:0|0:0,0:0:0:0:
261,186,76761,1,0,0:0:0:0:
261,186,76843,1,0,0:0:0:0:
261,186,76926,1,8,0:0:0:0:
133,188,77091,1,0,0:0:0:0:
190,301,77255,1,2,0:0:0:0:
272,180,77420,1,0,0:0:0:0:
344,304,77585,1,8,0:0:0:0:
344,304,77750,1,0,0:0:0:0:
385,185,77915,6,0,P|370:112|344:72,1,85,2|0,0:0|0:0,0:0:0:0:
242,136,78244,1,8,0:0:0:0:
104,84,78409,2,0,P|119:157|145:197,1,85,2|2,0:0|0:0,0:0:0:0:
244,124,78739,1,0,0:0:0:0:
319,215,78904,2,0,P|340:260|341:307,1,85,8|0,0:0|0:0,0:0:0:0:
231,338,79233,5,2,0:0:0:0:
231,338,79316,1,0,0:0:0:0:
231,338,79398,2,0,P|144:306|55:274,1,170,0|0,0:0|0:0,0:0:0:0:
176,160,79893,1,2,0:0:0:0:
56,168,80058,1,0,0:0:0:0:
209,43,80222,2,0,L|347:53,1,127.5,8|0,0:0|0:0,0:0:0:0:
360,91,80552,6,0,L|260:84,1,85,2|0,0:0|0:0,0:0:0:0:
464,184,80882,1,8,0:0:0:0:
324,204,81047,2,0,B|256:168|228:232|148:176,1,170
40,80,81541,6,0,B|116:120|148:40|244:108,1,191.250007295609,8|0,0:0|0:0,0:0:0:0:
159,183,82200,1,8,0:0:0:0:
46,247,82365,1,0,0:0:0:0:
136,352,82530,2,0,P|136:274|154:243,1,85,2|0,0:0|0:0,0:0:0:0:
244,296,82860,2,0,L|328:240,1,85,8|0,0:0|0:0,0:0:0:0:
421,200,83189,5,2,0:0:0:0:
421,200,83272,1,0,0:0:0:0:
421,200,83354,2,0,P|427:128|404:97,1,85,0|8,0:0|0:0,0:0:0:0:
312,40,83684,1,0,0:0:0:0:
256,152,83849,2,0,L|360:156,1,85,2|0,0:0|0:0,0:0:0:0:
148,224,84178,1,8,0:0:0:0:
138,361,84343,6,0,B|212:312|325:319,1,170
416,328,84838,1,8,0:0:0:0:
505,210,85003,1,0,0:0:0:0:
364,200,85167,1,2,0:0:0:0:
432,248,85332,1,0,0:0:0:0:
440,148,85497,1,8,0:0:0:0:
356,108,85662,1,0,0:0:0:0:
276,160,85827,6,0,L|180:234,1,85,2|0,0:0|0:0,0:0:0:0:
146,103,86156,1,8,0:0:0:0:
28,160,86321,2,0,L|122:235,1,85,0|2,0:0|0:0,0:0:0:0:
148,316,86651,1,0,0:0:0:0:
257,305,86816,6,0,L|412:378,1,170,8|2,0:0|0:0,0:0:0:0:
464,252,87310,1,0,0:0:0:0:
356,268,87475,1,8,0:0:0:0:
472,144,87640,1,0,0:0:0:0:
356,112,87805,6,0,B|288:96|288:96|256:108|256:108|168:88,1,191.250007295609
115,152,88464,6,0,L|39:338,1,178.499994552612,2|0,0:0|0:0,0:0:0:0:
120,368,89123,6,0,L|181:223,1,152.999995330811,2|0,0:0|0:0,0:0:0:0:
271,156,89783,5,10,0:0:0:0:
176,242,89948,1,10,0:0:0:0:
320,275,90277,5,10,0:0:0:0:
167,146,90442,1,10,0:0:0:0:
283,95,90772,5,10,0:0:0:0:
211,293,90937,1,10,0:0:0:0:
96,254,91266,5,10,0:0:0:0:
366,146,91431,1,10,0:0:0:0:
211,88,91761,5,10,0:0:0:0:
263,290,91926,1,10,0:0:0:0:
151,143,92091,1,10,0:0:0:0:
330,242,92255,1,10,0:0:0:0:
291,93,92420,5,10,0:0:0:0:
211,248,92585,1,10,0:0:0:0:
176,138,92915,5,10,0:0:0:0:
302,199,93080,1,10,0:0:0:0:
309,73,93409,5,10,0:0:0:0:
163,269,93574,1,10,0:0:0:0:
246,177,93904,5,10,0:0:0:0:
246,177,94069,1,10,0:0:0:0:
384,280,94398,1,0,0:0:0:0:
348,304,94481,1,0,0:0:0:0:
308,316,94563,1,0,0:0:0:0:
268,304,94645,1,0,0:0:0:0:
228,288,94728,1,0,0:0:0:0:
184,288,94810,1,0,0:0:0:0:
144,304,94893,1,0,0:0:0:0:
108,324,94975,1,0,0:0:0:0:
68,340,95058,6,0,L|12:188,1,127.5,6|0,0:0|0:0,0:0:0:0:
23,198,95387,1,8,0:0:0:0:
108,117,95552,2,0,L|144:208,1,85,0|2,0:0|0:0,0:0:0:0:
228,76,95882,1,0,0:0:0:0:
325,181,96047,1,8,0:0:0:0:
325,181,96129,1,0,0:0:0:0:
325,181,96211,2,0,L|364:264,1,85,0|2,0:0|0:0,0:0:0:0:
450,377,96541,5,0,0:0:0:0:
348,284,96706,1,8,0:0:0:0:
216,349,96871,2,0,L|272:268,1,85,0|2,0:0|0:0,0:0:0:0:
120,284,97200,1,0,0:0:0:0:
32,196,97365,2,0,L|124:88,1,127.5,8|0,0:0|0:0,0:0:0:0:
159,127,97695,6,0,L|187:41,1,85,6|0,0:0|0:0,0:0:0:0:
279,40,98025,1,8,0:0:0:0:
365,132,98189,2,0,L|440:203,1,85,0|2,0:0|0:0,0:0:0:0:
327,272,98519,1,0,0:0:0:0:
232,186,98684,1,8,0:0:0:0:
232,186,98766,1,0,0:0:0:0:
232,186,98849,6,0,L|56:173,1,170
20,52,99343,1,2,0:0:0:0:
132,116,99508,1,0,0:0:0:0:
33,219,99673,2,0,L|128:232,1,95.6250036478044,8|0,0:0|0:0,0:0:0:0:
144,256,100003,2,0,P|140:312|188:352,1,95.6250036478044,2|0,0:0|0:0,0:0:0:0:
212,348,100332,6,0,L|368:272,1,170,6|2,0:0|0:0,0:0:0:0:
341,161,101156,1,0,0:0:0:0:
341,161,101239,1,0,0:0:0:0:
341,161,101321,1,8,0:0:0:0:
246,110,101486,1,0,0:0:0:0:
317,63,101651,5,2,0:0:0:0:
400,90,101816,2,0,L|488:162,1,85,0|8,0:0|0:0,0:0:0:0:
512,253,102145,1,0,0:0:0:0:
466,362,102310,2,0,L|331:331,1,127.5,2|0,0:0|0:0,0:0:0:0:
323,312,102640,2,0,L|295:217,1,85,8|0,0:0|0:0,0:0:0:0:
172,168,102970,6,0,L|200:280,1,85,6|0,0:0|0:0,0:0:0:0:
72,112,103299,1,8,0:0:0:0:
72,112,103464,1,0,0:0:0:0:
24,237,103629,2,0,L|95:303,1,85,2|0,0:0|0:0,0:0:0:0:
210,262,103959,1,8,0:0:0:0:
210,262,104123,1,0,0:0:0:0:
302,350,104288,5,2,0:0:0:0:
302,350,104371,1,0,0:0:0:0:
302,350,104453,1,0,0:0:0:0:
429,361,104618,2,0,L|453:280,1,85,8|0,0:0|0:0,0:0:0:0:
450,151,104948,1,2,0:0:0:0:
351,231,105113,1,0,0:0:0:0:
341,104,105277,1,8,0:0:0:0:
238,179,105442,1,0,0:0:0:0:
238,179,105525,1,0,0:0:0:0:
238,179,105607,6,0,L|101:127,1,127.5,6|0,0:0|0:0,0:0:0:0:
94,144,105937,2,0,L|4:184,1,85,8|0,0:0|0:0,0:0:0:0:
4,336,106266,2,0,L|108:288,1,85,2|0,0:0|0:0,0:0:0:0:
186,382,106596,1,8,0:0:0:0:
291,309,106761,6,0,L|302:207,1,85,0|2,0:0|0:0,0:0:0:0:
185,167,107091,1,0,0:0:0:0:
276,80,107255,2,0,P|320:76|376:96,1,85
459,221,107585,1,2,0:0:0:0:
439,347,107750,1,0,0:0:0:0:
342,263,107915,1,8,0:0:0:0:
353,135,108080,1,0,0:0:0:0:
353,135,108162,1,0,0:0:0:0:
353,135,108244,6,0,L|206:90,1,127.5,6|0,0:0|0:0,0:0:0:0:
214,82,108574,2,0,L|236:-8,1,85,8|0,0:0|0:0,0:0:0:0:
116,32,108904,2,0,L|64:200,1,170,2|8,0:0|0:0,0:0:0:0:
160,301,109398,1,0,0:0:0:0:
182,175,109563,5,2,0:0:0:0:
281,254,109728,1,0,0:0:0:0:
337,139,109893,2,0,L|417:218,1,85,8|0,0:0|0:0,0:0:0:0:
336,320,110222,2,0,L|228:356,1,85,2|0,0:0|0:0,0:0:0:0:
180,232,110552,2,0,L|220:152,1,85,8|0,0:0|0:0,0:0:0:0:
136,36,110882,6,0,B|112:84|116:124|116:124|76:168|76:168|76:232|32:288,1,255.000009727478,4|2,0:0|0:0,0:0:0:0:
92,352,111706,1,0,0:0:0:0:
180,308,111871,1,8,0:0:0:0:
152,208,112036,6,0,L|265:178,1,85,0|2,0:0|0:0,0:0:0:0:
271,64,112365,1,0,0:0:0:0:
351,163,112530,1,8,0:0:0:0:
468,113,112695,1,0,0:0:0:0:
459,240,112860,2,0,L|452:344,1,85,2|0,0:0|0:0,0:0:0:0:
292,242,113189,1,8,0:0:0:0:
292,242,113354,1,0,0:0:0:0:
220,128,113519,6,0,L|157:196,1,85,6|0,0:0|0:0,0:0:0:0:
162,274,113849,1,8,0:0:0:0:
247,275,114014,2,0,L|316:189,1,85,0|2,0:0|0:0,0:0:0:0:
300,123,114343,1,0,0:0:0:0:
260,47,114508,2,0,P|216:51|172:79,1,85,8|0,0:0|0:0,0:0:0:0:
46,134,114838,5,2,0:0:0:0:
46,134,114920,1,0,0:0:0:0:
46,134,115003,1,0,0:0:0:0:
158,193,115167,1,8,0:0:0:0:
69,285,115332,2,0,L|157:311,1,85,0|2,0:0|0:0,0:0:0:0:
225,150,115662,2,0,P|173:170|153:222,1,85,0|8,0:0|0:0,0:0:0:0:
356,236,115992,2,0,P|408:216|428:164,1,85,0|2,0:0|0:0,0:0:0:0:
175,133,118134,5,0,0:0:0:0:
220,241,118794,1,0,0:0:0:0:
301,150,119453,1,0,0:0:0:0:
208,74,120113,1,0,0:0:0:0:
101,35,120772,1,0,0:0:0:0:
256,192,121431,12,0,124069,0:0:0:0:
