osu file format v12

[General]
AudioFilename: Qu Ser, Ser.mp3
AudioLeadIn: 2000
PreviewTime: 48532
Countdown: 0
SampleSet: Soft
StackLeniency: 0.7
Mode: 0
LetterboxInBreaks: 0
WidescreenStoryboard: 1

[Editor]
DistanceSpacing: 1
BeatDivisor: 4
GridSize: 4

[Metadata]
Title:Que sera sera (TV Size)
TitleUnicode:ケセラセラ (TV Size)
Artist:fhana
ArtistUnicode:fhána
Creator:Unsfamiliar
Version:Normal
Source:Uchouten Kazoku
Tags:-umi- 有頂天家族 eccentric family lantis ending whatever will be
BeatmapID:287891
BeatmapSetID:108253

[Difficulty]
HPDrainRate:4
CircleSize:3
OverallDifficulty:4
ApproachRate:5
SliderMultiplier:1.5
SliderTickRate:1

[Events]
//Background and Video events
0,0,"bg.jpg",0,0
Video,0,"Uchoten Kazoku ED.avi"
//Break Periods
//Storyboard Layer 0 (Background)
//Storyboard Layer 1 (Fail)
//Storyboard Layer 2 (Pass)
//Storyboard Layer 3 (Foreground)
//Storyboard Sound Samples
//Background Colour Transformations
3,100,163,162,255

[TimingPoints]
545,500,4,2,1,40,1,0
1045,-100,4,2,1,60,0,0
2545,-100,4,2,1,40,0,0
3045,-100,4,2,1,60,0,0
4545,-100,4,2,1,40,0,0
5045,-100,4,2,1,60,0,0
6545,-100,4,2,1,40,0,0
6795,-100,4,2,1,60,0,0
7045,-100,4,2,4,40,0,0
8545,-100,4,2,1,40,0,0
9045,-100,4,2,4,60,0,0
10045,-100,4,2,4,40,0,0
10545,-100,4,2,1,40,0,0
11045,-100,4,2,1,60,0,0
12295,-100,4,2,1,70,0,0
15045,-100,4,2,4,40,0,0
16545,-100,4,2,1,70,0,0
23545,-100,4,2,4,40,0,0
23795,-100,4,2,1,70,0,0
35545,-100,4,2,1,60,0,0
36295,-100,4,2,1,70,0,0
36545,-100,4,2,1,70,0,0
46045,-100,4,2,1,60,0,0
46295,-100,4,2,1,70,0,0
46795,-100,4,2,1,50,0,0
47295,-100,4,2,1,70,0,0
47795,-100,4,2,1,60,0,0
47920,-100,4,2,1,50,0,0
48545,-100,4,2,2,70,0,1
56045,-100,4,2,3,60,0,1
56295,-100,4,2,2,70,0,1
62795,-100,4,2,3,60,0,1
63295,-100,4,2,2,70,0,1
68545,-100,4,2,2,70,0,1
72045,-100,4,2,3,60,0,1
72295,-100,4,2,2,70,0,1
78295,-100,4,2,2,70,0,0
78795,-100,4,2,3,60,0,0
80545,-100,4,2,2,70,0,0
84795,-100,4,2,3,70,0,0

[Colours]
Combo1 : 176,255,176
Combo2 : 255,183,111
Combo3 : 119,187,255
Combo4 : 153,153,204
Combo5 : 255,193,224

[HitObjects]
112,80,545,1,2,0:0:0:0:
188,212,1045,1,0,0:0:0:0:
336,240,1545,1,0,0:0:0:0:
412,240,1795,2,0,P|432:280|484:320,2,75
372,176,2545,5,2,0:0:0:0:
256,84,3045,1,0,0:0:0:0:
116,132,3545,2,0,P|156:132|200:164,1,75
136,204,4045,2,0,P|188:224|232:208,1,75
276,244,4545,6,0,B|296:232|296:232|300:256|300:256|320:236|320:236|332:252|332:252|372:256|392:244,1,150,2|0,0:0|0:0,0:0:0:0:
424,104,5545,2,0,P|378:68|345:70,2,75
440,180,6295,1,0,0:0:0:0:
368,156,6545,6,0,L|260:156,1,75,2|0,0:0|0:0,0:0:0:0:
216,156,7045,1,2,0:0:0:0:
80,96,7545,1,2,0:0:0:0:
20,228,8045,1,2,0:0:0:0:
156,296,8545,5,2,0:0:0:0:
300,252,9045,1,0,0:0:0:0:
268,104,9545,2,0,P|324:124|336:140,2,75,0|0|2,0:0|0:0|0:0,0:0:0:0:
192,108,10295,2,0,B|169:99|169:99|136:104|136:104|116:85,1,75,2|2,0:0|0:0,0:0:0:0:
64,228,11045,5,0,0:0:0:0:
212,224,11545,2,0,L|292:176,1,75
320,248,12045,2,0,L|248:292,1,75
312,340,12545,6,0,P|388:316|404:256,1,112.5,2|2,0:0|0:0,0:0:0:0:
428,180,13295,2,0,P|384:128|304:120,1,150
236,148,14045,1,0,0:0:0:0:
120,52,14545,6,0,P|60:92|48:124,1,75,2|0,0:0|0:0,0:0:0:0:
36,164,15045,1,2,0:0:0:0:
64,232,15295,2,0,P|80:280|116:300,1,75,0|2,0:0|0:0,0:0:0:0:
188,172,16045,1,2,0:0:0:0:
260,304,16545,6,0,L|388:304,1,112.5,2|2,0:0|0:0,0:0:0:0:
408,196,17295,2,0,P|340:196|280:116,1,150
248,76,18045,1,0,0:0:0:0:
172,68,18295,1,0,0:0:0:0:
112,112,18545,6,0,P|132:196|160:220,1,112.5,2|2,0:0|0:0,0:0:0:0:
248,264,19295,2,0,B|288:284|344:240,1,75
364,196,19795,1,0,0:0:0:0:
304,152,20045,1,0,0:0:0:0:
332,84,20295,1,0,0:0:0:0:
268,48,20545,6,0,P|196:40|156:56,1,112.5,2|2,0:0|0:0,0:0:0:0:
220,152,21295,2,0,P|220:232|132:264,1,150
156,192,22045,1,8,0:0:0:0:
92,152,22295,1,0,0:0:0:0:
84,228,22545,6,0,P|88:304|132:344,2,112.5,2|2|0,0:0|0:0|0:0,0:0:0:0:
92,152,23545,1,2,0:0:0:0:
208,56,24045,1,8,0:0:0:0:
276,188,24545,6,0,P|364:208|388:176,1,112.5,2|2,0:0|0:0,0:0:0:0:
428,104,25295,2,0,P|480:168|472:248,1,150
428,288,26045,1,8,0:0:0:0:
352,280,26295,1,0,0:0:0:0:
300,224,26545,6,0,P|232:188|156:216,1,150,2|0,0:0|0:0,0:0:0:0:
204,272,27295,2,0,P|120:300|56:256,1,150
48,200,28045,1,8,0:0:0:0:
140,84,28545,5,2,0:0:0:0:
284,48,29045,1,0,0:0:0:0:
240,192,29545,1,2,0:0:0:0:
312,176,29795,2,0,P|343:156|380:160,1,75
444,196,30295,6,0,P|456:224|440:272,2,75,0|2|0,0:0|0:0|0:0,0:0:0:0:
376,64,31295,2,0,P|324:60|300:80,1,75,0|2,0:0|0:0,0:0:0:0:
236,56,31795,6,0,P|140:48|60:144,1,225,0|2,0:0|0:0,0:0:0:0:
136,268,33045,5,0,0:0:0:0:
212,276,33295,1,0,0:0:0:0:
248,212,33545,1,0,0:0:0:0:
324,208,33795,2,0,B|412:260|464:164,1,150
420,112,34545,1,2,0:0:0:0:
368,56,34795,2,0,P|296:36|220:68,1,150
180,120,35545,5,8,0:0:0:0:
164,192,35795,1,2,0:0:0:0:
212,252,36045,2,0,L|312:252,1,75,2|2,0:0|0:0,0:0:0:0:
364,260,36545,6,0,P|396:188|360:156,1,112.5,2|2,0:0|0:0,0:0:0:0:
304,88,37295,2,0,L|372:20,2,75,0|0|2,0:0|0:0|0:0,0:0:0:0:
252,144,38045,1,8,0:0:0:0:
176,156,38295,1,0,0:0:0:0:
112,120,38545,6,0,P|48:156|36:232,1,150,2|0,0:0|0:0,0:0:0:0:
92,276,39295,1,0,0:0:0:0:
240,248,39795,1,2,0:0:0:0:
312,260,40045,2,0,L|392:260,1,75,8|0,0:0|0:0,0:0:0:0:
424,196,40545,6,0,P|392:120|340:96,1,112.5,2|2,0:0|0:0,0:0:0:0:
292,184,41295,2,0,P|240:116|164:84,1,150,0|2,0:0|0:0,0:0:0:0:
108,92,42045,1,8,0:0:0:0:
64,152,42295,1,0,0:0:0:0:
68,228,42545,6,0,P|96:288|152:304,1,112.5,2|2,0:0|0:0,0:0:0:0:
248,324,43295,1,0,0:0:0:0:
312,284,43545,1,0,0:0:0:0:
360,228,43795,2,0,P|388:280|380:312,2,75,2|8|0,0:0|0:0|0:0,0:0:0:0:
300,184,44545,6,0,L|204:112,1,112.5,2|2,0:0|0:0,0:0:0:0:
100,140,45295,2,0,L|236:244,1,150,2|2,0:0|0:0,0:0:0:0:
276,280,46045,1,8,0:0:0:0:
352,280,46295,2,0,P|396:256|400:212,1,75,2|2,0:0|0:0,0:0:0:0:
400,160,46795,1,8,0:0:0:0:
336,120,47045,1,8,0:0:0:0:
296,184,47295,6,0,P|232:188|140:160,1,150,0|8,0:0|0:0,0:0:0:0:
140,92,48045,2,0,P|148:44|172:8,1,75,2|2,0:0|0:0,0:0:0:0:
232,44,48545,5,6,0:0:0:0:
368,112,49045,1,8,0:0:0:0:
352,260,49545,2,0,P|316:312|280:328,1,75,2|2,0:0|0:0,0:0:0:0:
236,340,50045,1,8,0:0:0:0:
100,276,50545,5,2,0:0:0:0:
220,188,51045,1,8,0:0:0:0:
116,80,51545,2,0,P|86:91|58:123,2,75,2|2|8,0:0|0:0|0:0,0:0:0:0:
264,72,52545,5,2,0:0:0:0:
388,156,53045,2,0,P|408:216|368:300,1,150,8|2,0:0|0:0,0:0:0:0:
320,344,53795,1,2,0:0:0:0:
256,304,54045,1,8,0:0:0:0:
212,160,54545,6,0,P|168:228|92:232,1,150,2|8,0:0|0:0,0:0:0:0:
32,208,55295,1,0,0:0:0:0:
24,132,55545,2,0,L|156:44,1,150,2|2,0:0|0:0,0:0:0:0:
224,40,56295,1,2,0:0:0:0:
300,48,56545,5,6,0:0:0:0:
376,176,57045,1,8,0:0:0:0:
240,236,57545,2,0,L|208:332,2,75,2|2|8,0:0|0:0|0:0,0:0:0:0:
92,260,58545,6,0,P|100:156|152:120,1,150,2|8,0:0|0:0,0:0:0:0:
280,144,59545,2,0,L|280:56,2,75,2|2|8,0:0|0:0|0:0,0:0:0:0:
404,60,60545,6,0,P|448:144|424:216,1,150,2|8,0:0|0:0,0:0:0:0:
372,232,61295,1,0,0:0:0:0:
304,196,61545,2,0,P|268:176|236:180,1,75,2|2,0:0|0:0,0:0:0:0:
176,136,62045,1,8,0:0:0:0:
152,64,62295,6,0,P|100:124|120:188,1,150,2|10,0:0|0:0,0:0:0:0:
160,248,63045,1,10,0:0:0:0:
232,264,63295,2,0,P|276:272|300:296,1,75
364,324,63795,2,0,B|416:320|444:276,1,75,2|8,0:0|0:0,0:0:0:0:
408,144,64545,5,6,0:0:0:0:
292,48,65045,1,8,0:0:0:0:
148,96,65545,2,0,L|204:168,1,75,2|2,0:0|0:0,0:0:0:0:
240,216,66045,1,8,0:0:0:0:
128,316,66545,6,0,B|164:312|164:312|196:288|196:288|228:312|228:312|264:316,1,150,2|8,0:0|0:0,0:0:0:0:
316,264,67295,1,0,0:0:0:0:
380,224,67545,2,0,P|408:256|456:268,2,75,2|2|8,0:0|0:0|0:0,0:0:0:0:
356,152,68295,1,0,0:0:0:0:
296,108,68545,6,0,P|228:140|152:120,1,150,2|8,0:0|0:0,0:0:0:0:
100,172,69295,2,0,P|80:264|120:320,1,150,2|2,0:0|0:0,0:0:0:0:
180,300,70045,1,8,0:0:0:0:
224,240,70295,6,0,P|296:212|368:244,1,150
428,272,71045,1,8,0:0:0:0:
452,124,71545,2,0,P|368:52|256:52,1,225,2|2,0:0|0:0,0:0:0:0:
188,76,72545,5,6,0:0:0:0:
48,136,73045,1,8,0:0:0:0:
124,264,73545,1,2,0:0:0:0:
168,324,73795,1,2,0:0:0:0:
236,296,74045,1,8,0:0:0:0:
352,200,74545,5,2,0:0:0:0:
216,140,75045,1,8,0:0:0:0:
332,48,75545,2,0,P|372:40|428:60,1,75,2|2,0:0|0:0,0:0:0:0:
460,96,76045,1,8,0:0:0:0:
464,172,76295,1,0,0:0:0:0:
424,236,76545,6,0,P|372:288|272:296,1,150,2|8,0:0|0:0,0:0:0:0:
224,300,77295,2,0,P|128:260|92:196,1,150,2|2,0:0|0:0,0:0:0:0:
64,160,78045,1,8,0:0:0:0:
64,84,78295,6,0,P|140:68|220:124,1,150,6|0,0:0|0:0,0:0:0:0:
248,156,79045,2,0,P|304:168|336:140,1,75,8|8,0:0|0:0,0:0:0:0:
368,104,79545,1,2,0:0:0:0:
360,252,80045,1,2,0:0:0:0:
220,304,80545,6,0,P|152:280|120:200,1,150,6|8,0:0|0:0,0:0:0:0:
104,64,81545,2,0,P|60:80|44:124,2,75,2|2|8,0:0|0:0|0:0,0:0:0:0:
176,92,82295,1,0,0:0:0:0:
216,156,82545,6,0,P|280:204|356:192,1,150,2|8,0:0|0:0,0:0:0:0:
368,48,83545,1,2,0:0:0:0:
300,76,83795,1,2,0:0:0:0:
228,52,84045,2,0,P|148:80|112:160,1,150,8|6,0:0|0:0,0:0:0:0:
148,200,84795,5,10,0:0:0:0:
108,264,85045,1,10,0:0:0:0:
156,320,85295,1,4,0:0:0:0:
304,308,85795,2,0,L|380:256,1,75,10|10,0:0|0:0,0:0:0:0:
428,224,86295,1,4,0:0:0:0:
376,84,86795,6,0,L|288:144,1,75,10|10,0:0|0:0,0:0:0:0:
252,168,87295,1,4,0:0:0:0:
128,84,87795,1,10,0:0:0:0:
84,144,88045,1,10,0:0:0:0:
116,212,88295,1,14,0:0:0:0:
