osu file format v12

[General]
AudioFilename: Qu Ser, Ser.mp3
AudioLeadIn: 2000
PreviewTime: 48532
Countdown: 0
SampleSet: Soft
StackLeniency: 0.7
Mode: 0
LetterboxInBreaks: 0
WidescreenStoryboard: 1

[Editor]
DistanceSpacing: 1
BeatDivisor: 4
GridSize: 4

[Metadata]
Title:Que sera sera (TV Size)
TitleUnicode:ケセラセラ (TV Size)
Artist:fhana
ArtistUnicode:fhána
Creator:Unsfamiliar
Version:Hard
Source:Uchouten Kazoku
Tags:-umi- 有頂天家族 eccentric family lantis ending whatever will be
BeatmapID:283173
BeatmapSetID:108253

[Difficulty]
HPDrainRate:7
CircleSize:4
OverallDifficulty:7
ApproachRate:7
SliderMultiplier:1.7
SliderTickRate:1

[Events]
//Background and Video events
0,0,"bg.JPG",0,0
Video,0,"Uchoten Kazoku ED.avi"
//Break Periods
//Storyboard Layer 0 (Background)
//Storyboard Layer 1 (Fail)
//Storyboard Layer 2 (Pass)
//Storyboard Layer 3 (Foreground)
//Storyboard Sound Samples
//Background Colour Transformations
3,100,163,162,255

[TimingPoints]
545,500,4,2,1,40,1,0
795,-100,4,2,1,60,0,0
2545,-100,4,2,1,40,0,0
2795,-100,4,2,1,60,0,0
4545,-100,4,2,1,30,0,0
4795,-100,4,2,1,60,0,0
6545,-100,4,2,1,40,0,0
6795,-100,4,2,1,60,0,0
7045,-100,4,2,4,40,0,0
8795,-100,4,2,4,60,0,0
10045,-100,4,2,4,40,0,0
10295,-83.3333333333333,4,2,4,40,0,0
10545,-83.3333333333333,4,2,1,40,0,0
10795,-83.3333333333333,4,2,1,60,0,0
12295,-100,4,2,1,70,0,0
15045,-100,4,2,4,40,0,0
16295,-100,4,2,1,80,0,0
23545,-100,4,2,4,40,0,0
23795,-100,4,2,1,70,0,0
30295,-133.333333333333,4,2,1,70,0,0
31795,-200,4,2,1,70,0,0
33045,-100,4,2,1,70,0,0
35545,-100,4,2,1,60,0,0
36295,-100,4,2,1,70,0,0
36545,-100,4,2,1,70,0,0
46045,-100,4,2,1,60,0,0
46295,-100,4,2,1,70,0,0
46795,-100,4,2,1,50,0,0
47295,-100,4,2,1,70,0,0
47795,-100,4,2,1,60,0,0
47920,-100,4,2,1,50,0,0
48545,-100,4,2,2,70,0,1
56045,-100,4,2,3,60,0,1
56295,-100,4,2,2,70,0,1
62795,-100,4,2,3,60,0,1
63295,-100,4,2,2,70,0,1
66545,-83.3333333333333,4,2,2,70,0,1
68545,-100,4,2,2,70,0,1
71795,-100,4,2,2,60,0,1
72045,-100,4,2,3,60,0,1
72295,-100,4,2,2,70,0,1
78295,-100,4,2,2,70,0,0
78795,-100,4,2,3,60,0,0
80295,-100,4,2,2,70,0,0
82295,-83.3333333333333,4,2,2,70,0,0
84795,-83.3333333333333,4,2,3,70,0,0

[Colours]
Combo1 : 176,255,176
Combo2 : 255,183,111
Combo3 : 119,187,255
Combo4 : 153,153,204
Combo5 : 255,193,224

[HitObjects]
304,192,545,2,0,P|373:228|379:253,1,85,2|0,0:0|0:0,0:0:0:0:
304,280,1045,2,0,P|233:242|228:217,1,85
120,36,1545,1,0,0:0:0:0:
252,140,1795,1,0,0:0:0:0:
84,132,2045,1,0,0:0:0:0:
224,40,2295,1,0,0:0:0:0:
164,196,2545,5,2,0:0:0:0:
144,280,2795,1,0,0:0:0:0:
216,328,3045,2,0,P|284:324|316:288,1,85
376,216,3545,1,0,0:0:0:0:
420,336,3795,1,0,0:0:0:0:
296,316,4045,1,0,0:0:0:0:
376,216,4295,1,0,0:0:0:0:
376,188,4420,1,0,0:0:0:0:
372,160,4545,6,0,B|376:112|336:88,1,85,2|0,0:0|0:0,0:0:0:0:
264,44,5045,1,0,0:0:0:0:
212,112,5295,1,0,0:0:0:0:
116,28,5545,2,0,P|84:68|84:104,1,85
68,228,6045,1,0,0:0:0:0:
188,184,6295,1,0,0:0:0:0:
68,228,6545,1,2,0:0:0:0:
188,184,6795,1,0,0:0:0:0:
428,116,7045,6,0,L|336:116,1,85,2|0,0:0|0:0,0:0:0:0:
188,184,7545,2,0,L|280:184,1,85,2|0,0:0|0:0,0:0:0:0:
428,252,8045,2,0,L|336:252,1,85,2|0,0:0|0:0,0:0:0:0:
188,48,8545,6,0,L|280:48,1,85,2|0,0:0|0:0,0:0:0:0:
212,172,9045,1,0,0:0:0:0:
340,172,9295,1,0,0:0:0:0:
168,116,9545,1,0,0:0:0:0:
384,116,9795,1,0,0:0:0:0:
272,68,10045,1,2,0:0:0:0:
276,268,10295,6,0,B|280:224|280:224|268:208|268:208|272:176|272:176|276:152,1,101.999996887207,2|2,0:0|0:0,0:0:0:0:
272,68,10795,1,0,0:0:0:0:
276,268,11045,1,0,0:0:0:0:
184,324,11295,1,0,0:0:0:0:
368,324,11545,1,0,0:0:0:0:
144,300,11795,1,0,0:0:0:0:
408,300,12045,1,0,0:0:0:0:
444,224,12295,5,0,0:0:0:0:
444,196,12420,1,0,0:0:0:0:
436,167,12545,1,2,0:0:0:0:
452,84,12795,1,0,0:0:0:0:
452,84,12920,2,0,P|384:100|352:160,1,127.5,2|0,0:0|0:0,0:0:0:0:
344,332,13545,2,0,P|284:316|263:273,1,85
308,224,14045,1,0,0:0:0:0:
224,208,14295,1,0,0:0:0:0:
224,208,14420,1,0,0:0:0:0:
224,208,14545,6,0,P|224:119|233:110,1,85,2|0,0:0|0:0,0:0:0:0:
236,104,14920,1,2,0:0:0:0:
260,88,15045,1,2,0:0:0:0:
372,36,15295,1,0,0:0:0:0:
488,176,15545,1,2,0:0:0:0:
372,36,15795,1,0,0:0:0:0:
324,212,16045,1,2,0:0:0:0:
392,132,16295,1,0,0:0:0:0:
228,88,16545,6,0,P|172:104|148:148,1,85,2|0,0:0|0:0,0:0:0:0:
144,152,16920,1,2,0:0:0:0:
232,324,17295,2,0,P|188:344|140:340,1,85
160,220,17795,1,0,0:0:0:0:
280,176,18045,1,0,0:0:0:0:
432,36,18295,1,0,0:0:0:0:
432,36,18420,1,0,0:0:0:0:
432,36,18545,6,0,P|384:84|332:80,1,85,2|0,0:0|0:0,0:0:0:0:
340,88,18920,1,2,0:0:0:0:
312,88,19045,1,0,0:0:0:0:
160,92,19295,1,0,0:0:0:0:
160,92,19545,5,0,0:0:0:0:
120,228,19795,1,0,0:0:0:0:
224,344,20045,1,0,0:0:0:0:
376,320,20295,1,0,0:0:0:0:
404,308,20420,1,0,0:0:0:0:
424,284,20545,6,0,B|452:240|428:176,1,85,2|0,0:0|0:0,0:0:0:0:
428,172,20920,1,2,0:0:0:0:
408,148,21045,2,0,P|360:104|304:100,1,85
184,40,21545,2,0,P|252:48|272:68,1,85
116,88,22045,1,8,0:0:0:0:
180,144,22295,5,0,0:0:0:0:
188,172,22420,1,0,0:0:0:0:
180,200,22545,2,0,P|156:240|160:280,1,85
172,304,22920,1,2,0:0:0:0:
196,324,23045,1,0,0:0:0:0:
416,344,23295,2,0,L|296:344,1,85,0|2,0:0|0:0,0:0:0:0:
280,160,24045,5,8,0:0:0:0:
184,196,24295,2,0,P|180:136|196:104,1,85,0|2,0:0|0:0,0:0:0:0:
308,256,24795,1,0,0:0:0:0:
308,256,24920,2,0,P|372:202|380:156,1,127.5,2|0,0:0|0:0,0:0:0:0:
128,124,25545,1,0,0:0:0:0:
128,124,25795,6,0,P|138:93|186:69,2,85,0|8|0,0:0|0:0|0:0,0:0:0:0:
128,208,26545,2,0,P|138:238|186:262,1,85,2|0,0:0|0:0,0:0:0:0:
212,264,26920,1,2,0:0:0:0:
240,264,27045,2,0,P|284:240|294:209,1,85
280,80,27545,1,0,0:0:0:0:
294,209,27795,1,0,0:0:0:0:
408,148,28045,1,8,0:0:0:0:
294,209,28295,1,0,0:0:0:0:
124,60,28545,5,2,0:0:0:0:
132,248,28795,1,0,0:0:0:0:
172,72,29045,1,0,0:0:0:0:
84,236,29295,1,0,0:0:0:0:
208,108,29545,1,2,0:0:0:0:
48,204,29795,1,0,0:0:0:0:
256,244,30045,1,0,0:0:0:0:
332,348,30295,6,0,P|368:352|412:336,2,63.7500024318696,0|2|0,0:0|0:0|0:0,0:0:0:0:
256,244,31045,1,0,0:0:0:0:
188,68,31295,2,0,P|224:76|252:108,1,63.7500024318696,0|2,0:0|0:0,0:0:0:0:
112,252,31795,6,0,P|48:228|32:164,1,127.5,0|2,0:0|0:0,0:0:0:0:
340,152,33045,5,0,0:0:0:0:
388,32,33295,1,0,0:0:0:0:
220,96,33545,1,0,0:0:0:0:
292,268,33795,2,0,B|312:256|312:256|288:248|288:248|308:240|308:240|304:224|316:200,1,85
328,72,34295,6,0,P|368:76|416:128,1,85,0|2,0:0|0:0,0:0:0:0:
256,96,34795,2,0,P|256:48|280:12,1,85
256,192,35295,5,0,0:0:0:0:
172,72,35545,2,0,L|184:16,2,42.5,8|0|2,0:0|0:0|0:0,0:0:0:0:
132,192,36045,1,0,0:0:0:0:
132,220,36170,1,0,0:0:0:0:
140,248,36295,1,0,0:0:0:0:
156,272,36420,1,0,0:0:0:0:
180,288,36545,6,0,P|232:304|288:280,1,85,2|0,0:0|0:0,0:0:0:0:
288,288,36920,1,2,0:0:0:0:
440,172,37295,1,2,0:0:0:0:
316,144,37545,5,0,0:0:0:0:
400,236,37795,1,2,0:0:0:0:
276,208,38045,1,8,0:0:0:0:
392,96,38295,2,0,P|356:48|308:48,1,85,0|2,0:0|0:0,0:0:0:0:
248,40,38795,5,0,0:0:0:0:
248,40,38920,1,2,0:0:0:0:
248,40,39045,2,0,L|168:108,1,85
140,260,39545,2,0,L|220:192,1,85,0|2,0:0|0:0,0:0:0:0:
264,144,40045,1,8,0:0:0:0:
264,144,40170,1,2,0:0:0:0:
216,308,40545,6,0,P|288:336|320:328,1,85,2|0,0:0|0:0,0:0:0:0:
324,336,40920,1,2,0:0:0:0:
336,144,41295,2,0,P|374:139|414:175,1,85,2|0,0:0|0:0,0:0:0:0:
352,228,41795,2,0,P|313:232|273:196,1,85,2|8,0:0|0:0,0:0:0:0:
224,116,42295,2,0,P|204:172|156:172,1,85,0|2,0:0|0:0,0:0:0:0:
144,104,42795,5,0,0:0:0:0:
144,104,42920,1,2,0:0:0:0:
248,32,43295,1,2,0:0:0:0:
328,60,43545,1,0,0:0:0:0:
380,128,43795,1,2,0:0:0:0:
384,212,44045,2,0,L|356:280,2,42.5,8|2|0,0:0|0:0|0:0,0:0:0:0:
296,296,44545,6,0,P|208:296|196:280,1,85,2|0,0:0|0:0,0:0:0:0:
180,280,44920,2,0,L|52:288,1,127.5,2|2,0:0|0:0,0:0:0:0:
52,204,45545,1,0,0:0:0:0:
100,132,45795,5,2,0:0:0:0:
268,100,46045,1,10,0:0:0:0:
400,208,46295,2,0,P|416:252|380:308,1,85,2|2,0:0|0:0,0:0:0:0:
256,196,46795,6,0,L|256:240,3,28.3333333333333,8|2|2|8,0:0|0:0|0:0|0:0,0:0:0:0:
112,148,47295,2,0,L|60:212,1,42.5,0|2,0:0|0:0,0:0:0:0:
224,48,47795,1,8,0:0:0:0:
252,44,47920,1,8,0:0:0:0:
280,48,48045,1,2,0:0:0:0:
308,60,48170,1,2,0:0:0:0:
328,80,48295,1,2,0:0:0:0:
344,104,48420,1,2,0:0:0:0:
352,132,48545,6,0,P|352:172|328:212,1,85,6|0,0:0|0:0,0:0:0:0:
244,304,49045,1,8,0:0:0:0:
212,180,49295,1,0,0:0:0:0:
412,95,49545,2,0,P|400:68|360:32,2,85,2|2|8,0:0|0:0|0:0,0:0:0:0:
416,224,50295,1,0,0:0:0:0:
412,95,50545,6,0,L|292:96,1,85,2|0,0:0|0:0,0:0:0:0:
224,96,51045,1,8,0:0:0:0:
100,72,51295,2,0,P|100:124|120:168,1,85,0|2,0:0|0:0,0:0:0:0:
240,280,51795,1,2,0:0:0:0:
224,96,52045,1,8,0:0:0:0:
64,200,52295,1,0,0:0:0:0:
184,152,52545,6,0,P|200:200|172:252,1,85,2|0,0:0|0:0,0:0:0:0:
64,200,53045,1,8,0:0:0:0:
280,144,53295,2,0,P|296:192|268:244,1,85,0|2,0:0|0:0,0:0:0:0:
84,88,53795,2,0,P|107:65|157:54,1,85,2|8,0:0|0:0,0:0:0:0:
152,312,54295,2,0,P|102:298|74:247,1,85,0|2,0:0|0:0,0:0:0:0:
288,72,54795,6,0,P|335:98|351:135,1,85,0|8,0:0|0:0,0:0:0:0:
340,224,55295,1,0,0:0:0:0:
260,324,55545,1,2,0:0:0:0:
340,224,55795,6,0,L|416:248,2,42.5,0|0|8,0:0|0:0|0:0,0:0:0:0:
312,216,56170,1,8,0:0:0:0:
284,208,56295,1,2,0:0:0:0:
256,200,56420,1,2,0:0:0:0:
228,192,56545,6,0,L|124:128,1,85,6|0,0:0|0:0,0:0:0:0:
308,96,57045,2,0,L|388:144,1,85,8|0,0:0|0:0,0:0:0:0:
232,56,57545,1,2,0:0:0:0:
108,92,57795,1,2,0:0:0:0:
232,124,58045,1,8,0:0:0:0:
108,160,58295,5,0,0:0:0:0:
232,192,58545,1,2,0:0:0:0:
356,228,58795,1,0,0:0:0:0:
232,260,59045,1,8,0:0:0:0:
192,68,59295,2,0,P|136:72|100:100,2,85,0|2|2,0:0|0:0|0:0,0:0:0:0:
324,92,60045,1,8,0:0:0:0:
440,40,60295,5,0,0:0:0:0:
445,66,60420,1,0,0:0:0:0:
451,94,60545,2,0,L|470:183,1,85,2|0,0:0|0:0,0:0:0:0:
360,308,61045,2,0,L|336:196,1,85,8|0,0:0|0:0,0:0:0:0:
208,120,61545,2,0,L|227:209,1,85,2|2,0:0|0:0,0:0:0:0:
120,336,62045,1,8,0:0:0:0:
80,172,62295,2,0,P|80:124|124:80,1,85,2|0,0:0|0:0,0:0:0:0:
256,24,62795,5,10,0:0:0:0:
284,208,63045,1,10,0:0:0:0:
368,52,63295,1,0,0:0:0:0:
208,120,63545,1,0,0:0:0:0:
388,160,63795,2,0,B|404:164|404:164|412:180|412:180|428:188|428:188|440:220,1,85,2|8,0:0|0:0,0:0:0:0:
356,316,64295,1,0,0:0:0:0:
300,112,64545,5,6,0:0:0:0:
192,44,64795,1,0,0:0:0:0:
188,172,65045,1,8,0:0:0:0:
300,112,65295,1,0,0:0:0:0:
116,112,65545,2,0,P|96:148|100:196,1,85,2|2,0:0|0:0,0:0:0:0:
280,232,66045,1,8,0:0:0:0:
304,44,66295,1,0,0:0:0:0:
432,128,66545,6,0,B|400:128|384:112|384:112|364:128|324:128,1,101.999996887207,2|0,0:0|0:0,0:0:0:0:
224,84,67045,1,8,0:0:0:0:
140,212,67295,2,0,P|164:260|232:260,1,101.999996887207,0|2,0:0|0:0,0:0:0:0:
332,272,67795,1,2,0:0:0:0:
208,270,68045,2,0,P|165:281|141:329,1,101.999996887207,8|0,0:0|0:0,0:0:0:0:
60,152,68545,5,2,0:0:0:0:
160,124,68795,2,0,P|204:136|252:116,1,85,0|8,0:0|0:0,0:0:0:0:
336,36,69295,2,0,P|299:24|255:36,1,85,0|2,0:0|0:0,0:0:0:0:
344,128,69795,2,0,P|388:140|436:120,1,85,2|8,0:0|0:0,0:0:0:0:
276,104,70295,6,0,P|276:148|304:188,1,85,0|2,0:0|0:0,0:0:0:0:
380,284,70795,1,0,0:0:0:0:
268,300,71045,1,8,0:0:0:0:
428,184,71295,1,0,0:0:0:0:
436,376,71545,1,2,0:0:0:0:
332,216,71795,5,2,0:0:0:0:
308,200,71920,1,2,0:0:0:0:
292,176,72045,1,8,0:0:0:0:
280,148,72170,1,8,0:0:0:0:
264,124,72295,1,2,0:0:0:0:
240,104,72420,1,2,0:0:0:0:
212,92,72545,6,0,P|160:112|156:144,1,85,6|0,0:0|0:0,0:0:0:0:
148,344,73045,1,8,0:0:0:0:
212,236,73295,1,0,0:0:0:0:
280,344,73545,1,2,0:0:0:0:
344,236,73795,1,2,0:0:0:0:
420,344,74045,1,8,0:0:0:0:
392,184,74295,6,0,P|336:164|296:184,1,85,0|2,0:0|0:0,0:0:0:0:
120,320,74795,1,0,0:0:0:0:
88,92,75045,1,8,0:0:0:0:
325,58,75295,6,0,P|348:52|404:72,1,85,0|2,0:0|0:0,0:0:0:0:
468,184,75795,1,2,0:0:0:0:
388,284,76045,2,0,L|284:324,1,85,8|0,0:0|0:0,0:0:0:0:
272,192,76545,2,0,L|368:204,1,85,2|0,0:0|0:0,0:0:0:0:
300,88,77045,2,0,L|379:57,2,85,8|0|2,0:0|0:0|0:0,0:0:0:0:
180,132,77795,1,2,0:0:0:0:
300,88,78045,5,8,0:0:0:0:
304,224,78295,2,0,B|304:312|288:348|288:348|268:356|224:324,1,170,4|0,0:0|0:0,0:0:0:0:
220,324,78920,1,8,0:0:0:0:
196,304,79045,1,8,0:0:0:0:
124,232,79295,1,8,0:0:0:0:
144,132,79545,2,0,L|112:92,1,42.5,2|8,0:0|0:0,0:0:0:0:
244,84,79920,2,0,L|276:124,1,42.5,2|8,0:0|0:0,0:0:0:0:
392,80,80295,1,0,0:0:0:0:
404,208,80545,5,6,0:0:0:0:
288,152,80795,1,0,0:0:0:0:
404,208,81045,1,8,0:0:0:0:
296,272,81295,2,0,P|220:272|192:248,1,85,0|2,0:0|0:0,0:0:0:0:
444,136,81795,2,0,P|443:142|404:207,1,85,2|8,0:0|0:0,0:0:0:0:
316,80,82295,2,0,B|295:79|295:79|280:61|280:61|261:45|216:40,1,101.999996887207,0|2,0:0|0:0,0:0:0:0:
168,148,82795,5,0,0:0:0:0:
216,336,83045,1,8,0:0:0:0:
104,192,83295,1,0,0:0:0:0:
276,288,83545,1,2,0:0:0:0:
96,268,83795,1,2,0:0:0:0:
296,212,84045,1,8,0:0:0:0:
140,332,84295,1,0,0:0:0:0:
248,152,84545,1,6,0:0:0:0:
396,108,84795,5,10,0:0:0:0:
396,108,85045,1,10,0:0:0:0:
396,108,85295,1,4,0:0:0:0:
92,64,85795,5,10,0:0:0:0:
48,212,86045,1,10,0:0:0:0:
176,296,86295,1,4,0:0:0:0:
328,32,86795,1,10,0:0:0:0:
444,132,87045,1,10,0:0:0:0:
356,256,87295,6,0,P|308:228|276:188,1,101.999996887207,6|0,0:0|0:0,0:0:0:0:
260,164,87670,1,0,0:0:0:0:
248,132,87795,1,10,0:0:0:0:
188,236,88045,1,10,0:0:0:0:
368,156,88295,1,14,0:0:0:0:
