osu file format v13

[General]
AudioFilename: Fhana.mp3
AudioLeadIn: 1500
PreviewTime: 47242
Countdown: 0
SampleSet: Soft
StackLeniency: 0.7
Mode: 0
LetterboxInBreaks: 0
WidescreenStoryboard: 0

[Editor]
DistanceSpacing: 2
BeatDivisor: 8
GridSize: 4
TimelineZoom: 1

[Metadata]
Title:Itsuka no, Ikutsuka no Kimi to no Sekai
TitleUnicode:いつかの、いくつかのきみとのせかい
Artist:fhana
ArtistUnicode:fhána
Creator:Umi
Version:Insane
Source:Bokura wa minna kawaisou
Tags:mintong89 koreapenguin Opening 僕らはみんな河合荘 TV Size
BeatmapID:400898
BeatmapSetID:164692

[Difficulty]
HPDrainRate:7
CircleSize:4
OverallDifficulty:7
ApproachRate:8
SliderMultiplier:1.8
SliderTickRate:1

[Events]
//Background and Video events
0,0,"bg.jpg",0,0
Video,109,"Op.avi"
//Break Periods
//Storyboard Layer 0 (Background)
//Storyboard Layer 1 (Fail)
//Storyboard Layer 2 (Pass)
//Storyboard Layer 3 (Foreground)
//Storyboard Sound Samples
//Background Colour Transformations
3,100,163,162,255

[TimingPoints]
270,606.060606060606,4,2,1,40,1,0
9966,-100,4,2,1,50,0,0
29360,-133.333333333333,4,2,1,50,0,0
36633,-111.111111111111,4,2,1,50,0,0
39057,-95.2380952380952,4,2,1,50,0,0
43906,-95.2380952380952,4,2,1,40,0,0
45118,-95.2380952380952,4,2,1,50,0,0
46330,-95.2380952380952,4,2,1,60,0,0
48754,-83.3333333333333,4,2,1,60,0,1
52391,-83.3333333333333,4,2,3,40,0,1
52542,-83.3333333333333,4,2,1,60,0,1
68148,-100,4,2,1,50,0,1
76633,606.060606060606,4,2,1,40,1,0
89057,-100,4,2,1,5,0,0

[Colours]
Combo1 : 79,204,119
Combo2 : 128,0,255
Combo3 : 192,192,192
Combo4 : 255,128,0

[HitObjects]
137,169,270,6,0,L|137:118,2,45,2|0|0,0:0|0:0|0:0,0:0:0:0:
93,266,724,2,0,P|136:275|180:266,1,90,2|0,0:0|0:0,0:0:0:0:
419,118,1330,2,0,P|375:108|331:117,1,90,2|0,0:0|0:0,0:0:0:0:
235,141,1785,2,0,L|234:41,2,90,2|2|0,0:0|0:0|0:0,0:0:0:0:
367,349,2694,5,2,0:0:0:0:
380,316,2845,1,0,0:0:0:0:
393,283,2997,1,0,0:0:0:0:
402,248,3148,2,0,P|445:239|489:248,1,90,2|0,0:0|0:0,0:0:0:0:
235,333,3754,2,0,P|191:342|147:333,1,90,2|0,0:0|0:0,0:0:0:0:
67,275,4209,1,2,0:0:0:0:
56,242,4512,1,2,0:0:0:0:
45,209,4815,2,0,L|66:168,1,45
204,140,5118,6,0,L|183:181,2,45,2|0|0,0:0|0:0|0:0,0:0:0:0:
256,45,5573,1,2,0:0:0:0:
373,120,5876,1,0,0:0:0:0:
372,262,6179,1,2,0:0:0:0:
256,339,6482,1,0,0:0:0:0:
256,339,6633,1,2,0:0:0:0:
28,223,6936,2,0,P|63:217|117:223,1,90,2|0,0:0|0:0,0:0:0:0:
214,242,7391,1,8,0:0:0:0:
214,242,7466,1,8,0:0:0:0:
214,242,7542,6,0,L|238:204,1,45,8|8,0:0|0:0,0:0:0:0:
460,47,7997,2,0,L|436:85,1,45,4|4,0:3|0:3,0:0:0:0:
214,47,8451,2,0,L|238:85,1,45,8|8,0:0|0:0,0:0:0:0:
460,242,8906,2,0,L|436:204,1,45
390,134,9209,1,8,0:0:0:0:
390,134,9285,1,8,0:0:0:0:
390,134,9360,2,0,P|370:132|346:134,1,45,8|8,0:0|0:0,0:0:0:0:
213,182,9663,2,0,P|233:184|257:182,1,45,8|0,0:0|0:0,0:0:0:0:
142,142,9966,6,0,P|130:182|146:229,1,90,4|0,0:0|0:0,0:0:0:0:
224,285,10421,1,0,0:0:0:0:
294,214,10573,2,0,B|352:214|352:214|385:228,1,90,8|0,0:0|0:0,0:0:0:0:
437,363,11027,2,0,B|379:363|379:363|346:349,1,90,0|8,0:0|0:0,0:0:0:0:
294,214,11482,1,0,0:0:0:0:
165,307,11785,1,8,0:0:0:0:
134,104,12088,1,0,0:0:0:0:
294,214,12391,6,0,P|342:204|381:164,1,90,0|0,0:0|0:0,0:0:0:0:
296,87,12845,1,0,0:0:0:0:
433,124,12997,2,0,P|452:163|447:207,1,90,8|0,0:0|0:0,0:0:0:0:
384,343,13451,2,0,P|364:303|369:259,1,90,0|8,0:0|0:0,0:0:0:0:
495,272,13906,2,0,L|448:292,1,45,0|0,0:0|0:0,0:0:0:0:
294,214,14209,2,0,L|341:213,1,45,8|0,0:0|0:0,0:0:0:0:
174,288,14512,2,0,L|132:272,1,45,0|8,0:0|0:0,0:0:0:0:
158,119,14815,6,0,P|188:145|196:205,1,90,0|0,0:0|0:0,0:0:0:0:
174,288,15269,1,0,0:0:0:0:
269,318,15421,2,0,L|346:261,1,90,8|0,0:0|0:0,0:0:0:0:
486,171,15876,2,0,P|443:145|389:150,1,90,0|8,0:0|0:0,0:0:0:0:
288,165,16330,2,0,L|288:215,1,45,0|0,0:0|0:0,0:0:0:0:
188,98,16633,2,0,L|188:43,1,45,8|0,0:0|0:0,0:0:0:0:
90,165,16936,2,0,L|90:211,1,45,0|8,0:0|0:0,0:0:0:0:
54,328,17239,6,0,P|98:334|141:322,1,90,0|0,0:0|0:0,0:0:0:0:
221,254,17694,1,0,0:0:0:0:
387,327,17845,2,0,P|343:333|300:322,1,90,8|0,0:0|0:0,0:0:0:0:
310,176,18300,2,0,P|356:170|414:192,1,90,0|8,0:0|0:0,0:0:0:0:
263,249,18754,2,0,L|205:222,1,45,0|0,0:0|0:0,0:0:0:0:
112,186,19057,1,8,0:0:0:0:
72,208,19209,1,8,0:0:0:0:
52,248,19360,1,4,0:3:0:0:
57,292,19512,1,0,0:0:0:0:
78,331,19663,6,0,P|121:322|165:331,1,90,4|0,0:0|0:0,0:0:0:0:
273,366,20118,1,0,0:0:0:0:
405,273,20270,2,0,P|361:263|317:272,1,90,8|0,0:0|0:0,0:0:0:0:
469,346,20724,2,0,P|496:306|495:253,1,90,0|8,0:0|0:0,0:0:0:0:
410,111,21179,1,0,0:0:0:0:
300,233,21482,1,8,0:0:0:0:
147,105,21785,1,0,0:0:0:0:
81,284,22088,6,0,P|129:271|158:234,1,90
200,164,22542,1,0,0:0:0:0:
303,266,22694,2,0,L|402:266,1,90,8|0,0:0|0:0,0:0:0:0:
237,338,23148,2,0,L|138:338,1,90,0|8,0:0|0:0,0:0:0:0:
36,249,23603,2,0,L|75:218,1,45
64,107,23906,2,0,L|126:103,1,45,8|0,0:0|0:0,0:0:0:0:
190,24,24209,1,0,0:0:0:0:
190,24,24360,1,8,0:0:0:0:
190,24,24512,6,0,L|292:38,1,90
404,77,24966,1,0,0:0:0:0:
359,185,25118,2,0,L|257:171,1,90,8|0,0:0|0:0,0:0:0:0:
357,297,25573,2,0,P|401:294|439:271,1,90,0|8,0:0|0:0,0:0:0:0:
271,255,26027,2,0,P|226:257|188:280,2,90,0|8|0,0:0|0:0|0:0,0:0:0:0:
98,362,26936,6,0,P|69:281|84:225,1,135
126,148,27542,1,8,0:0:0:0:
150,123,27845,1,8,0:0:0:0:
150,123,27997,2,0,P|201:118|251:124,1,90,0|8,0:0|0:0,0:0:0:0:
302,197,28451,2,0,P|346:200|391:195,1,90,0|8,0:0|0:0,0:0:0:0:
435,184,28906,1,8,0:0:0:0:
460,147,29057,1,0,0:0:0:0:
462,101,29209,1,0,0:0:0:0:
442,60,29360,6,0,L|367:60,1,67.5000025749208,4|0,0:0|0:0,0:0:0:0:
224,65,29815,1,0,0:0:0:0:
224,65,29966,2,0,P|237:96|265:115,1,67.5000025749208
384,164,30421,2,0,P|371:133|344:115,1,67.5000025749208
256,233,30876,2,0,L|307:189,2,67.5000025749208,0|8|0,0:0|0:0|0:0,0:0:0:0:
49,353,31785,6,0,P|42:320|49:287,1,67.5000025749208
124,176,32239,2,0,P|131:208|125:241,1,67.5000025749208
48,134,32694,1,0,0:0:0:0:
126,93,32845,2,0,L|201:93,1,67.5000025749208
291,90,33300,1,0,0:0:0:0:
291,90,33603,1,8,0:0:0:0:
326,108,33754,1,0,0:0:0:0:
347,142,33906,1,0,0:0:0:0:
345,182,34057,1,0,0:0:0:0:
339,222,34209,6,0,P|318:261|294:280,1,67.5000025749208,4|0,0:0|0:0,0:0:0:0:
183,319,34663,1,0,0:0:0:0:
154,228,34815,2,0,L|221:228,1,67.5000025749208
75,264,35270,2,0,P|72:204|78:191,1,67.5000025749208
103,117,35724,1,0,0:0:0:0:
256,31,36027,1,8,0:0:0:0:
409,117,36330,1,0,0:0:0:0:
409,117,36482,1,0,0:0:0:0:
409,117,36633,6,0,P|378:160|384:248,1,121.499996292114,4|0,0:0|0:0,0:0:0:0:
409,300,37239,1,8,0:0:0:0:
350,355,37391,1,8,0:0:0:0:
276,319,37542,1,8,0:0:0:0:
296,240,37694,2,0,L|232:170,1,80.9999975280763,4|0,0:0|0:0,0:0:0:0:
183,124,38148,1,0,0:0:0:0:
434,60,38451,2,0,L|405:89,1,40.4999987640381,8|8,0:0|0:0,0:0:0:0:
450,207,38754,2,0,L|463:159,1,40.4999987640381,8|8,0:0|0:0,0:0:0:0:
462,296,39057,6,0,P|434:296|380:262,1,94.499997116089,4|0,0:0|0:0,0:0:0:0:
344,173,39512,1,0,0:0:0:0:
179,239,39663,2,0,L|276:240,1,94.499997116089,8|0,0:0|0:0,0:0:0:0:
142,335,40118,2,0,P|94:304|79:247,1,94.499997116089,6|0,0:0|0:0,0:0:0:0:
74,165,40573,1,0,0:0:0:0:
189,40,40876,1,8,0:0:0:0:
304,165,41179,1,0,0:0:0:0:
188,290,41482,6,0,P|255:312|322:291,1,141.749995674133,2|0,0:0|0:0,0:0:0:0:
412,291,42088,2,0,P|367:279|322:291,1,94.499997116089,8|0,0:0|0:0,0:0:0:0:
482,346,42542,2,0,L|445:199,1,141.749995674133,0|0,0:0|0:0,0:0:0:0:
251,62,43300,2,0,L|302:62,1,47.2499985580445,8|8,0:0|0:0,0:0:0:0:
156,127,43603,2,0,L|105:127,1,47.2499985580445,8|8,0:0|0:0,0:0:0:0:
43,269,43906,6,0,L|89:228,1,47.2499985580445,2|0,0:0|0:0,0:0:0:0:
170,359,44209,2,0,L|187:301,1,47.2499985580445,2|0,0:0|0:0,0:0:0:0:
342,359,44512,2,0,L|325:301,1,47.2499985580445,2|0,0:0|0:0,0:0:0:0:
469,269,44815,2,0,L|423:228,1,47.2499985580445,2|0,0:0|0:0,0:0:0:0:
292,104,45118,6,0,P|306:82|348:63,1,47.2499985580445,2|0,0:0|0:0,0:0:0:0:
240,254,45421,2,0,P|219:268|185:271,1,47.2499985580445,2|0,0:0|0:0,0:0:0:0:
340,200,45724,2,0,P|361:214|380:256,1,47.2499985580445,2|0,0:0|0:0,0:0:0:0:
189,148,46027,2,0,P|175:127|172:92,1,47.2499985580445,2|0,0:0|0:0,0:0:0:0:
397,41,46330,6,0,L|334:62,1,47.2499985580445,2|0,0:0|0:0,0:0:0:0:
96,121,46633,2,0,L|140:135,1,47.2499985580445,2|0,0:0|0:0,0:0:0:0:
385,186,46936,2,0,L|340:200,1,47.2499985580445,2|0,0:0|0:0,0:0:0:0:
108,265,47239,2,0,L|171:286,1,47.2499985580445,2|8,0:0|0:0,0:0:0:0:
181,289,47466,1,8,0:0:0:0:
181,289,47542,2,0,L|248:289,1,47.2499985580445,8|8,0:0|0:0,0:0:0:0:
385,186,47845,2,0,L|291:185,1,94.499997116089,0|8,0:0|0:0,0:0:0:0:
182,186,48300,1,0,0:0:0:0:
132,95,48451,1,0,0:0:0:0:
132,95,48754,6,0,L|245:95,1,107.999996704102,4|0,0:0|0:0,0:0:0:0:
359,95,49209,1,0,0:0:0:0:
428,190,49360,2,0,P|379:214|327:207,1,107.999996704102,8|0,0:0|0:0,0:0:0:0:
93,172,49966,2,0,P|141:148|193:155,1,107.999996704102,2|0,0:0|0:0,0:0:0:0:
155,248,50421,1,0,0:0:0:0:
3,229,50573,2,0,P|-13:178|0:127,1,107.999996704102,8|0,0:0|0:0,0:0:0:0:
116,37,51027,6,0,P|170:82|264:73,1,161.999995056153,2|0,0:0|0:0,0:0:0:0:
470,192,51785,2,0,L|415:192,1,53.9999983520508,8|0,0:0|0:0,0:0:0:0:
303,245,52088,2,0,L|357:277,1,53.9999983520508,8|0,0:0|0:0,0:0:0:0:
209,297,52391,2,0,P|194:247|210:196,1,107.999996704102,4|0,0:0|0:0,0:0:0:0:
272,119,52845,1,0,0:0:0:0:
112,146,52997,2,0,L|75:104,2,53.9999983520508,8|0|0,0:0|0:0|0:0,0:0:0:0:
196,236,53451,6,0,P|275:223|355:235,1,161.999995056153,2|0,0:0|0:0,0:0:0:0:
494,19,54209,2,0,P|458:27|434:51,1,53.9999983520508,8|0,0:0|0:0,0:0:0:0:
372,93,54512,1,0,0:0:0:0:
407,177,54663,2,0,P|355:117|277:116,1,161.999995056153,2|0,0:0|0:0,0:0:0:0:
83,142,55421,2,0,P|93:186|75:249,1,107.999996704102,8|0,0:0|0:0,0:0:0:0:
16,329,55876,1,0,0:0:0:0:
177,271,56027,6,0,P|233:273|293:310,1,107.999996704102,2|0,0:0|0:0,0:0:0:0:
475,161,56633,1,8,0:0:0:0:
404,199,56785,1,8,0:0:0:0:
319,182,56936,1,8,0:0:0:0:
283,104,57088,2,0,P|231:161|237:208,1,107.999996704102,4|8,0:0|0:0,0:0:0:0:
260,263,57542,2,0,L|139:214,1,107.999996704102,0|8,0:0|0:0,0:0:0:0:
72,189,57997,1,8,0:0:0:0:
72,189,58148,1,8,0:0:0:0:
73,97,58300,1,8,0:0:0:0:
73,97,58451,6,0,P|94:49|141:24,1,107.999996704102,4|0,0:0|0:0,0:0:0:0:
370,24,59057,2,0,P|417:49|438:97,1,107.999996704102,8|0,0:0|0:0,0:0:0:0:
444,198,59512,1,0,0:0:0:0:
276,136,59663,2,0,P|246:157|241:246,1,107.999996704102,2|0,0:0|0:0,0:0:0:0:
383,282,60118,2,0,L|347:228,1,53.9999983520508,0|8,0:0|0:0,0:0:0:0:
276,136,60421,2,0,P|246:133|208:139,1,53.9999983520508
40,232,60724,6,0,P|121:237|202:231,1,161.999995056153,4|0,0:0|0:0,0:0:0:0:
465,138,61482,2,0,P|410:134|339:141,1,107.999996704102,8|8,0:0|0:0,0:0:0:0:
243,168,61936,1,0,0:0:0:0:
117,56,62088,2,0,P|172:52|243:59,1,107.999996704102,2|0,0:0|0:0,0:0:0:0:
276,330,62694,2,0,P|225:299|210:247,1,107.999996704102,8|0,0:0|0:0,0:0:0:0:
286,92,63148,6,0,P|314:167|292:244,1,161.999995056153,4|0,0:0|0:0,0:0:0:0:
86,345,63906,2,0,L|54:238,1,107.999996704102,8|0,0:0|0:0,0:0:0:0:
20,120,64360,2,0,P|83:121|134:90,1,107.999996704102,2|8,0:0|0:0,0:0:0:0:
223,19,64815,1,0,0:0:0:0:
442,141,65118,2,0,L|450:82,2,53.9999983520508,8|8|0,0:0|0:0|0:0,0:0:0:0:
429,232,65573,1,8,0:0:0:0:
412,322,65724,6,0,P|366:334|299:322,1,107.999996704102,4|8,0:0|0:0,0:0:0:0:
185,249,66179,2,0,P|243:241|252:245,1,53.9999983520508
105,204,66482,2,0,P|122:178|153:168,1,53.9999983520508,8|0,0:0|0:0,0:0:0:0:
26,238,66785,2,0,P|14:182|59:82,1,161.999995056153,0|0,0:0|0:0,0:0:0:0:
315,44,67542,2,0,L|340:114,1,53.9999983520508,8|8,0:0|0:0,0:0:0:0:
439,143,67845,2,0,L|410:199,1,53.9999983520508,8|8,0:0|0:0,0:0:0:0:
470,295,68148,6,0,L|381:348,1,90,4|0,0:0|0:0,0:0:0:0:
274,368,68603,1,0,0:0:0:0:
170,304,68754,1,8,0:0:0:0:
170,304,69057,1,0,0:0:0:0:
170,304,69209,2,0,L|170:201,1,90,2|0,0:0|0:0,0:0:0:0:
289,56,69663,2,0,L|289:159,2,90,0|8|0,0:0|0:0|0:0,0:0:0:0:
472,229,70573,6,0,P|422:266|338:265,1,135,4|0,0:0|0:0,0:0:0:0:
269,218,71179,2,0,L|269:319,1,90,8|0,0:0|0:0,0:0:0:0:
190,265,71633,1,8,0:0:0:0:
351,179,71785,2,0,L|351:280,1,90,2|0,0:0|0:0,0:0:0:0:
115,58,72391,2,0,P|169:49|218:63,1,90,8|0,0:0|0:0,0:0:0:0:
485,139,72997,6,0,P|431:148|382:134,1,90,4|0,0:0|0:0,0:0:0:0:
296,104,73451,1,0,0:0:0:0:
240,255,73603,2,0,P|288:239|319:194,1,90,8|0,0:0|0:0,0:0:0:0:
124,327,74209,2,0,L|185:344,2,45,2|0|0,0:0|0:0|0:0,0:0:0:0:
22,297,74663,1,0,0:0:0:0:
22,297,74815,2,0,P|45:242|35:202,1,90,8|0,0:0|0:0,0:0:0:0:
10,127,75270,1,0,0:0:0:0:
74,47,75421,6,0,P|118:37|161:47,1,90,4|0,0:0|0:0,0:0:0:0:
161,200,75876,2,0,P|117:210|74:200,1,90,0|8,0:0|0:0,0:0:0:0:
117,125,76330,1,8,0:0:0:0:
208,126,76482,1,8,0:0:0:0:
283,178,76633,6,0,L|283:235,2,45,2|0|0,0:0|0:0|0:0,0:0:0:0:
382,247,77088,2,0,P|368:285|323:316,1,90,2|0,0:0|0:0,0:0:0:0:
192,101,77694,2,0,P|235:75|286:80,1,90,2|0,0:0|0:0,0:0:0:0:
166,197,78148,2,0,P|110:199|70:175,2,90,2|10|0,0:0|0:0|0:0,0:0:0:0:
399,86,79057,5,2,0:0:0:0:
419,126,79209,1,8,0:0:0:0:
419,170,79360,1,0,0:0:0:0:
399,210,79512,1,2,0:0:0:0:
293,320,79815,1,0,0:0:0:0:
171,203,80118,2,0,P|139:214|107:269,1,90,2|8,0:0|0:0,0:0:0:0:
187,350,80573,1,2,0:0:0:0:
304,159,80876,2,0,L|266:72,1,90,10|0,0:0|0:0,0:0:0:0:
446,176,81482,6,0,L|426:238,1,45,2|0,0:0|0:0,0:0:0:0:
395,315,81785,1,0,0:0:0:0:
271,267,81936,2,0,L|293:372,1,90,2|0,0:0|0:0,0:0:0:0:
167,161,82542,2,0,P|174:113|203:74,1,90,2|0,0:0|0:0,0:0:0:0:
111,224,82997,2,0,P|84:182|85:134,2,90,2|10|0,0:0|0:0|0:0,0:0:0:0:
223,257,83754,1,0,0:0:0:0:
308,176,83906,6,0,L|366:176,1,45,2|8,0:0|0:0,0:0:0:0:
449,178,84209,1,0,0:0:0:0:
311,62,84360,2,0,P|262:68|216:102,1,90,2|0,0:0|0:0,0:0:0:0:
140,284,84966,2,0,P|189:278|235:244,1,90,2|8,0:0|0:0,0:0:0:0:
308,176,85421,5,2,0:0:0:0:
308,140,85724,1,2,0:0:0:0:
308,104,86027,1,2,0:0:0:0:
256,192,86330,12,0,89057,0:0:0:0:
