osu file format v14

[General]
AudioFilename: ED-.mp3
AudioLeadIn: 0
PreviewTime: 69421
Countdown: 0
SampleSet: Normal
StackLeniency: 0.7
Mode: 0
LetterboxInBreaks: 0
EpilepsyWarning: 1
WidescreenStoryboard: 1

[Editor]
Bookmarks: 37295,69421,109106,139342,156350,188476,222492,245169,260287,275405,282964,296193,330208,335878
DistanceSpacing: 0.6
BeatDivisor: 4
GridSize: 4
TimelineZoom: 1.5

[Metadata]
Title:Hoshikuzu no Interlude
TitleUnicode:星屑のインターリュード
Artist:fhana
ArtistUnicode:fhána
Creator:Crystal
Version:Interlude
Source:天体のメソッド
Tags:Sora no Method ending ed Kawaiwkyik Noel Nonoka Toyosaki Aki Natsukawa Shiina Minase Inori Collab Collaboration yf_bmp -Google- Troogle
BeatmapID:526305
BeatmapSetID:225575

[Difficulty]
HPDrainRate:6
CircleSize:4
OverallDifficulty:7
ApproachRate:8.3
SliderMultiplier:2
SliderTickRate:1

[Events]
//Background and Video events
0,0,"123123123.jpg",0,0
//Break Periods
2,109306,123520
2,188676,194741
2,222692,229347
//Storyboard Layer 0 (Background)
//Storyboard Layer 1 (Fail)
//Storyboard Layer 2 (Pass)
//Storyboard Layer 3 (Foreground)
//Storyboard Sound Samples

[TimingPoints]
1390,472.44094488189,4,2,2,20,1,0
1390,-125,4,2,2,20,0,0
7059,-125,4,2,2,35,0,0
18397,-133.333333333333,4,2,2,40,0,0
20287,-100,4,2,2,80,0,0
37295,-100,4,2,2,60,0,0
69421,-83.3333333333333,4,1,1,80,0,1
82649,-125,4,1,1,80,0,1
83358,-83.3333333333333,4,1,1,80,0,1
97767,-125,4,1,1,60,0,1
98476,-83.3333333333333,4,1,1,60,0,1
99657,-83.3333333333333,4,1,1,60,0,0
102492,-125,4,1,1,60,0,0
102964,-83.3333333333333,4,1,1,60,0,0
105090,-166.666666666667,4,1,1,60,0,0
105799,-100,4,1,1,60,0,0
124224,-125,4,2,2,60,0,0
131783,-100,4,2,2,60,0,0
144539,-125,4,2,2,40,0,0
145012,-100,4,2,2,60,0,0
152571,-142.857142857143,4,2,2,40,0,0
153279,-100,4,2,2,40,0,0
154460,-142.857142857143,4,2,2,40,0,0
155169,-100,4,2,2,40,0,0
156350,-100,4,1,1,80,0,1
171941,-80,4,1,1,80,0,1
172413,-100,4,1,1,80,0,1
186586,-100,4,1,1,80,0,0
203594,-83.3333333333333,4,2,1,70,0,1
211153,-125,4,2,1,60,0,0
230051,-200,4,2,1,40,0,0
243279,-200,4,2,1,5,0,0
245169,-200,4,2,1,60,0,0
248004,-83.3333333333333,4,2,1,70,0,0
248949,-100,4,1,1,80,0,1
258397,-125,4,1,1,80,0,1
259106,-100,4,1,1,80,0,1
260641,-100,4,2,1,20,0,1
260760,-80,4,1,1,80,0,1
261232,-100,4,1,1,80,0,1
275405,-100,4,2,1,60,0,0
280838,-166.666666666667,4,2,1,60,0,0
281547,-100,4,2,1,60,0,0
282964,-83.3333333333333,4,2,1,80,0,1
286271,-83.3333333333333,4,2,1,80,0,0
289106,-100,4,2,1,60,0,0
294067,-166.666666666667,4,2,1,60,0,0
295248,-100,4,2,1,60,0,0
330681,-100,4,2,1,40,0,0
332098,-100,4,2,1,20,0,0
335405,-100,4,2,1,10,0,0

[Colours]
Combo1 : 255,128,192
Combo2 : 98,176,255
Combo3 : 0,99,198
Combo4 : 255,162,68

[HitObjects]
47,252,1390,6,0,P|45:212|60:176,1,80,2|0,0:0|0:0,0:0:0:0:
136,243,1862,2,0,P|138:283|124:320,1,80,2|0,0:0|0:0,0:0:0:0:
228,300,2334,2,0,P|224:228|236:140,1,160,2|2,0:0|0:0,0:0:0:0:
468,80,3279,6,0,P|468:125|464:168,1,80,2|0,0:0|0:0,0:0:0:0:
380,216,3752,2,0,P|380:264|388:312,1,80,2|0,0:0|0:0,0:0:0:0:
288,324,4224,2,0,P|216:304|244:233,1,160,2|2,0:0|0:0,0:0:0:0:
360,140,5169,5,2,0:0:0:0:
80,112,5641,2,0,P|60:60|68:24,1,80,2|0,0:0|0:0,0:0:0:0:
156,56,6114,2,0,P|232:48|288:60,2,120,2|0|0,0:0|0:0|0:0,0:0:0:0:
80,112,7059,6,0,P|64:160|144:144,1,160,2|0,0:0|0:0,0:0:0:0:
332,196,8004,2,0,P|395:171|394:239,1,160,2|0,0:0|0:0,0:0:0:0:
320,296,8712,1,0,0:0:0:0:
236,240,8949,6,0,P|232:188|304:88,2,160,2|0|0,0:0|0:0|0:0,0:0:0:0:
320,296,10130,2,0,L|156:284,1,160,2|0,0:0|0:0,0:0:0:0:
104,208,10838,2,0,P|119:142|205:121,1,160,2|0,0:0|0:0,0:0:0:0:
396,220,11783,1,2,0:0:0:0:
412,228,12728,5,2,0:0:0:0:
428,236,13673,5,2,0:0:0:0:
256,192,14618,12,0,17925,0:0:0:0:
88,252,18397,6,0,L|94:288,2,37.5000014305115,2|0|0,0:0|0:0|0:0,0:0:0:0:
160,168,18870,2,0,L|152:131,2,37.5000014305115,2|0|0,0:0|0:0|0:0,0:0:0:0:
264,224,19342,2,0,L|272:272,2,37.5000014305115,2|0|0,0:0|0:0|0:0,0:0:0:0:
332,116,19815,2,0,L|322:64,2,37.5000014305115,2|0|0,0:0|0:0|0:0,0:0:0:0:
412,200,20287,6,0,P|420:268|348:284,1,150,6|0,0:0|0:0,0:0:0:0:
328,280,20760,1,8,0:0:0:0:
192,256,20996,1,0,0:0:0:0:
192,256,21114,1,0,0:0:0:0:
192,256,21232,2,0,P|192:312|216:352,1,100,0|0,3:0|0:0,0:0:0:0:
272,180,21704,2,0,L|264:76,1,100,10|0,0:2|0:0,0:0:0:0:
148,0,22177,6,0,L|140:116,1,100,2|0,3:2|0:0,0:0:0:0:
48,224,22649,1,10,0:0:0:0:
220,168,22886,1,0,0:0:0:0:
152,288,23122,2,0,P|172:344|232:372,1,100,2|0,3:2|0:0,0:0:0:0:
240,284,23476,1,2,0:0:0:0:
240,284,23594,2,0,L|392:264,1,150,8|0,0:0|0:0,0:0:0:0:
420,260,24067,6,0,L|476:252,2,50,0|0|0,3:0|0:0|0:0,0:0:0:0:
340,148,24539,1,8,0:0:0:0:
340,148,24657,2,0,P|276:180|236:168,1,100,0|0,0:0|0:0,0:0:0:0:
224,152,25012,2,0,L|120:168,1,100,2|0,3:2|0:0,0:0:0:0:
144,320,25484,1,8,0:0:0:0:
268,232,25720,1,0,0:0:0:0:
125,167,25956,6,0,P|61:183|33:211,1,100,0|2,3:0|0:0,0:0:0:0:
36,312,26429,2,0,P|75:342|123:350,1,100,8|2,0:0|0:0,0:0:0:0:
240,224,26901,1,2,3:2:0:0:
240,224,27019,2,0,L|364:212,1,100,8|0,1:2|0:0,0:0:0:0:
358,213,27374,1,8,0:0:0:0:
375,212,27492,1,8,0:3:0:0:
389,211,27610,1,4,0:3:0:0:
352,328,27846,6,0,P|428:348|464:332,1,100,4|0,0:0|0:0,0:0:0:0:
468,332,28201,1,0,0:0:0:0:
484,312,28319,2,0,L|476:256,2,50,8|0|0,0:0|0:0|0:0,0:0:0:0:
312,112,28791,2,0,P|292:172|304:232,1,100,0|0,3:0|0:0,0:0:0:0:
312,232,29145,1,0,0:0:0:0:
336,248,29264,2,0,L|386:242,2,50,10|0|0,0:0|0:0|0:0,0:0:0:0:
100,324,29736,5,2,3:2:0:0:
28,204,29972,1,0,0:0:0:0:
28,204,30090,1,0,0:0:0:0:
28,204,30208,2,0,L|16:140,2,50,8|0|0,0:0|0:0|0:0,0:0:0:0:
104,96,30681,1,0,3:0:0:0:
192,168,30917,2,0,P|240:196|364:140,1,200,2|0,0:0|0:0,0:0:0:0:
265,46,31626,6,0,P|263:71|268:96,2,50,0|0|0,3:0|0:0|0:0,0:0:0:0:
456,112,32098,2,0,P|460:136|456:172,2,50,8|0|0,0:0|0:0|0:0,0:0:0:0:
368,28,32571,1,0,3:0:0:0:
284,108,32807,1,0,0:0:0:0:
136,48,33043,1,8,0:0:0:0:
108,56,33161,1,0,0:0:0:0:
80,64,33279,1,0,0:0:0:0:
20,188,33515,6,0,L|16:256,1,50,0|0,3:0|1:0,0:0:0:0:
56,308,33752,1,10,0:0:0:0:
184,228,33988,2,0,L|172:288,1,50,0|2,0:0|0:0,0:0:0:0:
296,196,34342,1,0,0:0:0:0:
296,196,34460,2,0,L|288:312,1,100,10|0,0:0|0:0,0:0:0:0:
384,352,34815,2,0,L|376:252,1,100,2|0,0:0|0:0,0:0:0:0:
372,224,35169,1,2,0:0:0:0:
440,76,35405,5,4,0:0:0:0:
416,64,35523,1,8,0:0:0:0:
392,52,35641,2,0,L|292:48,1,100,2|8,0:0|0:0,0:0:0:0:
256,128,35996,2,0,L|152:104,1,100,2|8,0:0|0:0,0:0:0:0:
72,140,36350,1,2,0:0:0:0:
48,172,36468,1,0,1:0:0:0:
50,211,36586,1,0,0:0:0:0:
75,240,36704,1,0,1:0:0:0:
112,256,36823,2,0,P|140:256|164:252,1,50,2|0,0:0|1:0,0:0:0:0:
304,304,37059,2,0,P|279:304|254:302,1,50,2|0,0:0|1:0,0:0:0:0:
224,196,37295,6,0,P|268:174|317:178,1,100,4|0,0:0|0:0,0:0:0:0:
408,204,37767,2,0,P|460:208|508:180,1,100,0|0,3:0|0:0,0:0:0:0:
324,192,38240,1,0,3:0:0:0:
436,108,38476,1,2,0:0:0:0:
436,108,38594,1,0,0:0:0:0:
472,288,38830,1,2,0:0:0:0:
472,288,38949,1,0,0:0:0:0:
300,228,39185,6,0,L|196:220,2,100,2|0|0,3:2|0:0|3:2,0:0:0:0:
356,324,39893,1,0,0:0:0:0:
356,324,40012,1,0,0:0:0:0:
356,324,40130,1,0,3:0:0:0:
104,248,40366,2,0,P|96:199|115:153,1,100,2|0,0:0|3:0,0:0:0:0:
216,120,40720,2,0,P|261:138|291:177,1,100,2|0,0:0|0:0,0:0:0:0:
280,280,41075,6,0,P|241:310|192:316,1,100,2|0,3:2|0:0,0:0:0:0:
104,248,41547,1,0,3:0:0:0:
216,120,41783,1,0,0:0:0:0:
200,220,42019,1,2,3:2:0:0:
80,92,42256,1,2,0:0:0:0:
100,108,42374,2,0,L|208:100,1,100,0|2,0:0|0:0,0:0:0:0:
216,120,42728,1,0,0:0:0:0:
448,204,42964,6,0,B|404:196|404:196|352:216|288:200,1,150,2|2,3:2|0:0,0:0:0:0:
300,202,43437,1,0,3:2:0:0:
504,288,43673,1,0,0:0:0:0:
504,288,43791,1,0,0:0:0:0:
504,288,43909,2,0,L|396:276,1,100,2|0,3:2|0:0,0:0:0:0:
404,276,44264,1,8,0:3:0:0:
404,276,44382,1,4,0:3:0:0:
344,116,44618,1,4,0:3:0:0:
344,116,44736,1,4,0:3:0:0:
344,115,44854,6,0,P|421:69|465:147,1,200,4|0,0:0|3:0,0:0:0:0:
432,356,45563,1,0,0:0:0:0:
432,356,45799,2,0,P|420:280|416:200,1,150,0|0,3:0|0:0,0:0:0:0:
404,184,46271,2,0,L|508:172,1,100,0|2,3:0|0:0,0:0:0:0:
344,116,46744,5,2,3:2:0:0:
316,200,46980,1,0,0:0:0:0:
316,200,47098,1,2,0:0:0:0:
316,200,47216,1,0,3:0:0:0:
256,132,47452,1,0,0:0:0:0:
232,220,47689,6,0,L|180:216,1,50,0|0,3:0|0:0,0:0:0:0:
112,280,47925,1,2,0:0:0:0:
132,304,48043,2,0,L|184:308,1,50,0|0,0:0|3:0,0:0:0:0:
200,332,48279,1,2,0:0:0:0:
200,332,48397,1,0,0:0:0:0:
360,360,48634,6,0,L|376:248,1,100,2|0,3:2|0:0,0:0:0:0:
256,132,49106,2,0,L|270:230,1,100,0|0,3:0|0:0,0:0:0:0:
424,92,49578,1,0,3:0:0:0:
216,140,49815,1,2,0:0:0:0:
236,136,49933,1,0,0:0:0:0:
256,132,50051,1,0,3:0:0:0:
340,32,50287,1,0,0:0:0:0:
284,256,50523,5,0,3:0:0:0:
196,144,50760,2,0,P|144:148|88:116,1,100,2|0,0:0|3:0,0:0:0:0:
80,108,51114,2,0,L|86:187,2,50,0|0|0,0:0|1:0|1:0,0:0:0:0:
72,28,51468,1,0,0:0:0:0:
72,28,51586,1,0,1:2:0:0:
168,64,51823,5,0,1:0:0:0:
196,56,51941,1,0,1:0:0:0:
224,60,52059,1,0,1:0:0:0:
248,80,52177,1,0,0:0:0:0:
476,168,52413,6,0,L|296:160,1,150,4|2,0:0|1:3,0:0:0:0:
326,161,52886,1,0,0:0:0:0:
40,232,53122,1,8,0:3:0:0:
40,232,53240,1,0,0:0:0:0:
40,232,53358,2,0,L|220:224,1,150,4|2,0:0|1:3,0:0:0:0:
189,225,53831,1,0,0:0:0:0:
392,344,54067,1,4,0:3:0:0:
392,344,54185,1,0,0:0:0:0:
392,344,54303,6,0,P|408:280|448:168,1,150,4|0,0:0|0:0,0:0:0:0:
384,108,54775,2,0,P|396:172|396:228,1,100,2|0,0:0|0:0,0:0:0:0:
328,264,55130,1,0,0:0:0:0:
312,228,55248,1,2,1:2:0:0:
312,188,55366,1,0,1:2:0:0:
240,328,55602,1,0,1:0:0:0:
220,292,55720,1,2,0:0:0:0:
132,384,55956,1,4,0:3:0:0:
104,352,56075,1,0,0:0:0:0:
68,336,56193,6,0,P|88:272|68:168,1,150,4|2,0:0|1:3,0:0:0:0:
52,160,56665,1,0,0:0:0:0:
204,300,56901,1,8,0:3:0:0:
240,288,57019,1,0,0:0:0:0:
284,308,57138,2,0,L|448:296,1,150,4|2,0:0|1:3,0:0:0:0:
460,312,57610,2,0,L|360:319,1,100,0|4,0:0|0:3,0:0:0:0:
304,180,57964,1,0,0:0:0:0:
304,180,58082,6,0,L|403:187,1,100,4|0,0:0|0:0,0:0:0:0:
284,308,58555,2,0,L|184:315,1,100,2|0,0:0|0:0,0:0:0:0:
116,360,58909,1,0,0:0:0:0:
104,324,59027,1,0,1:0:0:0:
84,292,59145,1,0,1:0:0:0:
176,124,59382,1,0,1:0:0:0:
160,160,59500,1,0,1:0:0:0:
152,200,59618,1,0,1:0:0:0:
152,240,59736,1,8,0:3:0:0:
395,240,59972,6,0,P|333:199|260:200,1,150,4|2,0:0|1:3,0:0:0:0:
259,200,60445,1,0,0:0:0:0:
376,368,60681,1,8,0:3:0:0:
376,368,60799,1,0,0:0:0:0:
376,368,60917,2,0,P|324:312|270:298,1,100,4|0,0:0|0:0,0:0:0:0:
264,296,61271,1,2,1:3:0:0:
224,304,61390,1,0,0:0:0:0:
472,324,61626,1,4,0:3:0:0:
472,324,61744,1,0,0:0:0:0:
472,324,61862,6,0,P|504:272|488:172,1,150,4|0,0:1|0:0,0:0:0:0:
414,238,62334,2,0,P|357:284|284:288,1,150,4|0,0:0|0:0,0:0:0:0:
212,108,62807,2,0,P|241:161|335:197,1,150,4|0,0:0|1:0,0:0:0:0:
284,288,63279,1,0,1:0:0:0:
244,280,63397,1,0,1:0:0:0:
204,272,63515,1,4,0:3:0:0:
96,336,63752,6,0,P|72:288|88:228,1,100,4|0,0:0|0:0,0:0:0:0:
208,192,64224,2,0,L|306:207,1,100,0|0,3:0|0:0,0:0:0:0:
468,252,64697,2,0,L|369:267,1,100,0|0,3:0|0:0,0:0:0:0:
280,84,65169,2,0,L|378:99,1,100,0|0,3:0|0:0,0:0:0:0:
147,263,65641,6,0,P|118:173|185:105,1,200,0|0,3:0|3:0,0:0:0:0:
212,340,66350,1,0,0:0:0:0:
212,340,66468,1,0,0:0:0:0:
212,340,66586,2,0,P|148:364|92:348,1,100,0|0,3:0|3:0,0:0:0:0:
118,359,67059,1,0,0:0:0:0:
336,160,67295,1,0,0:0:0:0:
336,160,67531,6,0,L|320:364,1,200,4|0,0:0|0:0,0:0:0:0:
424,112,68240,1,0,0:0:0:0:
400,80,68358,1,0,0:0:0:0:
364,64,68476,1,0,1:0:0:0:
324,64,68594,1,0,1:0:0:0:
184,48,68830,1,0,0:0:0:0:
184,48,68949,6,0,L|208:12,2,25,0|0|0,1:0|1:0|1:0,0:0:0:0:
164,72,69185,1,0,1:0:0:0:
144,100,69303,1,0,1:0:0:0:
120,128,69421,6,0,L|248:132,1,119.999996337891,12|0,0:1|0:0,0:0:0:0:
376,52,69893,1,6,0:2:0:0:
348,208,70130,1,0,0:0:0:0:
296,56,70366,1,8,0:2:0:0:
296,56,70484,2,0,P|328:116|392:128,1,119.999996337891,2|0,0:0|0:0,0:0:0:0:
460,96,70838,2,0,B|480:136|480:136|464:216,1,119.999996337891,8|0,0:0|0:0,0:0:0:0:
404,324,71311,5,8,0:2:0:0:
196,292,71547,1,0,0:0:0:0:
344,172,71783,1,8,0:0:0:0:
344,172,71901,2,0,L|220:184,1,119.999996337891,0|0,0:0|0:0,0:0:0:0:
136,184,72256,1,8,0:2:0:0:
91,179,72374,1,2,0:0:0:0:
57,151,72492,1,0,0:0:0:0:
44,109,72610,1,0,0:0:0:0:
56,66,72728,2,0,P|60:38|76:8,1,59.9999981689454,2|2,2:0|2:2,0:0:0:0:
136,184,72964,2,0,P|131:213|117:240,1,59.9999981689454,0|2,0:0|0:0,0:0:0:0:
36,264,73201,5,8,0:2:0:0:
244,168,73437,1,0,0:0:0:0:
196,288,73673,1,8,0:0:0:0:
128,104,73909,1,0,0:0:0:0:
208,304,74145,1,8,0:2:0:0:
208,304,74264,2,0,P|264:320|321:303,1,119.999996337891,2|0,0:0|0:0,0:0:0:0:
384,252,74618,2,0,P|400:324|380:364,1,119.999996337891,8|0,0:0|0:0,0:0:0:0:
312,172,75090,6,0,P|336:100|280:12,2,179.999994506836,12|2|2,0:2|2:2|2:2,0:0:0:0:
121,90,76035,1,10,2:2:0:0:
121,90,76153,2,0,P|180:82|236:104,1,119.999996337891,0|0,0:0|0:0,0:0:0:0:
236,104,76508,1,8,0:0:0:0:
164,216,76744,1,8,0:3:0:0:
140,220,76862,1,8,0:3:0:0:
116,224,76980,6,0,L|248:240,1,119.999996337891,4|0,0:2|0:0,0:0:0:0:
184,336,77452,1,8,0:0:0:0:
184,336,77571,2,0,L|316:352,1,119.999996337891,0|0,0:0|0:0,0:0:0:0:
428,296,77925,2,0,P|356:248|372:148,2,179.999994506836,8|2|0,0:2|0:0|0:0,0:0:0:0:
432,208,78870,6,0,P|440:136|408:96,1,119.999996337891,8|0,0:2|0:0,0:0:0:0:
348,56,79224,2,0,P|288:76|228:60,1,119.999996337891,2|0,0:0|0:0,0:0:0:0:
164,24,79578,1,0,0:0:0:0:
116,208,79815,1,8,0:2:0:0:
180,352,80051,2,0,L|172:280,1,59.9999981689454,2|0,0:0|0:0,0:0:0:0:
132,228,80287,2,0,L|136:164,1,59.9999981689454,8|0,0:0|0:0,0:0:0:0:
296,132,80523,6,0,P|256:132|228:148,1,59.9999981689454,0|0,0:0|0:0,0:0:0:0:
280,212,80760,2,0,P|352:200|380:148,1,119.999996337891,8|0,0:2|0:0,0:0:0:0:
384,144,81114,1,0,0:0:0:0:
384,144,81232,1,8,0:0:0:0:
428,24,81468,1,0,0:0:0:0:
216,44,81704,2,0,L|148:52,1,59.9999981689454,8|2,0:2|0:0,0:0:0:0:
72,124,81941,2,0,L|132:132,1,59.9999981689454
212,156,82177,1,8,0:0:0:0:
76,40,82413,1,0,0:0:0:0:
36,224,82649,6,0,L|48:384,1,160,4|8,0:2|0:0,0:0:0:0:
240,352,83358,5,0,0:0:0:0:
280,344,83476,1,0,0:0:0:0:
312,316,83594,2,0,P|336:276|336:244,1,59.9999981689454,0|0,0:0|0:0,0:0:0:0:
248,192,83830,2,0,L|256:264,1,59.9999981689454,8|8,0:3|0:3,0:0:0:0:
320,152,84067,1,2,0:0:0:0:
320,152,84185,1,2,0:0:0:0:
320,152,84303,2,0,L|328:80,1,59.9999981689454,2|0,0:0|0:0,0:0:0:0:
408,44,84539,6,0,L|280:56,1,119.999996337891,4|0,0:0|0:0,0:0:0:0:
79,171,85012,2,0,P|49:122|61:64,1,119.999996337891,4|0,0:2|0:0,0:0:0:0:
192,236,85484,1,8,0:2:0:0:
192,236,85602,1,2,0:0:0:0:
44,352,85838,1,0,0:0:0:0:
44,352,85956,1,8,0:0:0:0:
228,340,86193,1,0,0:0:0:0:
310,380,86429,6,0,B|332:348|312:296|312:296|317:264,1,119.999996337891,8|0,0:2|0:0,0:0:0:0:
388,208,86783,2,0,P|424:168|416:92,1,119.999996337891,2|0,0:0|0:0,0:0:0:0:
472,32,87138,1,0,0:0:0:0:
340,136,87374,1,8,0:2:0:0:
488,232,87610,1,0,0:0:0:0:
484,256,87728,1,2,0:0:0:0:
480,280,87846,2,0,P|480:312|472:340,1,59.9999981689454,8|4,0:0|0:3,0:0:0:0:
364,352,88082,2,0,L|296:336,1,59.9999981689454,4|0,2:3|0:0,0:0:0:0:
196,348,88319,5,4,0:2:0:0:
96,196,88555,1,0,0:0:0:0:
232,216,88791,1,8,0:0:0:0:
72,328,89027,1,0,0:0:0:0:
248,204,89264,1,8,0:2:0:0:
260,196,89382,1,2,0:0:0:0:
316,336,89618,1,0,0:0:0:0:
308,356,89736,1,8,0:0:0:0:
368,184,89972,1,0,0:0:0:0:
448,336,90208,6,0,B|428:256|428:256|480:204|448:136,1,179.999994506836,12|2,0:2|2:2,0:0:0:0:
456,148,90681,1,0,0:0:0:0:
244,76,90917,1,2,2:0:0:0:
384,128,91153,1,10,0:2:0:0:
376,156,91271,1,0,0:0:0:0:
368,184,91390,2,0,L|320:228,1,59.9999981689454
236,280,91626,1,10,0:0:0:0:
236,280,91744,1,0,0:0:0:0:
236,280,91862,2,0,L|168:264,1,59.9999981689454,8|8,0:3|0:3,0:0:0:0:
184,348,92098,6,0,P|260:360|312:312,1,119.999996337891,4|0,2:0|0:0,0:0:0:0:
352,276,92452,2,0,L|480:292,1,119.999996337891,2|0,0:0|0:0,0:0:0:0:
504,216,92807,2,0,L|510:156,1,59.9999981689454,0|0,0:0|0:0,0:0:0:0:
432,80,93043,2,0,L|417:223,1,119.999996337891,8|0,0:2|0:0,0:0:0:0:
336,156,93397,2,0,L|347:36,1,119.999996337891,2|0,0:0|0:0,0:0:0:0:
348,16,93752,1,0,0:0:0:0:
180,128,93988,5,0,0:0:0:0:
84,328,94224,1,0,0:0:0:0:
256,224,94460,1,8,0:0:0:0:
256,224,94578,1,0,0:0:0:0:
256,224,94815,6,0,P|332:260|420:216,1,179.999994506836
488,248,95287,1,0,0:0:0:0:
488,248,95405,2,0,L|496:180,1,59.9999981689454,8|0,0:0|0:0,0:0:0:0:
416,80,95641,2,0,L|428:144,1,59.9999981689454,0|0,0:0|0:0,0:0:0:0:
308,56,95878,6,0,L|336:188,1,119.999996337891,12|0,0:2|0:0,0:0:0:0:
328,276,96232,2,0,P|264:312|208:296,1,119.999996337891,2|0,0:0|0:0,0:0:0:0:
221,303,96586,1,0,0:0:0:0:
112,376,96823,2,0,B|72:301|112:237|112:237|56:265|22:248,1,239.999992675781,8|8,0:2|0:0,0:0:0:0:
192,184,97767,6,0,P|244:212|336:168,1,160,4|8,0:2|0:0,0:0:0:0:
260,124,98476,1,0,0:0:0:0:
260,124,98594,1,0,0:0:0:0:
260,124,98712,2,0,L|252:56,1,59.9999981689454,0|8,0:0|0:3,0:0:0:0:
368,32,98949,2,0,L|360:104,1,59.9999981689454,8|0,0:3|0:0,0:0:0:0:
440,176,99185,1,2,0:0:0:0:
440,176,99303,1,2,0:0:0:0:
440,176,99421,2,0,L|452:260,1,59.9999981689454,0|0,0:0|0:0,0:0:0:0:
404,320,99657,6,0,P|340:336|280:288,1,119.999996337891,4|0,0:2|0:0,0:0:0:0:
292,240,100012,2,0,P|252:292|140:284,1,179.999994506836,0|0,0:0|0:0,0:0:0:0:
84,160,100602,1,4,2:0:0:0:
440,216,101075,1,8,0:0:0:0:
248,244,101547,6,0,P|248:176|256:112,1,119.999996337891,4|0,2:0|0:0,0:0:0:0:
272,92,101901,2,0,P|332:100|392:84,1,119.999996337891,0|0,0:0|0:0,0:0:0:0:
420,64,102256,1,0,0:0:0:0:
496,200,102492,6,0,B|492:280,1,80,4|0,2:0|0:0,0:0:0:0:
356,304,102964,1,8,0:3:0:0:
348,316,103082,1,8,0:3:0:0:
340,328,103201,1,4,0:3:0:0:
332,340,103319,1,4,0:3:0:0:
324,352,103437,6,0,L|206:361,1,119.999996337891,4|0,2:0|0:0,0:0:0:0:
176,364,103791,1,0,0:0:0:0:
272,224,104027,1,0,0:0:0:0:
272,224,104145,1,2,0:0:0:0:
72,160,104382,1,4,2:0:0:0:
148,256,104618,1,0,0:0:0:0:
148,256,104736,1,0,0:0:0:0:
148,256,104854,1,8,0:2:0:0:
244,132,105090,6,0,L|368:144,1,119.999996337891,4|0,2:0|0:0,0:0:0:0:
512,116,105799,6,0,L|508:60,1,50,2|2,0:0|0:0,0:0:0:0:
448,176,106035,2,0,L|460:236,1,50,2|2,0:0|0:0,0:0:0:0:
448,328,106271,1,0,0:0:0:0:
448,328,106390,2,0,L|484:320,2,25,0|0|2,0:0|0:0|0:0,0:0:0:0:
420,336,106626,1,2,0:0:0:0:
392,344,106744,2,0,L|328:332,1,50,2|2,0:0|0:0,0:0:0:0:
248,252,106980,1,4,0:0:0:0:
256,192,107098,12,6,109106,0:0:0:0:
108,148,124224,5,2,0:0:0:0:
304,108,124697,1,0,3:0:0:0:
108,148,125169,2,0,P|128:200|136:232,1,80,0|0,3:0|0:0,0:0:0:0:
148,348,125641,2,0,P|160:280|176:216,1,120,2|0,0:0|0:0,0:0:0:0:
180,208,126114,5,2,3:2:0:0:
256,324,126350,2,0,L|304:316,2,40,0|2|0,0:0|0:0|3:2,0:0:0:0:
48,252,127059,5,0,3:0:0:0:
52,228,127177,1,0,0:0:0:0:
180,208,127413,1,0,0:0:0:0:
184,184,127531,1,2,3:2:0:0:
164,304,127767,1,0,0:0:0:0:
200,88,128004,6,0,B|240:92|240:92|332:76,1,120,2|2,3:2|0:0,0:0:0:0:
344,72,128476,1,0,3:0:0:0:
344,72,128949,1,0,3:2:0:0:
264,196,129185,1,0,0:0:0:0:
212,48,129421,2,0,P|260:80|344:72,1,120,2|0,0:0|0:0,0:0:0:0:
344,72,129893,5,2,3:2:0:0:
412,180,130130,2,0,L|360:176,2,40,0|2|0,0:0|0:0|3:2,0:0:0:0:
332,320,130838,6,0,L|224:328,1,80,6|0,3:2|0:0,0:0:0:0:
216,256,131193,2,0,L|136:250,1,80,8|0,0:3|0:0,0:0:0:0:
80,304,131547,1,4,0:3:0:0:
400,376,131783,6,0,P|420:328|320:232,1,200,4|0,0:0|1:0,0:0:0:0:
216,256,132492,1,2,0:0:0:0:
84,328,132728,2,0,P|60:272|76:200,1,100,2|0,3:2|0:0,0:0:0:0:
80,196,133082,2,0,L|244:176,1,150,0|2,0:0|0:0,0:0:0:0:
392,356,133673,6,0,P|336:344|288:312,1,100,2|0,1:2|0:0,0:0:0:0:
480,224,134145,2,0,P|430:220|382:232,1,100,2|0,1:2|0:0,0:0:0:0:
360,252,134500,2,0,L|380:92,1,150,0|2,0:0|0:0,0:0:0:0:
392,4,135090,1,0,1:0:0:0:
180,132,135327,1,0,0:0:0:0:
180,132,135445,1,0,0:0:0:0:
180,132,135563,6,0,L|284:120,1,100,2|0,1:2|0:0,0:0:0:0:
360,252,136035,1,0,1:0:0:0:
112,260,136271,2,0,L|211:271,1,100,2|0,0:0|1:0,0:0:0:0:
180,132,136744,1,2,0:0:0:0:
72,360,136980,2,0,L|176:348,1,100,0|0,1:0|0:0,0:0:0:0:
80,63,137452,6,0,P|62:110|62:160,1,100,0|2,1:0|0:0,0:0:0:0:
204,260,137925,1,0,1:0:0:0:
196,212,138043,1,0,0:0:0:0:
352,116,138279,1,0,1:0:0:0:
332,160,138397,1,0,1:0:0:0:
324,208,138515,1,0,1:2:0:0:
448,96,138752,1,0,1:0:0:0:
432,49,138870,1,0,1:0:0:0:
394,18,138988,1,0,1:0:0:0:
344,14,139106,1,8,1:3:0:0:
208,84,139342,6,0,P|140:104|64:80,1,150,4|2,0:0|1:3,0:0:0:0:
52,64,139815,1,0,0:0:0:0:
40,44,139933,2,0,L|44:164,1,100
100,212,140287,2,0,L|88:320,1,100,4|0,0:0|0:0,0:0:0:0:
88,311,140641,1,2,1:3:0:0:
88,311,140760,1,0,0:0:0:0:
304,224,140996,1,4,0:3:0:0:
304,224,141114,1,0,0:0:0:0:
304,224,141232,6,0,P|312:160|296:124,1,100,4|0,0:0|0:0,0:0:0:0:
240,84,141586,2,0,L|344:72,1,100,0|0,0:0|0:0,0:0:0:0:
420,44,141941,1,0,1:0:0:0:
440,40,142059,1,0,1:0:0:0:
460,36,142177,2,0,L|524:40,1,50,2|0,1:2|1:2,0:0:0:0:
492,136,142413,1,0,1:0:0:0:
492,136,142531,2,0,L|388:144,1,100,0|0,1:0|0:0,0:0:0:0:
320,192,142886,1,4,0:3:0:0:
320,192,143122,6,0,P|340:264|308:344,1,150,4|2,0:0|1:3,0:0:0:0:
236,352,143594,1,0,0:0:0:0:
236,352,143712,2,0,L|136:348,1,100
64,308,144067,1,4,0:0:0:0:
192,224,144303,1,0,0:0:0:0:
340,280,144539,6,0,P|400:292|456:256,1,120,8|0,0:3|0:0,0:0:0:0:
468,240,145012,6,0,L|456:124,1,100,4|0,0:0|0:0,0:0:0:0:
308,192,145484,1,2,0:0:0:0:
372,112,145720,1,0,1:0:0:0:
372,112,145838,1,0,1:0:0:0:
372,112,145956,2,0,L|364:48,1,50,0|0,1:0|1:0,0:0:0:0:
208,128,146311,2,0,L|200:192,1,50,0|0,1:0|1:0,0:0:0:0:
176,204,146547,1,0,1:0:0:0:
148,228,146665,1,8,0:3:0:0:
40,136,146901,5,4,0:0:0:0:
124,340,147138,1,0,0:0:0:0:
124,340,147256,1,2,1:3:0:0:
124,340,147374,1,0,1:0:0:0:
344,344,147610,1,8,0:3:0:0:
376,344,147728,1,0,1:0:0:0:
400,328,147846,2,0,P|432:276|432:236,1,100,4|0,0:0|1:0,0:0:0:0:
328,168,148201,1,0,0:0:0:0:
316,156,148319,2,0,L|332:264,1,100,0|4,1:0|0:3,0:0:0:0:
420,152,148791,6,0,B|404:60|404:60|348:36,1,150,4|0,0:1|0:0,0:0:0:0:
232,172,149264,2,0,P|170:143|147:60,1,150,4|0,0:0|0:0,0:0:0:0:
317,132,149736,2,0,P|323:198|262:260,1,150,4|0,0:0|1:0,0:0:0:0:
200,296,150208,6,0,L|188:364,2,50,0|0|4,1:0|1:0|1:3,0:0:0:0:
232,172,150681,1,4,1:2:0:0:
200,296,150917,1,0,0:0:0:0:
200,296,151035,1,2,0:0:0:0:
360,160,151271,1,0,0:0:0:0:
360,160,151390,1,2,0:0:0:0:
480,304,151626,2,0,P|404:300|376:272,1,100,0|0,1:0|0:0,0:0:0:0:
360,160,152098,1,0,1:0:0:0:
480,216,152334,1,0,0:0:0:0:
296,264,152571,6,0,L|144:272,1,139.999995727539,4|0,1:2|1:0,0:0:0:0:
40,104,153279,6,0,L|104:108,1,50,0|0,0:0|0:0,0:0:0:0:
168,144,153515,2,0,B|224:160|268:120|268:120|324:140,1,150,0|0,1:0|0:0,0:0:0:0:
328,148,153988,1,0,1:0:0:0:
404,304,154224,1,0,0:0:0:0:
404,304,154460,6,0,P|316:328|260:288,1,139.999995727539,4|0,0:0|1:0,0:0:0:0:
152,356,155169,5,0,0:0:0:0:
152,356,155287,1,0,0:0:0:0:
152,356,155405,1,0,1:0:0:0:
152,356,155523,2,0,L|140:248,1,100
36,272,155878,2,0,L|28:324,2,33.3333333333333,2|0|0,1:0|1:0|1:2,0:0:0:0:
44,232,156114,1,2,1:2:0:0:
52,188,156193,1,0,1:0:0:0:
60,148,156271,1,2,1:0:0:0:
68,112,156350,6,0,B|128:100|128:100|192:156|276:116,1,200,12|6,0:1|0:2,0:0:0:0:
208,16,157059,1,0,0:0:0:0:
344,171,157295,2,0,P|349:147|351:122,1,50,8|2,0:2|0:0,0:0:0:0:
280,312,157649,2,0,P|260:262|244:235,1,50,0|8,0:0|0:0,0:0:0:0:
128,216,158004,1,0,0:0:0:0:
96,352,158240,5,8,0:2:0:0:
56,152,158476,2,0,P|32:208|48:276,1,100,0|8,0:0|0:0,0:0:0:0:
76,276,158830,2,0,L|160:256,1,50,0|0,0:0|0:0,0:0:0:0:
220,340,159067,1,0,0:0:0:0:
244,348,159185,2,0,L|248:272,1,50,8|2,0:2|0:0,0:0:0:0:
200,152,159421,2,0,L|196:228,1,50,0|0,0:0|0:0,0:0:0:0:
328,328,159657,1,2,2:0:0:0:
328,328,159775,2,0,L|408:316,1,50,0|0,2:2|0:0,2:0:0:0:
508,352,160130,5,8,0:2:0:0:
364,220,160366,1,0,0:0:0:0:
504,248,160602,1,8,0:0:0:0:
392,384,160838,1,0,0:0:0:0:
240,224,161075,1,8,0:2:0:0:
268,232,161193,2,0,L|160:248,1,100,2|0,0:0|0:0,0:0:0:0:
164,276,161547,1,8,0:0:0:0:
424,144,161783,2,0,L|374:138,1,50
404,253,162019,6,0,L|504:248,1,100,12|0,0:2|0:0,0:0:0:0:
424,344,162374,2,0,L|368:352,1,50,2|8,2:2|0:0,0:0:0:0:
188,320,162728,2,0,L|256:313,1,50,2|0,2:2|0:0,0:0:0:0:
256,220,162964,1,10,2:2:0:0:
256,220,163082,1,0,0:0:0:0:
256,220,163201,2,0,L|316:204,1,50,0|0,0:0|0:0,0:0:0:0:
168,160,163437,2,0,L|122:180,1,50,8|0,0:0|0:0,0:0:0:0:
152,328,163673,2,0,L|160:240,1,50,8|8,0:3|0:3,0:0:0:0:
48,128,163909,6,0,P|32:188|64:256,1,100,4|0,0:2|0:0,0:0:0:0:
128,64,164382,1,8,0:0:0:0:
184,248,164618,1,0,0:0:0:0:
240,24,164854,1,8,0:2:0:0:
232,72,164972,1,2,0:0:0:0:
280,248,165208,1,0,0:0:0:0:
272,200,165326,1,8,0:0:0:0:
280,152,165445,1,0,0:0:0:0:
308,112,165563,1,0,0:0:0:0:
352,88,165681,1,0,0:0:0:0:
400,84,165799,6,0,L|416:132,1,50,8|0,0:2|0:0,0:0:0:0:
352,184,166035,2,0,L|368:232,1,50,0|2,0:0|0:0,0:0:0:0:
454,212,166271,2,0,L|448:312,1,100,8|0,0:0|0:0,0:0:0:0:
336,360,166744,2,0,L|326:276,1,50,8|0,0:2|0:0,0:0:0:0:
324,260,166980,1,2,0:0:0:0:
224,372,167216,1,8,0:0:0:0:
188,340,167334,1,0,0:0:0:0:
140,320,167452,1,0,0:0:0:0:
92,312,167571,1,0,0:0:0:0:
44,316,167689,6,0,P|112:296|144:200,1,150,8|0,0:2|0:0,0:0:0:0:
272,272,168161,2,0,L|156:264,1,100,8|0,0:0|0:0,0:0:0:0:
64,148,168634,1,8,0:2:0:0:
64,148,168752,1,2,0:0:0:0:
64,148,168870,2,0,L|132:136,1,50,0|0,0:0|0:0,0:0:0:0:
248,192,169106,1,8,0:0:0:0:
248,192,169224,1,2,0:0:0:0:
248,192,169342,2,0,L|180:180,1,50,2|0,0:0|0:0,0:0:0:0:
88,360,169578,6,0,P|120:312|104:208,1,150,4|0,0:2|0:0,0:0:0:0:
76,188,170051,2,0,L|24:204,1,50,8|0,0:0|0:0,0:0:0:0:
196,336,170287,2,0,P|208:280|196:224,1,100,0|0,0:0|0:0,0:0:0:0:
32,276,170641,1,0,0:0:0:0:
32,296,170760,2,0,L|84:276,1,50,8|8,0:3|0:3,0:0:0:0:
76,188,170996,6,0,L|24:208,1,50,2|2,0:0|0:0,0:0:0:0:
39,378,171232,2,0,L|91:358,1,50,2|0,0:0|0:0,0:0:0:0:
312,348,171468,6,0,P|344:324|288:336,1,150,4|0,0:0|0:0,0:0:0:0:
312,348,171941,6,0,P|388:368|472:272,1,187.5,4|0,0:2|0:0,0:0:0:0:
392,256,172413,5,8,0:2:0:0:
372,268,172531,2,0,L|380:160,1,100,2|0,0:0|0:0,0:0:0:0:
292,112,172886,2,0,L|304:200,1,50,8|0,0:0|0:0,0:0:0:0:
214,141,173122,2,0,L|208:92,1,50,0|0,0:0|0:0,0:0:0:0:
168,212,173358,6,0,P|116:216|72:192,1,100,8|0,0:2|0:0,0:0:0:0:
16,260,173712,2,0,P|45:303|46:353,1,100,2|0,0:0|0:0,0:0:0:0:
136,372,174067,2,0,L|196:360,1,50,0|0,0:0|0:0,0:0:0:0:
276,364,174303,2,0,L|380:368,1,100,8|0,0:2|0:0,0:0:0:0:
416,340,174657,1,2,0:0:0:0:
464,352,174775,1,8,0:0:0:0:
476,304,174893,1,4,0:3:0:0:
484,256,175012,1,4,2:3:0:0:
372,88,175248,6,0,L|296:100,1,50,4|0,0:2|0:0,0:0:0:0:
304,128,175484,2,0,L|353:120,1,50,0|0,0:0|0:0,0:0:0:0:
456,176,175720,2,0,L|380:188,1,50,8|0,0:0|0:0,0:0:0:0:
280,236,175956,2,0,L|230:228,1,50
426,297,176193,2,0,L|476:304,2,50,8|2|0,0:2|0:0|0:0,0:0:0:0:
316,356,176547,2,0,L|266:362,2,50,0|8|0,0:0|0:0|0:0,0:0:0:0:
480,200,176901,1,0,0:0:0:0:
480,200,177019,1,0,0:0:0:0:
480,200,177138,6,0,P|428:196|376:164,1,100,12|0,0:2|0:0,0:0:0:0:
384,56,177492,2,0,P|420:88|440:120,1,50,2|0,2:2|0:0,0:0:0:0:
280,236,177846,2,0,P|264:190|263:152,1,50,2|0,2:0|0:0,0:0:0:0:
276,40,178082,1,8,0:2:0:0:
296,84,178201,1,2,2:0:0:0:
288,132,178319,1,0,0:0:0:0:
256,172,178437,1,2,2:0:0:0:
208,188,178555,2,0,L|140:184,1,50,8|0,0:0|0:0,0:0:0:0:
68,136,178791,1,8,0:3:0:0:
68,136,178909,1,8,0:3:0:0:
68,136,179027,6,0,P|76:216|72:280,1,100,4|0,2:0|0:0,0:0:0:0:
56,324,179382,2,0,L|232:304,1,150,2|0,0:0|0:0,0:0:0:0:
284,348,179854,1,0,0:0:0:0:
284,348,179972,2,0,L|292:276,1,50,8|2,0:2|0:0,0:0:0:0:
256,172,180208,2,0,L|248:244,1,50,0|0,0:0|0:0,0:0:0:0:
388,288,180445,1,8,0:0:0:0:
388,288,180563,1,0,0:0:0:0:
388,288,180681,2,0,L|448:276,1,50,0|0,0:0|0:0,0:0:0:0:
320,348,180917,5,8,0:2:0:0:
484,208,181153,1,0,0:0:0:0:
380,168,181390,1,8,0:0:0:0:
380,168,181508,2,0,L|392:68,1,100,0|0,0:0|0:0,0:0:0:0:
304,32,181862,2,0,L|312:88,1,50,8|0,0:2|0:0,0:0:0:0:
200,124,182098,2,0,L|255:133,1,50,0|0,0:0|0:0,0:0:0:0:
260,252,182334,2,0,L|286:201,1,50,8|0,0:0|0:0,0:0:0:0:
398,238,182570,2,0,L|358:197,1,50,0|0,0:0|0:0,0:0:0:0:
400,60,182807,6,0,P|378:104|372:153,1,100,12|0,0:2|0:0,0:0:0:0:
440,260,183161,2,0,P|432:212|424:184,1,50,2|8,0:0|0:0,0:0:0:0:
296,48,183515,2,0,P|290:72|287:97,1,50,0|0,0:0|0:0,0:0:0:0:
352,284,183752,2,0,P|345:234|323:190,1,100,8|0,0:2|0:0,0:0:0:0:
208,132,184106,1,0,0:0:0:0:
187,119,184224,2,0,P|193:144|196:169,1,50,8|0,0:0|0:0,0:0:0:0:
250,305,184460,2,0,P|255:280|260:256,1,50,0|0,0:0|0:0,0:0:0:0:
96,168,184697,6,0,P|120:244|112:300,1,100,4|0,0:2|0:0,0:0:0:0:
168,360,185169,2,0,L|268:348,1,100,8|0,0:0|0:0,0:0:0:0:
392,308,185641,1,0,0:0:0:0:
392,308,185760,1,8,0:3:0:0:
472,192,185996,1,0,0:0:0:0:
472,192,186114,1,2,0:0:0:0:
388,80,186350,1,0,0:0:0:0:
388,80,186468,1,0,0:0:0:0:
388,80,186586,5,4,0:2:0:0:
256,136,186823,1,0,0:0:0:0:
272,276,187059,2,0,L|256:332,3,50
244,372,187531,1,4,2:0:0:0:
156,352,187767,1,0,0:0:0:0:
84,300,188004,1,10,0:0:0:0:
84,300,188122,1,2,0:0:0:0:
84,300,188240,1,0,0:0:0:0:
60,212,188476,1,4,2:0:0:0:
124,128,195445,5,0,0:0:0:0:
124,128,195563,1,8,0:3:0:0:
96,248,195799,1,0,0:0:0:0:
124,128,196035,5,4,0:2:0:0:
224,336,196508,2,0,L|116:332,1,100,2|2,0:0|2:0,0:0:0:0:
16,224,196980,1,0,0:0:0:0:
284,188,197452,1,2,0:0:0:0:
284,188,197689,1,2,2:0:0:0:
244,95,197925,6,0,P|316:94|385:206,1,200,0|2,0:0|0:0,0:0:0:0:
324,280,198870,2,0,P|251:280|182:168,1,200,0|2,0:0|0:0,0:0:0:0:
448,80,199815,1,0,0:0:0:0:
448,80,200287,2,0,L|440:288,2,200,2|0|2,0:0|0:0|0:0,0:0:0:0:
284,184,201704,6,0,P|208:200|128:120,1,200,0|2,0:0|0:0,0:0:0:0:
228,100,202649,1,0,0:0:0:0:
228,100,202767,1,0,0:0:0:0:
388,208,203004,1,0,0:0:0:0:
388,208,203122,2,0,L|380:272,1,50,2|0,0:0|0:0,0:0:0:0:
472,300,203358,2,0,L|468:240,1,50,4|4,0:3|0:3,0:0:0:0:
484,160,203594,6,0,P|488:96|448:48,1,119.999996337891,4|0,0:0|0:0,0:0:0:0:
298,100,203949,2,0,P|348:131|406:122,1,119.999996337891,2|0,0:0|0:0,0:0:0:0:
364,52,204303,1,8,1:0:0:0:
248,172,204539,2,0,P|320:212|436:204,2,179.999994506836,4|2|8,0:0|0:0|0:3,0:0:0:0:
160,208,205484,6,0,P|92:248|44:236,1,119.999996337891,4|0,0:0|0:0,0:0:0:0:
4,92,205838,2,0,P|72:130|86:178,1,119.999996337891,2|0,0:0|0:0,0:0:0:0:
0,176,206193,1,8,1:0:0:0:
16,384,206429,2,0,B|12:196,2,179.999994506836,4|2|4,0:0|0:0|0:3,0:0:0:0:
280,340,207374,6,0,P|372:354|436:282,2,179.999994506836,4|2|8,0:0|0:0|0:3,0:0:0:0:
300,114,208319,2,0,P|357:180|340:266,2,179.999994506836,4|2|8,0:0|0:0|1:0,0:0:0:0:
136,60,209264,5,4,0:0:0:0:
356,24,209618,1,2,0:0:0:0:
268,210,209972,1,2,0:0:0:0:
460,216,210208,2,0,P|472:308|408:376,1,179.999994506836,4|2,1:2|0:0,0:0:0:0:
224,244,210917,2,0,L|283:256,1,59.9999981689454,2|2,0:0|0:0,0:0:0:0:
376,276,211153,5,4,0:0:0:0:
376,276,211862,1,0,0:0:0:0:
496,120,212098,2,0,L|332:140,1,160,8|0,1:0|0:0,0:0:0:0:
200,48,212807,1,0,0:0:0:0:
200,48,212925,1,0,0:0:0:0:
200,48,213043,6,0,P|248:60|288:48,1,80,0|2,3:0|1:0,0:0:0:0:
148,152,213515,2,0,P|100:140|60:152,1,80,0|2,3:0|1:0,0:0:0:0:
104,232,213988,2,0,P|172:240|236:164,1,160,8|8,1:0|0:3,0:0:0:0:
216,96,214697,1,0,0:0:0:0:
216,96,214815,1,0,0:0:0:0:
216,96,214933,5,4,0:0:0:0:
400,136,215169,1,0,0:0:0:0:
420,140,215641,1,0,0:0:0:0:
484,232,215878,2,0,P|412:252|328:204,1,160,8|0,1:0|0:0,0:0:0:0:
280,128,216586,1,0,1:0:0:0:
280,128,216704,1,0,1:0:0:0:
280,128,216823,6,0,L|284:40,1,80,0|2,1:0|1:0,0:0:0:0:
168,112,217295,2,0,L|172:208,1,80,0|2,1:0|1:0,0:0:0:0:
304,252,217767,1,8,1:0:0:0:
376,196,218004,1,0,0:0:0:0:
336,340,218240,1,8,0:3:0:0:
424,332,218476,1,0,0:0:0:0:
336,340,218712,6,0,L|160:328,1,160,4|2,0:0|1:2,0:0:0:0:
48,176,219657,2,0,P|36:100|124:40,1,160,2|2,1:2|1:2,0:0:0:0:
196,128,220366,1,0,0:0:0:0:
196,128,220484,1,0,0:0:0:0:
196,128,220602,2,0,P|140:132|104:112,1,80,2|0,1:2|0:0,0:0:0:0:
248,56,221075,6,0,L|328:72,1,80,2|0,1:2|0:0,0:0:0:0:
464,44,221547,1,0,1:2:0:0:
432,204,221783,1,0,0:0:0:0:
432,204,221901,1,2,1:0:0:0:
432,204,222019,2,0,L|488:200,2,40,2|0|0,1:2|0:0|0:0,0:0:0:0:
276,304,222492,5,4,0:0:0:0:
88,120,230051,6,0,B|184:100|184:100|244:112,1,150,0|2,0:0|0:0,0:0:0:0:
380,144,231468,1,2,0:0:0:0:
380,144,231941,2,0,P|372:208|368:304,2,150,0|2|2,0:0|0:0|0:0,0:0:0:0:
296,88,233830,6,0,P|240:64|140:240,1,300,2|0,0:0|0:0,0:0:0:0:
204,288,235720,2,0,L|316:272,1,100,2|0,0:0|0:0,0:0:0:0:
392,312,236665,2,0,P|400:252|380:212,1,100,2|0,0:0|0:0,0:0:0:0:
300,164,237610,5,2,0:0:0:0:
320,160,238555,5,0,0:0:0:0:
340,156,239500,5,2,0:0:0:0:
360,152,240445,6,0,P|384:204|376:264,1,100,2|0,0:0|0:0,0:0:0:0:
228,248,241390,2,0,B|176:185|110:212|64:300|150:350|197:332|197:332|243:349|304:324|314:265,1,400,2|0,0:0|0:0,2:0:0:0:
256,192,243397,12,4,245169,0:0:0:0:
256,192,247059,5,4,0:0:0:0:
136,196,248004,6,0,B|72:188|72:188|20:212,1,119.999996337891,4|0,0:0|0:0,0:0:0:0:
92,272,248358,2,0,B|156:280|156:280|208:256,1,119.999996337891,4|0,0:0|0:0,0:0:0:0:
276,168,248712,1,4,0:0:0:0:
276,168,248949,6,0,P|340:144|392:160,1,100,8|0,0:2|0:0,0:0:0:0:
472,232,249421,1,8,0:0:0:0:
340,232,249657,1,0,0:0:0:0:
476,84,249893,1,8,0:2:0:0:
476,84,250012,2,0,P|424:84|376:56,1,100,2|0,0:0|0:0,0:0:0:0:
304,24,250366,2,0,L|196:36,1,100,8|0,0:0|0:0,0:0:0:0:
120,160,250838,6,0,L|280:141,2,150,12|2|2,0:2|2:2|2:2,0:0:0:0:
40,280,251783,1,10,2:2:0:0:
20,312,251901,2,0,L|104:308,1,50
188,348,252138,1,0,0:0:0:0:
224,364,252256,1,8,0:0:0:0:
264,360,252374,2,0,P|298:351|328:340,1,50,0|8,0:0|0:3,0:0:0:0:
456,348,252728,6,0,L|448:240,1,100,4|0,0:2|0:0,0:0:0:0:
348,112,253201,2,0,L|332:212,1,100,8|0,0:0|0:0,0:0:0:0:
472,124,253673,1,8,0:2:0:0:
472,124,253791,2,0,L|460:64,1,50,2|0,0:0|0:0,0:0:0:0:
380,20,254027,2,0,L|316:16,1,50,2|8,0:0|0:0,0:0:0:0:
116,96,254382,1,0,0:0:0:0:
192,48,254618,6,0,P|196:136|140:184,2,150,8|2|0,0:2|0:0|0:0,0:0:0:0:
32,64,255563,1,8,0:2:0:0:
56,228,255799,1,2,0:0:0:0:
64,256,255917,1,0,0:0:0:0:
72,284,256035,2,0,P|120:288|152:280,1,50,8|0,0:0|0:0,0:0:0:0:
264,260,256271,2,0,P|216:256|184:264,1,50
308,336,256508,6,0,P|352:276|352:252,1,100,8|0,0:2|0:0,0:0:0:0:
344,224,256862,1,0,0:0:0:0:
344,224,256980,1,8,0:0:0:0:
204,336,257216,1,0,0:0:0:0:
208,152,257452,2,0,L|264:160,1,50,8|2,0:2|0:0,0:0:0:0:
324,96,257689,2,0,L|428:84,2,100,2|8|0,0:0|0:0|0:0,0:0:0:0:
152,60,258397,6,0,P|116:100|120:216,1,160,4|8,0:2|0:0,0:0:0:0:
212,312,259106,5,0,0:0:0:0:
240,324,259224,1,0,0:0:0:0:
268,336,259342,2,0,L|328:328,1,50,0|0,0:0|0:0,0:0:0:0:
412,317,259578,2,0,L|416:268,1,50,8|8,0:3|0:3,0:0:0:0:
336,216,259815,2,0,L|316:160,1,50,2|2,0:0|0:0,0:0:0:0:
224,184,260051,2,0,L|183:154,1,50,2|0,0:0|0:0,0:0:0:0:
76,228,260287,6,0,P|104:208|76:248,1,150,4|0,0:0|0:0,0:0:0:0:
76,228,260760,6,0,P|52:192|128:92,1,187.5,4|0,0:2|0:0,0:0:0:0:
216,124,261232,5,8,0:2:0:0:
228,152,261350,2,0,L|248:44,1,100,2|0,0:0|0:0,0:0:0:0:
328,96,261704,2,0,L|318:145,1,50,8|0,0:0|0:0,0:0:0:0:
408,132,261941,2,0,L|417:82,1,50,0|0,0:0|0:0,0:0:0:0:
432,216,262177,6,0,B|448:292|448:292|424:328,1,100,8|0,0:2|0:0,0:0:0:0:
340,276,262531,2,0,B|324:200|324:200|348:164,1,100,2|0,0:0|0:0,0:0:0:0:
244,144,262886,2,0,P|224:188|204:216,1,50,0|0,0:0|0:0,0:0:0:0:
140,236,263122,2,0,P|80:228|24:256,1,100,8|0,0:2|0:0,0:0:0:0:
12,280,263476,1,2,0:0:0:0:
8,328,263594,1,8,0:0:0:0:
32,372,263712,1,4,0:3:0:0:
80,380,263830,1,4,2:3:0:0:
208,324,264067,6,0,L|228:248,1,50,4|0,0:2|0:0,0:0:0:0:
296,220,264303,2,0,L|308:268,1,50
376,368,264539,2,0,L|396:292,1,50,8|0,0:0|0:0,0:0:0:0:
512,272,264775,2,0,L|492:196,1,50
404,104,265012,2,0,P|396:156|436:212,1,100,10|0,0:2|0:0,0:0:0:0:
496,140,265366,2,0,P|504:88|464:32,1,100,2|0,0:2|0:0,0:0:0:0:
341,41,265720,2,0,P|305:49|253:45,1,50,2|0,0:2|0:0,0:0:0:0:
216,128,265956,6,0,P|192:96|188:28,1,100,12|0,0:2|0:0,0:0:0:0:
92,80,266311,2,0,P|76:116|19:154,1,100,2|0,2:2|0:0,0:0:0:0:
104,216,266665,2,0,P|148:196|184:196,1,50,2|0,2:0|0:0,0:0:0:0:
244,228,266901,1,8,0:2:0:0:
287,252,267019,1,2,2:2:0:0:
336,255,267137,1,2,0:0:0:0:
382,235,267255,1,2,2:0:0:0:
414,198,267373,1,8,0:0:0:0:
426,150,267491,1,0,0:0:0:0:
416,101,267609,1,8,0:3:0:0:
385,62,267727,1,8,0:3:0:0:
340,41,267846,6,0,L|164:56,1,150,4|2,2:0|0:0,0:0:0:0:
160,56,268319,2,0,P|152:116|184:164,1,100,0|0,0:0|0:0,0:0:0:0:
208,172,268673,1,0,0:0:0:0:
252,172,268791,2,0,L|264:240,1,50,8|0,0:2|0:0,0:0:0:0:
352,208,269027,2,0,L|340:276,1,50,0|2,0:0|0:0,0:0:0:0:
244,296,269264,2,0,L|256:364,1,50,0|0,0:0|0:0,0:0:0:0:
344,332,269500,2,0,L|332:400,1,50,0|0,0:0|0:0,0:0:0:0:
464,296,269736,5,0,0:0:0:0:
488,140,269972,1,0,0:0:0:0:
340,196,270208,1,8,0:0:0:0:
324,220,270327,2,0,L|212:208,1,100,0|0,0:0|0:0,0:0:0:0:
204,232,270681,2,0,L|212:296,1,50
96,260,270917,2,0,L|89:210,1,50,0|0,0:0|0:0,0:0:0:0:
200,92,271153,2,0,L|208:156,1,50,8|0,0:0|0:0,0:0:0:0:
92,120,271389,2,0,L|85:70,1,50,0|0,0:0|0:0,0:0:0:0:
244,20,271626,6,0,P|288:40|356:28,1,100,12|0,0:2|0:0,0:0:0:0:
396,108,271980,2,0,P|376:152|388:220,1,100,2|0,0:0|0:0,0:0:0:0:
316,264,272334,2,0,L|260:256,1,50,0|0,0:0|0:0,0:0:0:0:
184,292,272571,2,0,L|196:368,3,50,8|0|0|0,0:2|0:0|0:0|0:0,0:0:0:0:
80,304,273043,2,0,L|87:254,1,50,8|0,0:0|0:0,0:0:0:0:
40,176,273279,2,0,L|47:126,1,50,0|0,0:0|0:0,0:0:0:0:
116,68,273515,6,0,P|164:92|240:64,1,100,4|0,0:2|0:0,0:0:0:0:
252,60,273870,1,0,0:0:0:0:
300,52,273988,2,0,P|349:47|392:70,1,100,8|0,0:0|0:0,0:0:0:0:
420,112,274342,1,0,0:0:0:0:
396,156,274460,2,0,L|400:224,1,50,0|8,0:0|0:3,0:0:0:0:
488,192,274697,2,0,L|484:260,1,50,8|0,0:3|0:0,0:0:0:0:
416,312,274933,1,2,0:0:0:0:
360,304,275051,1,2,0:0:0:0:
304,296,275169,1,0,0:0:0:0:
248,288,275287,1,0,0:0:0:0:
192,280,275405,5,4,0:2:0:0:
304,100,275760,1,0,1:0:0:0:
304,100,275878,1,8,1:0:0:0:
136,140,276114,1,0,0:0:0:0:
280,192,276350,2,0,P|358:179|391:65,1,200,4|8,2:0|1:0,0:0:0:0:
304,100,277059,1,0,0:0:0:0:
152,160,277295,6,0,L|160:324,2,150,4|0|0,2:0|0:0|0:0,0:0:0:0:
244,64,278240,1,4,2:0:0:0:
292,68,278358,1,2,1:0:0:0:
472,124,278594,1,0,0:0:0:0:
428,140,278712,1,8,0:3:0:0:
308,284,278949,1,4,0:3:0:0:
308,284,279067,1,4,0:3:0:0:
308,284,279185,6,0,P|280:228|300:160,1,100,4|0,2:0|0:0,0:0:0:0:
304,168,279539,2,0,L|148:156,1,150,0|2,0:0|0:0,0:0:0:0:
16,216,280130,1,4,2:0:0:0:
152,296,280366,1,2,1:0:0:0:
152,296,280484,1,2,1:0:0:0:
152,296,280602,1,8,1:2:0:0:
128,88,280838,6,0,L|116:224,1,119.999996337891,4|0,2:0|0:0,0:0:0:0:
256,156,281547,5,2,1:0:0:0:
256,156,281665,1,2,1:0:0:0:
256,156,281783,2,0,L|248:92,1,50,2|2,1:0|1:0,0:0:0:0:
352,56,282019,1,0,1:0:0:0:
352,56,282138,1,0,1:0:0:0:
352,56,282256,2,0,L|344:120,1,50,2|2,1:0|1:0,0:0:0:0:
428,216,282492,2,0,L|436:276,3,50,2|2|4|0,1:0|1:0|1:3|0:0,0:0:0:0:
440,184,282964,6,0,P|392:224|320:228,1,119.999996337891,4|0,0:0|0:0,0:0:0:0:
244,188,283319,1,0,0:0:0:0:
220,176,283437,2,0,L|92:188,1,119.999996337891,8|0,1:0|0:0,0:0:0:0:
260,68,283909,1,4,0:0:0:0:
252,336,284382,1,8,1:0:0:0:
244,92,284854,6,0,L|108:104,1,119.999996337891,4|0,0:0|0:0,0:0:0:0:
124,102,285208,1,0,0:0:0:0:
124,102,285327,1,10,1:0:0:0:
248,188,285563,1,0,0:0:0:0:
332,16,285799,2,2,L|400:12,1,59.9999981689454,0|2,0:0|1:0,0:0:0:0:
456,96,286035,2,0,L|376:92,1,59.9999981689454,0|0,0:0|0:0,0:0:0:0:
304,116,286271,1,8,1:3:0:0:
488,248,286508,1,2,1:0:0:0:
488,248,286626,1,2,1:0:0:0:
488,248,286744,6,0,P|412:272|364:248,1,119.999996337891,4|0,0:0|0:0,0:0:0:0:
312,200,287098,2,0,P|320:292|248:348,1,179.999994506836,2|2,0:0|0:0,0:0:0:0:
68,312,287689,1,4,0:0:0:0:
224,248,287925,1,2,1:0:0:0:
196,240,288043,1,2,1:0:0:0:
168,232,288161,1,0,0:0:0:0:
400,168,288397,1,4,0:0:0:0:
416,180,288870,5,2,0:0:0:0:
500,272,289106,2,0,P|440:288|400:280,1,100,8|2,1:0|0:0,0:0:0:0:
292,232,289578,2,0,P|284:284|304:344,1,100,8|2,1:0|0:0,0:0:0:0:
400,168,290051,1,8,1:0:0:0:
180,120,290287,1,4,0:0:0:0:
160,144,290760,6,8,P|159:200|172:248,1,100,10|8,0:0|1:0,0:0:0:0:
276,136,291232,2,0,P|288:84|284:32,1,100,2|8,0:0|1:0,0:0:0:0:
112,64,291704,1,2,0:0:0:0:
112,64,291941,1,8,1:0:0:0:
260,228,292177,1,4,0:0:0:0:
284,248,292649,6,0,L|396:240,1,100,2|8,0:0|1:0,0:0:0:0:
452,340,293122,1,2,0:0:0:0:
480,180,293358,1,2,1:0:0:0:
476,143,293476,1,2,1:0:0:0:
456,112,293594,1,0,1:0:0:0:
423,94,293712,1,0,1:0:0:0:
386,95,293830,2,0,P|356:104|320:104,1,50,8|8,1:0|1:0,0:0:0:0:
260,56,294067,6,0,B|188:52|164:108|164:108|140:68|88:56|48:72,1,239.999992675781,4|0,0:0|0:0,0:0:0:0:
88,152,295248,5,4,1:2:0:0:
92,172,295366,1,0,1:0:0:0:
96,192,295484,1,0,1:0:0:0:
100,212,295602,1,0,1:0:0:0:
132,240,295720,5,2,1:0:0:0:
128,260,295838,1,2,1:0:0:0:
124,280,295956,1,2,1:0:0:0:
120,300,296074,1,2,1:0:0:0:
92,328,296193,6,0,P|156:312|232:348,1,150,4|2,0:0|0:0,0:0:0:0:
304,360,296665,2,0,L|372:348,1,50,0|0,0:0|0:0,0:0:0:0:
428,368,296901,2,0,P|440:320|464:256,1,100,2|0,0:0|0:0,0:0:0:0:
396,136,297374,1,2,0:0:0:0:
396,136,297492,1,2,0:0:0:0:
396,136,297610,2,0,P|384:184|360:248,1,100,0|0,0:0|0:0,0:0:0:0:
304,360,298082,5,2,0:0:0:0:
260,340,298201,1,2,0:0:0:0:
212,332,298319,1,2,0:0:0:0:
164,336,298437,1,2,0:0:0:0:
0,296,298673,1,0,0:0:0:0:
36,264,298791,2,0,L|96:260,1,50,2|2,0:0|0:0,0:0:0:0:
184,240,299027,5,2,0:0:0:0:
180,212,299145,1,2,0:0:0:0:
316,36,299500,1,2,0:0:0:0:
312,64,299618,1,2,0:0:0:0:
308,92,299736,1,2,0:0:0:0:
304,120,299854,1,0,0:0:0:0:
300,148,299972,6,0,L|224:144,1,50
184,240,300208,2,0,P|233:238|283:231,1,100,2|0,0:0|0:0,0:0:0:0:
372,112,300563,2,0,P|384:164|384:188,1,50,2|0,0:0|0:0,0:0:0:0:
212,328,300917,6,0,P|204:264|204:212,1,100,2|0,0:0|0:0,0:0:0:0:
320,120,301271,2,0,P|328:184|328:236,1,100,2|0,0:0|0:0,0:0:0:0:
200,348,301626,2,0,P|188:296|188:272,1,50,2|0,0:0|0:0,0:0:0:0:
312,328,301862,6,0,P|356:332|404:300,1,100,0|2,0:0|0:0,0:0:0:0:
488,184,302216,1,0,0:0:0:0:
472,168,302334,2,0,P|428:164|380:196,1,100,0|2,0:0|0:0,0:0:0:0:
252,168,302807,2,0,P|236:120|296:40,2,150,2|2|2,0:0|0:0|0:0,0:0:0:0:
212,280,303752,6,0,L|8:268,1,200,4|0,0:0|0:0,0:0:0:0:
12,144,304460,1,2,0:0:0:0:
12,144,304578,1,2,0:0:0:0:
12,144,304697,2,0,L|28:84,1,50,0|2,0:0|0:0,0:0:0:0:
100,144,304933,2,0,L|149:136,1,50,0|2,0:0|0:0,0:0:0:0:
220,196,305169,2,0,P|240:144|216:72,1,100,0|2,0:0|0:0,0:0:0:0:
400,36,305641,5,4,0:0:0:0:
400,36,305760,1,0,0:0:0:0:
400,36,305878,2,0,P|348:48|284:28,1,100,0|0,0:0|0:0,0:0:0:0:
260,64,306232,1,0,0:0:0:0:
240,112,306350,2,0,L|248:188,1,50,2|2,0:0|0:0,0:0:0:0:
312,212,306586,2,0,L|304:288,1,50
220,304,306823,1,2,0:0:0:0:
220,304,306941,2,0,P|264:348|368:332,1,150,2|0,0:0|0:0,0:0:0:0:
412,292,307413,1,2,0:0:0:0:
412,292,307531,6,0,L|408:188,1,100,2|0,0:0|0:0,0:0:0:0:
368,220,307886,2,0,L|364:116,1,100,0|0,0:0|0:0,0:0:0:0:
324,148,308240,2,0,L|321:75,1,50,0|0,0:0|0:0,0:0:0:0:
228,40,308476,2,0,L|224:144,1,100,2|0,0:0|0:0,0:0:0:0:
184,112,308831,2,0,L|180:216,1,100,0|0,0:0|0:0,0:0:0:0:
140,184,309185,2,0,L|137:256,1,50,0|0,0:0|0:0,0:0:0:0:
136,320,309421,5,2,0:0:0:0:
136,320,309539,1,0,0:0:0:0:
136,320,309657,1,2,0:0:0:0:
288,364,309893,1,2,0:0:0:0:
288,364,310012,1,2,0:0:0:0:
288,364,310130,1,0,0:0:0:0:
432,224,310366,2,0,L|416:304,1,50,2|0,0:0|0:0,0:0:0:0:
300,200,310602,2,0,L|316:280,1,50,0|2,0:0|0:0,0:0:0:0:
432,148,310838,2,0,L|416:228,1,50,0|0,0:0|0:0,0:0:0:0:
300,124,311074,2,0,L|316:204,1,50,2|2,0:0|0:0,0:0:0:0:
356,44,311311,6,0,P|304:24|220:64,2,150,4|2|2,0:0|0:0|0:0,0:0:0:0:
432,148,312256,1,0,0:0:0:0:
280,244,312492,1,2,0:0:0:0:
268,256,312610,1,2,0:0:0:0:
256,268,312728,2,0,P|244:216|228:168,1,100,0|0,0:0|0:0,0:0:0:0:
72,224,313201,6,0,L|-8:232,2,75,0|2|2,0:0|0:0|0:0,0:0:0:0:
136,280,313673,2,0,P|88:308|48:304,2,66.6666666666667,2|0|2,0:0|0:0|0:0,0:0:0:0:
224,208,314145,2,0,P|280:184|328:256,1,150,2|2,0:0|0:0,0:0:0:0:
376,316,314618,1,2,0:0:0:0:
396,312,314736,1,2,0:0:0:0:
416,308,314854,1,2,0:0:0:0:
436,304,314972,1,0,0:0:0:0:
456,300,315090,6,0,P|448:232|452:192,1,100,2|0,0:0|0:0,0:0:0:0:
480,116,315445,2,0,L|368:120,1,100,2|0,0:0|0:0,0:0:0:0:
300,76,315799,1,2,0:0:0:0:
68,144,316035,2,0,P|56:224|64:264,1,100,2|0,0:0|0:0,0:0:0:0:
168,312,316390,2,0,P|180:232|172:192,1,100,2|0,0:0|0:0,0:0:0:0:
160,120,316744,1,2,0:0:0:0:
236,44,316980,6,0,L|285:41,1,50,0|0,0:0|0:0,0:0:0:0:
368,56,317216,1,2,0:0:0:0:
452,176,317452,1,0,0:0:0:0:
460,184,317571,1,0,0:0:0:0:
468,192,317689,2,0,P|476:256|456:296,1,100,2|2,0:0|0:0,0:0:0:0:
428,324,318043,1,0,0:0:0:0:
380,335,318161,1,0,0:0:0:0:
335,314,318279,1,2,0:0:0:0:
314,270,318397,1,0,0:0:0:0:
324,222,318515,1,0,0:0:0:0:
362,191,318634,2,0,P|372:160|368:136,1,50
280,76,318870,6,0,P|216:76|152:72,1,100,4|0,0:0|0:0,0:0:0:0:
152,72,319224,2,0,P|100:64|72:144,1,150,0|2,0:0|0:0,0:0:0:0:
124,220,319697,1,0,0:0:0:0:
124,220,319815,2,0,L|108:284,1,50,2|2,0:0|0:0,0:0:0:0:
212,256,320051,2,0,L|196:320,1,50,0|2,0:0|0:0,0:0:0:0:
208,332,320405,6,0,L|236:220,1,100,2|0,0:0|0:0,0:0:0:0:
324,156,320760,2,0,P|332:224|348:268,1,100,2|0,0:0|0:0,0:0:0:0:
432,328,321114,1,0,0:0:0:0:
440,336,321232,1,0,0:0:0:0:
448,344,321350,2,0,L|452:292,1,50,0|2,0:0|0:0,0:0:0:0:
480,216,321586,1,2,0:0:0:0:
472,204,321704,2,0,L|460:104,1,100,2|0,0:0|0:0,0:0:0:0:
380,56,322059,2,0,P|312:64|268:60,1,100,2|0,0:0|0:0,0:0:0:0:
188,44,322413,1,2,0:0:0:0:
148,48,322531,1,2,0:0:0:0:
108,44,322649,6,0,L|16:36,2,75,2|0|2,0:0|0:0|0:0,0:0:0:0:
120,144,323122,2,0,L|48:136,2,66.6666666666667,0|2|0,0:0|0:0|0:0,0:0:0:0:
220,168,323594,2,0,L|307:176,2,66.6666666666667,2|0|2,0:0|0:0|0:0,0:0:0:0:
164,252,324067,2,0,L|232:260,2,66.6666666666667,0|2|0,0:0|0:0|0:0,0:0:0:0:
64,268,324539,5,2,0:0:0:0:
80,312,324657,1,0,0:0:0:0:
100,356,324775,2,0,P|136:352|172:352,1,50,2|0,0:0|0:0,0:0:0:0:
256,344,325012,2,0,P|292:348|328:348,1,50
376,220,325248,1,0,0:0:0:0:
384,236,325366,1,0,0:0:0:0:
392,252,325484,2,0,L|376:316,1,50,2|0,0:0|0:0,0:0:0:0:
288,228,325720,2,0,L|280:168,1,50,0|2,0:0|0:0,0:0:0:0:
224,92,325956,1,0,0:0:0:0:
204,96,326075,1,0,0:0:0:0:
184,100,326193,1,2,0:0:0:0:
164,104,326311,1,0,0:0:0:0:
144,108,326429,6,0,L|72:100,2,50,4|0|2,1:2|1:0|1:2,0:0:0:0:
176,284,326901,1,0,1:0:0:0:
140,292,327019,1,2,1:2:0:0:
336,252,327256,1,2,0:0:0:0:
317,206,327374,1,0,0:0:0:0:
327,157,327492,1,0,0:0:0:0:
361,122,327610,1,2,0:0:0:0:
409,111,327728,1,0,0:0:0:0:
455,128,327846,1,0,0:0:0:0:
485,168,327964,1,2,0:0:0:0:
488,217,328082,1,0,0:0:0:0:
463,260,328200,1,0,0:0:0:0:
420,284,328319,6,0,P|388:288|368:280,1,50,4|0,0:0|0:0,0:0:0:0:
268,204,328555,2,0,P|292:199|316:205,1,50,0|0,1:0|0:0,0:0:0:0:
444,304,328791,6,0,P|412:308|392:300,1,50,0|2,0:0|1:0,0:0:0:0:
252,184,329027,2,0,P|276:179|300:185,1,50,0|2,1:0|1:0,0:0:0:0:
260,276,329264,5,0,0:0:0:0:
237,319,329382,1,2,0:0:0:0:
191,335,329500,1,0,0:0:0:0:
147,316,329618,1,2,0:0:0:0:
104,288,329736,1,0,0:0:0:0:
56,275,329854,1,2,0:0:0:0:
13,298,329972,1,0,0:0:0:0:
0,344,330090,1,2,0:0:0:0:
256,192,330208,12,0,335878,0:0:0:0:
