osu file format v10

[General]
AudioFilename: Night of Knights.mp3
AudioLeadIn: 0
PreviewTime: 1598
Countdown: 0
SampleSet: Normal
StackLeniency: 0.2
Mode: 0
LetterboxInBreaks: 0

[Editor]
Bookmarks: 1585,13931,24598,35265,45931,56598,67265,77931,88598,99265,109931,120598,131265,141931,152598,163265,173931,184598,195265
DistanceSpacing: 0.8
BeatDivisor: 8
GridSize: 32

[Metadata]
Title:Night of TAGS
TitleUnicode:Night of TAGS
Artist:featchocolate
ArtistUnicode:featchocolate
Creator:haerdutxtf
Version:TAG7
Source:
Tags:featchocolate&wonderful beats making
BeatmapID:196110
BeatmapSetID:67496

[Difficulty]
HPDrainRate:3
CircleSize:5
OverallDifficulty:8
ApproachRate:8
SliderMultiplier:1.92
SliderTickRate:4

[Events]
//Background and Video events
0,0,"Night of Knights 1.png"
Video,0,"Night of Knights.avi"
//Break Periods
//Storyboard Layer 0 (Background)
//Storyboard Layer 1 (Fail)
//Storyboard Layer 2 (Pass)
//Storyboard Layer 3 (Foreground)
//Storyboard Sound Samples
//Background Colour Transformations
3,100,255,0,0

[TimingPoints]
1585,392.156862745098,4,1,1,80,1,0
13932,333.333333333333,4,1,1,80,1,0
35265,-100,4,1,1,80,0,1
45930,-100,4,1,1,80,0,0
45931,-100,4,1,1,80,0,1
56598,-100,4,1,1,80,0,0
78015,-100,4,2,1,80,0,0
99098,-100,4,1,1,80,0,0
99265,-100,4,1,1,80,0,1
109930,-100,4,1,1,80,0,0
109931,-100,4,1,1,80,0,1
120598,-100,4,1,1,80,0,0
141931,-100,4,1,1,80,0,1
152597,-100,4,1,1,80,0,0
152598,-100,4,1,1,80,0,1
163264,-100,4,1,1,80,0,0
163265,-100,4,1,1,80,0,1
173930,-100,4,1,1,80,0,0
173931,-100,4,1,1,80,0,1
184598,-100,4,1,1,80,0,0
184848,-100,4,2,1,80,0,0
190931,-100,4,2,1,70,0,0
192098,-100,4,2,1,60,0,0
194015,-100,4,2,1,50,0,0

[HitObjects]
256,192,13888,1,0,0:0:0
256,192,14057,1,0,0:0:0
256,192,14223,1,0,0:0:0
256,192,14473,1,0,0:0:0
256,192,14640,1,0,0:0:0
256,192,14765,1,0,0:0:0
256,192,14890,1,0,0:0:0
256,192,15056,1,0,0:0:0
256,192,15181,1,0,0:0:0
256,192,15348,1,0,0:0:0
256,192,15556,1,0,0:0:0
256,192,15806,1,0,0:0:0
256,192,16265,1,0,0:0:0
256,192,16473,1,0,0:0:0
256,192,16640,1,0,0:0:0
256,192,16806,1,0,0:0:0
256,192,16973,1,0,0:0:0
256,192,17140,1,0,0:0:0
256,192,17265,1,0,0:0:0
256,192,17515,1,0,0:0:0
256,192,17598,1,0,0:0:0
256,192,17723,1,0,0:0:0
256,192,17890,1,0,0:0:0
256,192,18056,1,0,0:0:0
256,192,18223,1,0,0:0:0
352,96,18806,1,4,0:0:0
352,96,19056,1,4,0:0:0
352,96,19181,1,4,0:0:0
352,96,19431,1,4,0:0:0
352,96,19598,1,4,0:0:0
352,96,19765,1,4,0:0:0
352,96,19931,1,4,0:0:0
352,96,20098,1,4,0:0:0
352,96,20223,1,4,0:0:0
352,96,20390,1,4,0:0:0
352,96,20556,1,4,0:0:0
352,96,20723,1,4,0:0:0
352,96,20890,1,4,0:0:0
352,96,21056,1,4,0:0:0
160,128,21598,1,6,0:0:0
160,128,21806,1,6,0:0:0
160,128,21931,1,6,0:0:0
160,128,22515,1,2,0:0:0
160,128,22765,1,2,0:0:0
160,128,22973,1,2,0:0:0
160,128,23265,1,2,0:0:0
160,128,23556,1,2,0:0:0
160,128,23931,1,2,0:0:0
160,128,24223,1,2,0:0:0
320,128,24640,5,0,0:0:0
320,128,24931,1,0,0:0:0
384,128,25223,1,0,0:0:0
384,128,25598,1,0,0:0:0
384,128,25890,1,0,0:0:0
416,128,26265,1,0,0:0:0
416,128,26598,1,0,0:0:0
448,128,26931,1,0,0:0:0
288,128,27181,1,0,0:0:0
288,128,27598,1,0,0:0:0
192,128,27931,1,0,0:0:0
192,128,28265,1,0,0:0:0
128,128,28556,1,0,0:0:0
96,128,28931,1,0,0:0:0
96,128,29265,1,0,0:0:0
96,128,29598,1,0,0:0:0
64,128,29848,1,0,0:0:0
128,128,30223,1,0,0:0:0
64,128,30598,1,0,0:0:0
128,128,30890,1,0,0:0:0
96,128,31265,1,0,0:0:0
128,128,31598,1,0,0:0:0
64,128,31973,1,0,0:0:0
96,128,32265,1,0,0:0:0
128,128,32598,1,0,0:0:0
192,128,33098,1,0,0:0:0
256,128,33598,1,2,0:0:0
288,128,33973,5,2,0:0:0
320,128,34223,1,2,0:0:0
384,128,34556,1,2,0:0:0
384,128,34890,1,2,0:0:0
416,128,35223,1,2,0:0:0
416,128,35390,1,2,0:0:0
416,128,35556,1,2,0:0:0
384,128,35723,1,2,0:0:0
384,128,35848,1,2,0:0:0
384,128,35973,1,2,0:0:0
384,128,36181,1,2,0:0:0
384,128,36390,1,2,0:0:0
384,128,36515,1,2,0:0:0
384,128,36640,1,2,0:0:0
384,128,36806,1,2,0:0:0
384,128,36973,1,2,0:0:0
384,128,37140,1,2,0:0:0
384,128,37306,1,2,0:0:0
384,128,37431,1,2,0:0:0
384,128,37598,1,2,0:0:0
384,128,37806,1,2,0:0:0
384,128,38015,1,2,0:0:0
384,128,38181,1,2,0:0:0
384,128,38348,1,2,0:0:0
384,128,38515,1,2,0:0:0
384,128,38640,1,2,0:0:0
384,128,38806,1,2,0:0:0
384,128,39015,1,2,0:0:0
384,128,39181,1,2,0:0:0
384,128,39348,1,2,0:0:0
384,128,39515,1,2,0:0:0
384,128,39681,1,2,0:0:0
384,128,39848,1,2,0:0:0
384,128,40015,1,2,0:0:0
384,128,40223,1,2,0:0:0
384,128,40390,1,2,0:0:0
320,128,40640,5,2,0:0:0
320,128,40806,1,2,0:0:0
320,128,40973,1,2,0:0:0
320,128,41140,1,2,0:0:0
320,128,41348,1,2,0:0:0
320,128,41515,1,2,0:0:0
320,128,41640,1,2,0:0:0
320,128,41848,1,2,0:0:0
320,128,42015,1,0,0:0:0
320,128,42181,1,0,0:0:0
320,128,42348,1,0,0:0:0
320,128,42515,1,0,0:0:0
320,128,42681,1,0,0:0:0
320,128,42848,1,0,0:0:0
192,128,43181,5,0,0:0:0
192,128,43348,1,2,0:0:0
224,128,43515,1,2,0:0:0
192,128,43723,5,2,0:0:0
192,128,43931,1,0,0:0:0
192,128,44306,1,2,0:0:0
160,128,44515,1,0,0:0:0
128,128,44931,5,2,0:0:0
96,160,45140,5,0,0:0:0
96,160,45306,5,2,0:0:0
96,192,45640,5,2,0:0:0
96,224,45890,1,2,0:0:0
128,224,46056,5,0,0:0:0
160,256,46265,5,2,0:0:0
192,256,46473,5,0,0:0:0
256,256,46640,5,2,0:0:0
288,256,46848,5,0,0:0:0
320,256,47098,1,0,0:0:0
320,224,47223,5,0,0:0:0
352,224,47431,5,2,0:0:0
352,192,47640,5,0,0:0:0
384,160,47806,5,2,0:0:0
384,128,48056,5,0,0:0:0
384,96,48223,5,2,0:0:0
352,64,48431,1,0,0:0:0
288,64,48640,5,2,0:0:0
224,64,48848,5,0,0:0:0
160,64,49098,5,2,0:0:0
160,64,49223,5,0,0:0:0
128,96,49431,5,0,0:0:0
96,96,49640,5,2,0:0:0
96,128,49848,5,0,0:0:0
128,192,50056,5,2,0:0:0
128,224,50265,5,0,0:0:0
192,224,50473,1,2,0:0:0
288,256,50640,5,0,0:0:0
384,256,50890,5,2,0:0:0
384,224,51056,5,2,0:0:0
384,192,51265,5,0,0:0:0
352,128,51473,5,2,0:0:0
320,64,51640,5,0,0:0:0
256,64,51848,5,2,0:0:0
256,128,52056,1,0,0:0:0
224,128,52265,1,2,0:0:0
192,128,52473,5,0,0:0:0
192,128,52681,1,2,0:0:0
192,128,52848,5,0,0:0:0
192,128,53015,5,2,0:0:0
192,128,53223,5,0,0:0:0
192,128,53431,5,2,0:0:0
192,128,53598,5,0,0:0:0
192,128,53806,5,2,0:0:0
192,128,54015,5,2,0:0:0
192,128,54223,5,0,0:0:0
192,128,54390,5,2,0:0:0
192,128,54598,5,0,0:0:0
192,128,54806,5,2,0:0:0
192,128,55015,5,0,0:0:0
192,128,55223,5,2,0:0:0
192,128,55390,1,0,0:0:0
192,128,55598,5,2,0:0:0
192,128,55765,5,0,0:0:0
192,128,55973,5,2,0:0:0
192,128,56223,5,0,0:0:0
192,128,56431,5,2,0:0:0
192,128,56640,5,0,0:0:0
192,128,56806,5,0,0:0:0
192,128,57015,5,2,0:0:0
192,128,57181,5,0,0:0:0
192,128,57390,5,2,0:0:0
192,128,57598,5,0,0:0:0
192,128,57848,5,2,0:0:0
192,128,58015,5,0,0:0:0
192,128,58223,5,2,0:0:0
192,128,58431,5,0,0:0:0
192,128,58640,5,2,0:0:0
192,128,58890,5,0,0:0:0
192,128,59056,1,2,0:0:0
192,128,59473,1,0,0:0:0
192,128,59681,5,2,0:0:0
192,128,59848,5,0,0:0:0
192,128,60056,5,0,0:0:0
192,128,60306,5,0,0:0:0
192,128,60515,5,0,0:0:0
192,128,60681,5,2,0:0:0
192,128,60890,5,0,0:0:0
192,128,61098,5,2,0:0:0
192,128,61265,1,0,0:0:0
192,128,61473,5,2,0:0:0
192,128,61681,5,0,0:0:0
192,128,61890,5,0,0:0:0
192,128,62098,5,2,0:0:0
192,128,62306,5,0,0:0:0
192,128,62515,5,2,0:0:0
192,128,62723,5,0,0:0:0
192,128,62931,5,2,0:0:0
192,128,63140,5,0,0:0:0
192,128,63390,5,2,0:0:0
192,128,63556,1,0,0:0:0
192,128,63723,5,2,0:0:0
192,128,63931,5,0,0:0:0
192,128,64098,5,0,0:0:0
256,128,64348,5,2,0:0:0
288,128,64515,5,0,0:0:0
288,128,64723,5,2,0:0:0
288,128,64890,1,0,0:0:0
352,128,65473,1,2,0:0:0
352,128,65640,5,0,0:0:0
416,128,65931,5,2,0:0:0
416,128,66098,1,0,0:0:0
416,160,66265,5,2,0:0:0
416,224,66473,5,0,0:0:0
384,256,66681,5,0,0:0:0
320,256,66848,5,2,0:0:0
224,256,67056,5,0,0:0:0
128,224,67265,1,0,0:0:0
96,192,67431,1,0,0:0:0
96,160,67556,1,0,0:0:0
128,128,67765,1,0,0:0:0
160,128,67890,1,0,0:0:0
224,96,68098,1,0,0:0:0
256,96,68265,1,0,0:0:0
320,96,68473,1,0,0:0:0
352,96,68640,1,0,0:0:0
384,128,68806,1,0,0:0:0
384,160,68973,1,0,0:0:0
384,192,69181,1,0,0:0:0
320,224,69390,1,0,0:0:0
192,224,69515,1,0,0:0:0
128,192,69681,1,0,0:0:0
96,160,69890,1,0,0:0:0
160,96,70056,1,0,0:0:0
224,96,70265,1,0,0:0:0
256,64,70431,1,0,0:0:0
320,96,70598,1,0,0:0:0
352,128,70806,1,0,0:0:0
384,160,70973,1,0,0:0:0
384,192,71181,1,0,0:0:0
320,224,71390,1,0,0:0:0
224,224,71556,1,0,0:0:0
128,224,71765,1,0,0:0:0
96,160,71931,1,0,0:0:0
160,96,72140,1,0,0:0:0
320,64,72390,5,0,0:0:0
384,96,72515,1,0,0:0:0
384,160,72723,1,0,0:0:0
320,224,72890,1,0,0:0:0
128,192,73098,1,0,0:0:0
192,96,73265,1,2,0:0:0
288,96,73473,1,2,0:0:0
352,96,73640,1,2,0:0:0
416,160,73848,1,2,0:0:0
384,224,74056,1,2,0:0:0
288,256,74223,1,2,0:0:0
192,224,74473,1,2,0:0:0
192,128,74640,1,2,0:0:0
288,64,74848,1,2,0:0:0
352,96,75015,1,0,0:0:0
288,224,75181,1,0,0:0:0
160,192,75390,1,0,0:0:0
160,96,75556,1,0,0:0:0
320,128,75806,1,0,0:0:0
352,160,75973,1,0,0:0:0
128,96,76140,1,0,0:0:0
256,160,76348,1,0,0:0:0
256,128,76556,1,0,0:0:0
192,128,76765,1,0,0:0:0
224,128,76931,1,0,0:0:0
224,128,77098,1,0,0:0:0
192,96,77265,1,0,0:0:0
224,128,77431,1,0,0:0:0
224,128,77598,1,0,0:0:0
224,128,77765,5,0,0:0:0
192,96,77931,1,0,0:0:0
192,96,78265,1,0,0:0:0
192,96,78556,1,0,0:0:0
192,96,78848,1,0,0:0:0
192,96,79015,1,0,0:0:0
192,96,79223,1,0,0:0:0
192,96,79348,1,0,0:0:0
192,96,79515,1,0,0:0:0
192,96,79723,1,0,0:0:0
192,96,79890,1,0,0:0:0
192,96,80265,1,0,0:0:0
192,96,80431,1,0,0:0:0
192,96,80640,1,0,0:0:0
192,96,80931,1,0,0:0:0
192,96,81223,1,0,0:0:0
192,96,81556,1,0,0:0:0
192,96,81723,1,0,0:0:0
192,96,81890,1,0,0:0:0
192,96,82056,1,0,0:0:0
192,96,82223,1,0,0:0:0
192,96,82390,1,0,0:0:0
192,96,82598,1,0,0:0:0
256,96,82973,1,0,0:0:0
256,96,83140,1,0,0:0:0
256,96,83265,1,0,0:0:0
160,96,83723,5,0,0:0:0
160,96,84431,1,0,0:0:0
160,96,84931,1,0,0:0:0
160,96,85223,1,0,0:0:0
160,96,85598,1,0,0:0:0
160,96,85890,1,0,0:0:0
160,96,86223,1,0,0:0:0
160,96,86556,1,0,0:0:0
192,96,86931,1,0,0:0:0
192,96,87098,1,0,0:0:0
256,96,87598,1,0,0:0:0
192,96,87890,1,0,0:0:0
320,96,88223,1,0,0:0:0
288,96,88348,1,0,0:0:0
160,160,88681,1,0,0:0:0
288,128,88931,1,0,0:0:0
224,160,89265,1,0,0:0:0
288,128,89556,1,0,0:0:0
224,128,89765,1,0,0:0:0
224,160,89931,1,0,0:0:0
224,96,90265,1,0,0:0:0
160,128,90598,1,0,0:0:0
256,128,90890,1,0,0:0:0
192,128,91056,1,0,0:0:0
192,128,91223,1,0,0:0:0
256,64,91556,1,0,0:0:0
288,192,91890,1,0,0:0:0
224,160,92056,1,0,0:0:0
192,192,92390,1,0,0:0:0
256,192,92931,1,0,0:0:0
320,192,93265,1,0,0:0:0
256,192,93640,1,0,0:0:0
192,192,93931,1,0,0:0:0
160,192,94265,1,0,0:0:0
288,192,94556,1,0,0:0:0
192,192,94890,1,0,0:0:0
256,192,95098,1,0,0:0:0
192,160,95390,1,0,0:0:0
288,192,95681,1,0,0:0:0
224,160,95973,1,0,0:0:0
224,96,96223,1,0,0:0:0
256,128,96431,1,0,0:0:0
256,128,96598,1,0,0:0:0
224,160,96931,5,0,0:0:0
224,160,97098,1,0,0:0:0
192,160,97473,1,0,0:0:0
192,160,97681,1,0,0:0:0
64,128,98056,1,0,0:0:0
64,128,98265,1,0,0:0:0
96,96,98598,1,2,0:0:0
192,96,98890,1,2,0:0:0
288,96,99223,1,2,0:0:0
288,96,99390,1,2,0:0:0
288,96,99556,1,2,0:0:0
320,96,99765,1,2,0:0:0
320,96,99890,1,2,0:0:0
320,96,100056,1,2,0:0:0
352,96,100556,1,2,0:0:0
352,96,100681,1,2,0:0:0
352,96,100765,1,2,0:0:0
352,96,100848,1,2,0:0:0
352,96,100931,1,2,0:0:0
352,96,101056,1,2,0:0:0
352,96,101223,1,2,0:0:0
352,96,101306,1,2,0:0:0
352,96,101473,1,2,0:0:0
352,96,101598,1,2,0:0:0
352,96,101806,1,2,0:0:0
352,96,102015,1,2,0:0:0
352,96,102140,1,2,0:0:0
352,96,102306,1,2,0:0:0
352,96,102515,1,2,0:0:0
352,96,102723,1,2,0:0:0
352,96,102848,1,2,0:0:0
352,96,103056,1,2,0:0:0
352,96,103140,1,2,0:0:0
352,96,103223,1,2,0:0:0
352,96,103306,1,2,0:0:0
352,96,103390,1,2,0:0:0
352,96,103598,1,2,0:0:0
352,96,103765,1,2,0:0:0
352,96,103848,1,2,0:0:0
352,96,103931,1,2,0:0:0
352,96,104015,1,2,0:0:0
352,96,104098,1,2,0:0:0
352,96,104265,1,2,0:0:0
352,96,104431,1,2,0:0:0
352,96,104640,1,2,0:0:0
352,96,105181,1,2,0:0:0
352,96,105265,1,2,0:0:0
352,96,105348,1,2,0:0:0
352,96,105556,1,2,0:0:0
352,96,105723,1,2,0:0:0
352,96,105931,1,2,0:0:0
352,96,106098,1,2,0:0:0
352,96,106265,1,2,0:0:0
352,96,106431,1,2,0:0:0
352,96,106515,1,2,0:0:0
352,96,106640,1,2,0:0:0
352,96,106848,1,2,0:0:0
352,96,106973,1,2,0:0:0
352,96,107140,1,2,0:0:0
352,96,107348,1,2,0:0:0
352,96,107515,1,2,0:0:0
352,96,107598,1,2,0:0:0
352,96,107723,1,2,0:0:0
352,96,107890,1,2,0:0:0
352,96,108098,1,2,0:0:0
352,96,108265,1,2,0:0:0
352,96,108348,1,2,0:0:0
352,96,108473,1,2,0:0:0
352,96,108681,1,2,0:0:0
352,96,108806,1,2,0:0:0
352,96,108973,1,2,0:0:0
352,96,109098,1,2,0:0:0
352,96,109348,1,2,0:0:0
352,96,109640,1,2,0:0:0
352,96,110015,1,2,0:0:0
352,96,110223,1,2,0:0:0
352,96,110390,5,2,0:0:0
416,128,110598,1,2,0:0:0
416,160,110765,1,2,0:0:0
416,160,110973,1,2,0:0:0
416,160,111140,1,2,0:0:0
352,192,111348,1,2,0:0:0
320,224,111515,1,2,0:0:0
224,224,111681,1,2,0:0:0
128,224,111890,1,2,0:0:0
96,192,112056,1,2,0:0:0
96,160,112223,1,2,0:0:0
128,160,112390,1,2,0:0:0
192,160,112598,1,2,0:0:0
384,128,112931,1,2,0:0:0
384,96,113098,1,2,0:0:0
384,128,113223,1,2,0:0:0
384,160,113431,1,2,0:0:0
384,224,113556,1,2,0:0:0
352,256,113765,1,2,0:0:0
224,256,114140,1,2,0:0:0
192,224,114348,1,2,0:0:0
192,224,114515,1,2,0:0:0
192,192,114598,1,2,0:0:0
224,96,114931,1,2,0:0:0
224,64,115056,1,2,0:0:0
256,64,115223,1,2,0:0:0
288,96,115390,1,2,0:0:0
352,96,115556,1,2,0:0:0
352,160,115681,1,2,0:0:0
352,192,115848,1,2,0:0:0
352,224,115973,1,2,0:0:0
224,256,116140,1,2,0:0:0
192,256,116348,1,2,0:0:0
192,224,116431,1,2,0:0:0
160,192,116598,1,2,0:0:0
160,128,116723,1,2,0:0:0
224,96,116931,1,2,0:0:0
256,96,117098,1,2,0:0:0
288,96,117181,1,2,0:0:0
352,96,117306,1,2,0:0:0
384,128,117390,1,2,0:0:0
384,128,117515,1,2,0:0:0
384,256,117681,1,2,0:0:0
192,256,118056,1,2,0:0:0
160,192,118223,1,2,0:0:0
192,128,118473,1,2,0:0:0
224,128,118681,1,2,0:0:0
288,96,118848,1,2,0:0:0
320,96,119056,1,2,0:0:0
352,96,119265,1,2,0:0:0
352,96,119473,1,2,0:0:0
352,96,119640,1,2,0:0:0
352,96,119973,1,2,0:0:0
352,96,120223,1,2,0:0:0
320,224,120681,5,2,0:0:0
320,224,120806,1,2,0:0:0
288,192,121056,1,2,0:0:0
192,192,121223,1,2,0:0:0
128,192,121390,1,2,0:0:0
160,256,121598,1,2,0:0:0
160,288,121806,1,2,0:0:0
128,160,122056,1,2,0:0:0
256,96,122181,1,2,0:0:0
352,128,122556,1,2,0:0:0
320,192,122723,1,2,0:0:0
160,160,122931,1,2,0:0:0
256,32,123098,1,2,0:0:0
320,64,123306,1,2,0:0:0
160,128,123723,1,2,0:0:0
224,160,123931,1,2,0:0:0
288,192,124098,1,2,0:0:0
160,128,124306,1,2,0:0:0
256,64,124515,1,2,0:0:0
224,128,124723,1,2,0:0:0
160,64,124890,1,2,0:0:0
256,128,125098,1,2,0:0:0
224,96,125223,1,2,0:0:0
192,128,125473,1,2,0:0:0
192,32,125640,1,2,0:0:0
224,96,125806,1,2,0:0:0
192,128,125973,1,2,0:0:0
192,96,126181,1,2,0:0:0
192,96,126556,1,2,0:0:0
224,128,126723,1,2,0:0:0
128,96,126890,1,2,0:0:0
192,96,127098,1,2,0:0:0
192,128,127306,1,2,0:0:0
160,96,127681,1,2,0:0:0
192,64,128056,1,2,0:0:0
224,128,128306,1,2,0:0:0
192,96,128640,1,2,0:0:0
160,128,128890,1,2,0:0:0
224,64,129056,1,2,0:0:0
352,160,129931,5,2,0:0:0
320,96,130140,1,0,0:0:0
256,96,130348,1,0,0:0:0
416,160,130556,1,0,0:0:0
256,160,130973,1,0,0:0:0
352,128,131181,1,0,0:0:0
352,192,131348,1,0,0:0:0
320,160,131598,1,0,0:0:0
320,160,131931,1,0,0:0:0
320,160,132098,1,0,0:0:0
320,160,132265,1,0,0:0:0
320,160,132431,1,0,0:0:0
320,160,132681,1,0,0:0:0
320,160,132973,1,0,0:0:0
320,160,133140,1,0,0:0:0
256,160,136431,1,0,0:0:0
192,160,137181,1,0,0:0:0
256,192,139181,1,0,0:0:0
192,192,139890,1,0,0:0:0
256,128,140598,1,0,0:0:0
320,192,140890,1,0,0:0:0
256,256,141223,1,0,0:0:0
256,192,141556,1,0,0:0:0
160,192,141931,5,0,0:0:0
160,192,142098,1,0,0:0:0
160,192,142223,1,0,0:0:0
160,192,142390,1,0,0:0:0
160,192,142598,1,0,0:0:0
160,192,142765,1,0,0:0:0
160,192,142973,1,0,0:0:0
160,192,143098,1,0,0:0:0
160,192,143306,1,0,0:0:0
160,192,143431,1,0,0:0:0
160,192,143556,1,0,0:0:0
160,192,143806,1,0,0:0:0
160,192,144098,1,0,0:0:0
160,192,144306,1,0,0:0:0
160,192,144431,1,0,0:0:0
160,192,144640,1,0,0:0:0
160,192,144806,1,0,0:0:0
224,128,145140,1,0,0:0:0
256,128,145265,1,0,0:0:0
256,128,145348,1,0,0:0:0
256,128,145556,1,0,0:0:0
288,128,145848,1,0,0:0:0
320,128,146015,1,0,0:0:0
320,160,146348,1,0,0:0:0
320,192,146556,1,0,0:0:0
320,256,146890,1,0,0:0:0
256,288,147098,1,0,0:0:0
160,288,147265,1,0,0:0:0
160,256,147431,1,0,0:0:0
160,256,147640,1,0,0:0:0
192,128,148015,1,0,0:0:0
192,128,148223,1,0,0:0:0
192,128,148390,1,0,0:0:0
192,128,148473,1,0,0:0:0
224,96,148556,1,0,0:0:0
256,96,148931,1,0,0:0:0
288,96,150056,1,0,0:0:0
288,96,150265,1,0,0:0:0
288,96,150390,1,0,0:0:0
288,96,150473,1,0,0:0:0
288,96,150806,1,0,0:0:0
288,96,151015,1,0,0:0:0
288,96,151265,1,0,0:0:0
288,96,151390,1,0,0:0:0
288,96,151931,1,0,0:0:0
288,96,152515,5,0,0:0:0
288,96,152723,1,0,0:0:0
288,96,152890,1,0,0:0:0
288,96,153015,1,0,0:0:0
288,96,153181,1,0,0:0:0
288,96,153348,1,0,0:0:0
288,96,153473,1,0,0:0:0
128,128,153765,1,0,0:0:0
128,128,153931,1,0,0:0:0
128,128,154098,1,0,0:0:0
128,128,154431,1,0,0:0:0
128,128,154598,1,0,0:0:0
160,128,155015,1,0,0:0:0
160,128,155140,1,0,0:0:0
160,128,155348,1,0,0:0:0
160,128,155515,1,0,0:0:0
192,128,155931,1,0,0:0:0
224,128,156098,1,0,0:0:0
224,128,156265,1,0,0:0:0
224,128,156348,1,0,0:0:0
224,128,156431,1,0,0:0:0
224,128,156556,1,0,0:0:0
256,128,156806,1,0,0:0:0
288,128,157015,1,0,0:0:0
288,128,157223,1,0,0:0:0
288,128,157431,1,0,0:0:0
288,128,157598,1,0,0:0:0
288,128,157848,1,0,0:0:0
288,128,157973,1,0,0:0:0
320,128,158348,1,0,0:0:0
352,128,158556,1,0,0:0:0
352,128,158765,1,0,0:0:0
352,128,159098,1,0,0:0:0
352,128,159181,1,0,0:0:0
352,128,159473,1,0,0:0:0
352,128,159556,1,0,0:0:0
352,128,159806,1,0,0:0:0
352,128,159973,1,0,0:0:0
352,128,160140,1,0,0:0:0
352,128,160306,1,0,0:0:0
288,128,160681,5,0,0:0:0
288,128,160931,1,0,0:0:0
288,128,161098,1,0,0:0:0
288,128,161223,1,0,0:0:0
288,128,161473,1,0,0:0:0
256,128,161598,1,0,0:0:0
256,128,162181,1,0,0:0:0
256,128,162348,1,0,0:0:0
256,128,162515,1,0,0:0:0
192,128,163098,5,0,0:0:0
192,128,163306,1,0,0:0:0
224,128,164306,1,0,0:0:0
224,128,164473,1,0,0:0:0
224,128,164640,1,0,0:0:0
224,128,164848,1,0,0:0:0
224,128,165056,1,0,0:0:0
224,128,165348,1,0,0:0:0
224,128,165515,1,0,0:0:0
224,128,165723,1,0,0:0:0
224,128,165931,1,0,0:0:0
224,128,166306,1,0,0:0:0
224,128,166473,1,0,0:0:0
224,128,166723,1,0,0:0:0
224,128,166931,1,0,0:0:0
224,128,167265,1,0,0:0:0
224,128,167473,1,0,0:0:0
224,128,167681,1,0,0:0:0
224,128,167931,1,0,0:0:0
224,128,168223,1,0,0:0:0
288,128,168431,1,0,0:0:0
288,128,169806,1,0,0:0:0
288,128,170098,1,0,0:0:0
288,128,170390,1,0,0:0:0
288,128,170598,1,0,0:0:0
288,128,170765,1,0,0:0:0
192,128,171098,5,0,0:0:0
256,128,171848,5,0,0:0:0
160,128,172348,1,0,0:0:0
256,128,172931,5,0,0:0:0
128,128,173265,1,0,0:0:0
256,192,176515,5,0,0:0:0
256,192,179806,5,0,0:0:0
256,192,180265,5,0,0:0:0
256,192,180973,5,0,0:0:0
256,192,181681,1,0,0:0:0
256,192,182056,1,0,0:0:0
256,192,182431,1,0,0:0:0
256,192,182598,1,0,0:0:0
128,160,183181,1,0,0:0:0
224,96,183515,1,0,0:0:0
320,128,183890,1,0,0:0:0
416,128,184223,1,0,0:0:0
96,128,184681,5,0,0:0:0
192,96,185015,1,0,0:0:0
288,96,185348,1,0,0:0:0
416,128,185556,1,0,0:0:0
128,128,185973,5,0,0:0:0
192,96,186306,1,0,0:0:0
288,96,186556,1,0,0:0:0
128,160,189890,5,0,0:0:0
192,128,190181,1,0,0:0:0
288,128,190556,1,0,0:0:0
384,128,190931,1,0,0:0:0
448,160,191306,1,0,0:0:0
128,160,192640,1,0,0:0:0
192,128,193098,1,0,0:0:0
256,128,193723,1,0,0:0:0
288,128,194431,1,0,0:0:0
352,128,194848,1,0,0:0:0
384,160,195265,1,0,0:0:0
