osu file format v9

[General]
AudioFilename: Dead END.mp3
AudioLeadIn: 0
PreviewTime: -1
Countdown: 0
SampleSet: Soft
StackLeniency: 0.7
Mode: 0
LetterboxInBreaks: 1

[Editor]
Bookmarks: 2691,14496,19742,27118,35478,40396,50396
DistanceSpacing: 0.8
BeatDivisor: 4
GridSize: 8

[Metadata]
Title:Dead END(TV Size)
Artist:faylan
Creator:arumu92
Version:Hard
Source:mirai nikki
Tags:

[Difficulty]
HPDrainRate:6
CircleSize:5
OverallDifficulty:7
ApproachRate:8
SliderMultiplier:1.6
SliderTickRate:2

[Events]
//Background and Video events
0,0,"mirainikki2.jpg"
Video,0,"op.avi"
//Break Periods
//Storyboard Layer 0 (Background)
//Storyboard Layer 1 (Fail)
//Storyboard Layer 2 (Pass)
//Storyboard Layer 3 (Foreground)
//Storyboard Sound Samples
//Background Colour Transformations
3,100,163,162,255

[TimingPoints]
2692,327.868852459016,4,2,0,100,1,0
2692,-100,4,2,0,100,0,0
74495,-66.6666666666667,4,2,0,100,0,1
81216,-100,4,2,0,100,0,0

[HitObjects]
80,80,2692,1,0
128,136,2856,1,0
80,184,3019,2,0,B|80:248|112:304|160:328,1,160
148,321,3511,1,0
224,288,3675,1,0
224,360,3839,1,0
288,344,4003,2,0,B|368:312|464:352,1,160
444,344,4495,2,0,B|408:240|456:176,1,160
448,112,4987,1,0
448,40,5151,1,0
320,40,5478,1,0
256,40,5642,2,0,B|288:120,1,80
224,112,5970,1,0
224,112,6134,2,0,B|144:72|64:112,1,160
72,168,6626,2,0,B|72:248,1,80
128,280,6954,1,0
72,320,7118,1,0
128,352,7282,2,0,B|256:352|256:264,1,160
256,216,7773,1,0
240,32,8101,5,0
288,80,8265,1,0
288,80,8347,1,0
288,80,8429,1,0
336,32,8593,1,0
384,80,8757,1,0
464,192,9085,1,0
464,256,9249,2,0,B|424:336|320:304,1,160
328,240,9741,2,0,B|224:216|176:304,1,160
128,320,10232,1,0
128,256,10396,1,0
128,176,10724,5,0
128,112,10888,1,0
128,48,11052,1,0
72,80,11216,2,0,B|56:128|80:176,1,80
72,158,11544,1,0
184,80,11708,2,0,B|200:128|176:176,1,80
183,158,12036,1,0
184,224,12200,2,0,B|280:224|296:120,1,160
296,128,12691,2,0,B|320:224|424:224,1,160
256,192,13183,12,0,14167
256,192,14331,1,0
256,192,14495,1,0
256,24,14823,1,0
224,72,14987,1,0
200,24,15150,2,0,B|88:24|88:24|88:96,1,160
88,192,15806,6,0,B|88:288,1,80
88,336,16134,1,0
144,304,16298,2,0,B|304:304,1,160
368,304,16790,1,0
336,248,16954,1,0
400,248,17118,2,0,B|504:248|488:136,1,160
489,145,17610,1,0
440,96,17773,1,0
392,144,17937,1,0
344,96,18101,1,0
392,48,18265,1,0
240,88,19413,5,0
200,24,19577,1,0
160,88,19741,2,0,B|80:88,1,80
80,88,20069,2,0,B|80:184,1,80
80,168,20396,2,0,B|40:256|80:328,1,160
144,320,20888,1,0
208,320,21052,2,2,B|280:320|280:320|280:232,1,160
312,176,21544,1,0
344,232,21708,2,2,B|344:320|344:320|416:320,1,160
456,64,22364,5,0
456,128,22527,1,0
256,336,22855,1,0
256,272,23018,1,0
56,64,23347,1,0
56,128,23511,2,0,B|16:208|56:288,1,160
53,282,24003,2,0,B|112:336,3,80
120,272,24659,5,0
152,216,24823,2,0,B|256:216|256:320,1,160
320,280,25314,1,0
328,352,25478,2,0,B|496:352|472:200,1,240
473,210,26134,1,0
400,208,26298,1,0
328,208,26462,2,0,B|248:208,2,80
456,48,27118,5,0
416,104,27282,1,0
376,48,27446,2,0,B|256:48|256:48|256:112,1,160
256,88,27937,2,0,B|256:128|256:128|136:128,1,160
104,56,28429,2,0,B|56:128|104:208,1,160
80,264,29905,5,0
80,264,30069,2,0,B|152:264|152:344|152:344|200:344,1,160
256,344,30560,1,0
320,344,30724,2,0,B|368:344|368:344|368:264|456:264,1,160
432,264,31216,1,0
431,265,31380,2,0,B|368:152|368:152|496:152|496:152|424:32,1,400
360,40,32364,1,0
320,88,32528,1,0
280,40,32692,1,0
256,192,33019,12,0,35151
192,192,35478,5,0
192,128,35642,1,0
192,64,35806,1,0
192,64,35888,1,0
192,64,35970,1,0
256,64,36134,1,0
320,64,36298,1,0
384,64,36462,1,0
384,64,36544,1,0
384,64,36626,1,0
408,120,36790,2,0,B|352:192,1,80
360,120,37118,2,0,B|424:192,1,80
456,224,37446,2,0,B|456:344|336:344,1,160
370,341,37937,1,0
368,264,38101,2,2,B|272:264|272:368,1,160
272,365,38593,2,2,B|176:368|176:256,1,160
176,263,39085,2,2,B|176:368|48:368,1,160
76,366,39577,2,2,B|32:248|80:128,1,240
120,168,40232,2,0,B|216:168,2,80
56,96,40724,5,0
120,96,40888,1,0
88,40,41052,2,0,B|80:24|80:24|120:0|224:32,1,160
248,88,41544,1,0
280,32,41708,2,0,B|384:0|424:24|424:24|416:40,1,160
384,88,42200,1,0
384,88,42282,1,0
384,88,42364,1,0
448,88,42528,1,0
416,216,42855,5,0
384,272,43019,1,0
448,272,43183,1,0
416,328,43347,2,0,B|376:360|328:320,1,80
341,330,43675,1,0
296,224,43839,2,0,B|256:192|208:232,1,80
221,221,44167,1,0
160,328,44331,2,0,B|120:360|72:320,1,80
85,330,44659,1,0
88,216,44823,1,0
208,48,45970,5,0
152,96,46134,1,0
96,48,46298,2,0,B|48:128|96:216,1,160
88,201,46790,1,0
152,248,46954,1,0
216,200,47118,2,0,B|264:280|216:368,1,160
328,272,47610,1,0
256,192,47773,1,0
184,104,47937,2,0,B|104:104,2,80
304,48,48593,5,0
360,96,48757,1,0
416,48,48921,2,0,B|464:128|416:216,1,160
424,201,49413,1,0
360,248,49577,1,0
296,200,49741,2,0,B|248:280|296:368,1,160
288,352,50233,1,0
144,272,50724,5,0
144,336,50888,1,0
80,336,51052,2,0,B|16:264|80:192,1,160
80,192,51544,2,0,B|16:120|80:48,1,160
112,104,52036,1,0
152,48,52200,2,0,B|264:16|264:112,1,160
232,168,52691,1,0
296,168,52855,2,0,B|440:168|392:280,1,160
432,304,53347,1,0
432,304,53511,1,0
296,320,53839,2,0,B|184:368|48:320,2,240
296,256,54987,2,0,B|208:256,1,80
216,192,55314,2,0,B|216:104,1,80
216,48,55642,2,0,B|128:48,1,80
64,184,55970,5,0
64,184,56134,1,0
64,184,56298,1,0
256,192,56462,12,0,57446
312,280,57937,5,0
208,280,58101,1,0
136,192,58265,1,0
208,104,58429,1,0
312,104,58593,2,0,B|368:160,1,80
432,32,58921,2,0,B|496:120|432:192,1,160
441,179,59413,2,0,B|480:336|296:336,1,240
317,335,60069,1,0
317,335,60232,1,0
256,272,60396,2,0,B|152:272,2,80
80,192,61052,5,0
128,136,61216,1,0
80,80,61380,1,0
128,24,61544,2,0,B|184:80,1,80
256,24,61872,1,0
304,80,62036,2,0,B|304:168,2,80
360,24,62528,1,0
416,72,62692,1,0
416,136,62855,2,0,B|416:216|416:216|464:280,1,160
464,280,63347,1,0
256,336,64003,5,0
224,280,64167,1,0
192,336,64331,2,0,B|112:336,2,80
152,264,64823,1,0
112,192,64987,2,0,B|192:192,2,80
152,120,65478,1,0
192,48,65642,2,0,B|112:48,2,80
384,48,66298,1,0
384,48,66380,1,0
384,48,66462,1,0
384,48,66544,1,0
384,48,66626,1,0
384,304,66954,5,0
320,304,67118,1,0
320,304,67200,1,0
320,304,67282,1,0
256,304,67445,1,0
256,304,67528,1,0
256,304,67610,1,0
192,304,67773,1,0
192,304,67855,1,0
192,304,67937,1,0
128,304,68101,1,0
96,40,68921,5,0
96,40,69085,2,0,B|184:40|184:40|224:104,1,160
216,168,69577,1,0
280,192,69741,1,0
344,192,69905,2,0,B|360:152|360:152|408:128,1,80
448,104,70232,1,0
448,168,70396,1,0
448,232,70560,2,0,B|448:320,1,80
400,360,70888,2,0,B|232:360,1,160
288,176,71544,2,0,B|272:144|232:128|176:120|120:152,1,160
200,224,72200,2,0,B|168:248|120:240|72:224|56:192,1,160
176,128,72855,5,0
256,48,73019,1,0
336,128,73183,1,0
416,48,73347,1,0
416,208,73511,1,0
336,288,73675,1,0
256,208,73839,1,0
176,288,74003,1,0
96,208,74167,1,0
168,72,74495,5,0
136,32,74659,1,0
112,72,74823,1,0
112,72,74987,1,0
112,72,75151,2,0,B|112:192,1,119.999996423721
160,232,75478,1,0
208,272,75642,1,0
256,312,75806,1,0
312,312,75970,1,0
368,312,76134,1,0
368,312,76298,1,0
368,312,76462,2,0,B|368:192,1,119.999996423721
320,144,76790,1,0
272,104,76954,1,0
224,64,77118,1,0
256,40,77446,5,0
256,40,77610,1,0
64,192,77937,1,0
64,192,78101,1,0
256,344,78429,1,0
256,344,78593,1,0
448,192,78921,1,0
448,192,79085,1,0
256,40,79413,5,0
256,40,79577,1,0
448,192,79904,1,0
448,192,80068,1,0
368,280,80232,1,0
256,280,80396,1,0
256,280,80478,1,0
256,280,80560,1,0
256,192,80724,1,0
368,192,80888,1,0
368,96,81052,1,0
144,40,81380,5,0
192,96,81544,1,0
144,152,81708,2,0,B|144:248|144:248|192:320,1,160
224,352,82200,2,0,B|320:352|320:352|376:296,1,160
408,256,82691,1,0
464,216,82855,1,0
408,184,83019,1,0
464,144,83183,2,0,B|464:56|464:56|400:16,1,160
360,72,83675,2,0,B|256:72,1,80
232,24,84003,1,0
184,72,84167,1,0
136,24,84331,2,0,B|112:56|112:56|112:128,1,80
56,136,84659,1,0
112,176,84823,2,0,B|112:208|112:208|64:256,1,80
48,312,85151,2,0,B|208:312,1,160
256,256,85642,1,0
304,312,85806,2,0,B|408:312|408:312|472:264,1,160
496,224,86298,1,0
448,168,86462,1,0
256,120,86790,5,0
200,160,86954,1,0
200,224,87118,1,0
256,264,87282,1,0
312,224,87446,1,0
312,160,87610,1,0
256,192,87773,1,0
256,192,87937,1,0
256,192,88429,1,0
