osu file format v9

[General]
AudioFilename: Dead END.mp3
AudioLeadIn: 0
PreviewTime: -1
Countdown: 0
SampleSet: Soft
StackLeniency: 0.7
Mode: 0
LetterboxInBreaks: 1

[Editor]
Bookmarks: 14496,19742,29742,46299,58430,81381
DistanceSpacing: 0.8
BeatDivisor: 4
GridSize: 8

[Metadata]
Title:Dead END(TV Size)
Artist:faylan
Creator:arumu92
Version:Easy
Source:mirai nikki
Tags:

[Difficulty]
HPDrainRate:3
CircleSize:3
OverallDifficulty:3
ApproachRate:3
SliderMultiplier:1.00000000596046
SliderTickRate:1

[Events]
//Background and Video events
Video,0,"op.avi"
0,0,"mirainikki2.jpg"
//Break Periods
2,8138,13056
//Storyboard Layer 0 (Background)
//Storyboard Layer 1 (Fail)
//Storyboard Layer 2 (Pass)
//Storyboard Layer 3 (Foreground)
//Storyboard Sound Samples
//Background Colour Transformations
3,100,163,162,255

[TimingPoints]
2693,327.868852459016,4,2,0,100,1,0
2693,-133.333333333333,4,2,0,100,0,0
64004,-100,4,2,0,100,0,0

[HitObjects]
72,56,2692,2,0,B|72:256,1,200.000001192093
192,256,4004,2,0,B|344:256,1,149.999996423721
464,256,5315,2,0,B|464:192|464:192|464:96,1,149.999996423721
344,104,6627,2,2,B|152:104|152:296,1,299.999992847441
64,80,14496,5,0
160,152,15152,1,0
256,80,15807,2,2,B|408:80,1,149.999996423721
408,200,17119,1,0
288,200,17774,2,2,B|256:320,1,112.499997317791
64,120,19742,6,0,B|144:120,1,74.9999982118604
176,72,20397,2,0,B|264:72,1,74.9999982118604
288,120,21053,2,0,B|368:120,1,74.9999982118604
400,72,21709,2,0,B|480:72,1,74.9999982118604
472,160,22529,2,2,B|336:160|336:304,1,224.999994635581
88,56,24660,5,0
152,160,25315,1,0
216,264,25971,1,0
456,280,27283,1,0
344,280,27938,2,0,B|232:176|352:88,1,224.999994635581
424,56,29906,5,0
368,160,30561,1,0
304,264,31217,1,0
64,264,32529,1,0
168,320,33184,2,0,B|248:304|265:272|279:238|288:192|271:148|255:103|232:56|168:32,1,374.999991059302
408,64,35479,6,2,B|288:64|288:64|288:176|288:176,1,224.999994635581
352,168,36791,2,2,B|352:288|352:288|240:288|240:288,1,224.999994635581
184,288,38102,1,0
120,288,38430,1,0
80,240,38758,1,0
120,192,39086,1,0
184,192,39414,1,0
256,48,40725,5,0
216,96,41053,1,0
176,144,41381,1,0
136,192,41709,1,0
96,240,42037,2,2,B|96:336|96:336|232:168,1,299.999992847441
296,128,43840,1,0
376,176,44332,1,0
456,128,44824,1,0
200,40,46299,6,2,B|152:120|152:120|200:208,1,187.499995529651
248,280,47611,1,2
304,48,48922,2,2,B|352:128|352:128|304:216,1,187.499995529651
248,280,50234,1,2
80,224,51217,5,0
120,264,51545,1,0
160,224,51873,2,0,B|248:224,1,74.9999982118604
296,224,52529,1,0
336,176,52856,1,0
296,128,53184,2,0,B|296:40,1,74.9999982118604
360,56,53840,1,0
416,128,54332,1,0
416,216,54824,1,0
256,192,55807,12,0,57447
56,56,58430,5,0
88,112,58758,1,0
120,56,59086,2,0,B|200:56,1,74.9999982118604
256,56,59742,5,0
288,112,60070,1,0
320,56,60398,2,0,B|400:56,1,74.9999982118604
400,112,61053,5,0
456,144,61381,1,0
400,176,61709,2,0,B|400:256,1,74.9999982118604
464,256,62365,5,0
464,312,62693,1,0
408,312,63021,2,0,B|328:312,1,74.9999982118604
96,312,64332,2,0,B|24:216|152:200|152:112|24:112|80:24,1,300.000001788138
152,32,65643,2,0,B|192:72|152:128,1,100.000000596046
160,200,66299,2,0,B|115:246|163:294,1,100.000000596046
224,240,66955,2,0,B|269:382|445:382|469:222,1,350.000002086161
456,48,68922,5,0
296,48,69578,2,0,B|176:48,2,100.000000596046
296,136,70561,1,0
296,216,70889,2,0,B|296:336,2,100.000000596046
216,216,71873,1,0
136,216,72201,2,0,B|16:216,2,100.000000596046
216,216,73184,1,0
272,160,73512,2,0,B|352:72,2,100.000000596046
112,192,74824,5,0
256,120,75479,1,0
400,192,76135,1,0
256,256,76791,1,0
256,192,77447,12,0,81381
