osu file format v7

[General]
AudioFilename: f(x) - Open your Wings.mp3
AudioLeadIn: 0
PreviewTime: 110667
Countdown: 1
SampleSet: Normal
StackLeniency: 0.7
Mode: 0
LetterboxInBreaks: 1

[Editor]
Bookmarks: 18299,35141,55404,88562,94088,112246,145931
DistanceSpacing: 0.800000011920929
BeatDivisor: 4
GridSize: 8

[Metadata]
Title:Spread your Wings
Artist:f(x)
Creator:sonnyc
Version:Normal
Source:God of Studying
Tags:gos

[Difficulty]
HPDrainRate:3
CircleSize:4
OverallDifficulty:3
SliderMultiplier:1.2
SliderTickRate:2

[Events]
//Background and Video events
0,0,"Gos.jpg"
//Break Periods
2,88762,92648
//Storyboard Layer 0 (Background)
//Storyboard Layer 1 (Fail)
//Storyboard Layer 2 (Pass)
//Storyboard Layer 3 (Foreground)
//Storyboard Sound Samples
//Background Colour Transformations
3,100,0,0,0

[TimingPoints]
17510,526.315789473684,4,2,0,50,1,0
34878,-100,4,1,0,50,0,0
53299,-100,4,1,0,0,0,0
53562,-100,4,1,0,50,0,0
55404,-100,4,1,0,50,0,1
70141,-100,4,1,0,50,0,0
72246,-100,4,1,0,50,0,1
84615,-200,4,1,0,50,0,1
88562,-100,4,1,0,50,0,0
112246,-100,4,1,0,50,0,1
124352,-100,4,1,0,50,0,0
129070,-100,4,1,0,50,0,1
145404,-100,4,1,0,50,0,0

[Colours]
Combo1 : 255,170,213
Combo2 : 128,64,64
Combo3 : 255,255,151
Combo4 : 183,111,111

[HitObjects]
128,112,18299,1,2
320,88,19352,1,0
320,88,19615,1,0
336,184,20141,1,2
352,280,20667,2,0,B|296:320|208:304,2,120,0|2|0
448,112,22773,5,0
352,112,23299,1,2
376,208,23825,2,0,B|336:272|272:240,1,120,0|2
232,224,24615,2,0,B|176:176|120:224,1,120,0|2
56,288,25667,1,0
56,288,25931,1,4
136,336,26457,5,2
216,288,26983,1,0
296,336,27509,1,2
376,288,28036,2,0,B|432:232|368:160,1,120,0|2
304,120,29088,2,0,B|248:80|176:128,1,120,0|2
104,160,30141,6,0,B|104:296,1,120,0|2
104,328,30931,1,0
200,328,31457,1,0
200,328,31720,1,2
296,328,32246,5,0
384,296,32773,1,2
448,224,33299,1,4
472,128,33825,2,0,B|472:56,2,60,0|0|12
352,152,35141,5,4
264,200,35667,1,0
224,224,35931,1,8
200,264,36194,1,0
192,312,36457,2,0,B|264:312,2,60,0|0|8
144,312,37246,5,0
112,224,37773,1,0
144,136,38299,1,0
144,136,38562,2,0,B|224:136,2,60,0|0|8
96,136,39352,1,0
96,232,39878,2,0,B|96:312,1,60,0|8
191,292,40667,5,0
192,192,41194,1,8
272,240,41720,1,0
320,240,41983,1,0
368,240,42246,1,8
456,208,42773,6,0,B|456:136|376:136,1,120,0|2
328,136,43562,1,0
232,136,44088,1,0
232,136,44352,1,2
232,136,44615,1,0
184,136,44878,2,0,B|96:136,2,60,0|0|2
184,184,45667,2,0,B|184:264,1,60
184,336,46457,5,8
280,336,46983,1,0
328,328,47246,1,0
368,304,47509,1,8
368,208,48036,2,0,B|368:144,2,60,0|0|8
272,232,49088,6,0,B|216:248|144:232,1,120,2|8
152,136,50141,2,0,B|208:120|280:136,1,120,0|8
256,192,51194,12,0,53299
184,192,53825,5,0
256,128,54352,1,0
328,192,54878,1,2
424,192,55404,2,0,B|424:336|256:336,1,240,4|0
176,336,56983,1,8
80,336,57509,6,0,B|80:208,1,120,0|8
128,216,58299,1,0
224,216,58825,2,0,B|288:216,1,60,0|8
376,216,59615,5,4
336,128,60141,1,0
256,80,60667,1,4
168,128,61194,1,0
128,216,61720,1,6
336,304,63036,5,0
336,304,63299,1,0
336,304,63562,1,2
368,216,64088,2,0,B|392:152,1,60,0|8
248,144,65141,5,0
248,144,65404,1,2
248,144,65667,1,2
192,224,66194,2,0,B|144:288,1,60,2|2
80,328,66983,1,0
32,312,67246,1,0
32,264,67509,1,8
80,184,68036,6,0,B|136:216|208:200,1,120,2|0
240,184,68825,2,0,B|312:168|368:224,1,120,2|0
384,248,69615,1,2
408,288,69878,1,0
424,336,70141,1,4
328,336,70667,5,0
256,272,71194,1,0
184,208,71720,1,2
120,136,72246,2,0,B|228:40|344:144,1,240,4|0
408,200,73825,1,8
496,160,74352,2,0,B|464:32|304:32,1,240,4|0
216,32,75931,1,8
128,72,76457,6,2,B|64:104|64:184,1,120,2|2
64,216,77246,1,0
88,312,77773,1,2
184,296,78299,2,0,B|248:264|320:304,1,120
344,312,79088,1,2
400,232,79615,1,0
400,232,79878,1,0
400,232,80141,1,4
400,136,80667,6,0,B|408:64|336:32,1,120,2|4
264,88,81720,1,0
224,112,81983,1,0
184,136,82246,1,2
104,192,82773,2,0,B|104:264,2,60,0|0|4
56,112,83825,1,0
104,32,84352,1,8
200,56,84878,6,0,B|240:112|320:104,1,120
400,96,86457,1,10
360,184,86983,2,0,B|320:240|240:232,1,120
160,232,88562,1,6
144,160,94088,5,2
240,176,94615,1,0
240,176,94878,1,2
288,96,95404,6,0,B|360:64|392:128,1,120,0|8
416,216,96457,2,0,B|376:280|424:336,1,120,0|8
321,327,97510,5,0
273,327,97773,1,0
225,327,98036,1,8
224,232,98562,2,0,B|144:232|144:128,1,120,0|8
144,112,99352,1,0
144,64,99615,5,0
240,72,100141,1,2
240,72,100404,1,0
336,64,100931,1,0
376,88,101194,1,2
408,120,101457,2,0,B|432:184|376:232,1,120
336,248,102246,5,8
240,248,102773,1,0
240,248,103036,1,0
240,248,103299,1,8
240,152,103825,6,0,B|160:152|160:240,1,120,0|8
152,320,104878,2,0,B|72:320,2,60,0|0|8
200,320,105667,1,0
248,320,105931,2,0,B|312:352|376:312,1,120,0|8
352,232,106983,1,0
304,232,107246,1,0
256,232,107510,1,8
216,144,108036,6,0,B|160:168|96:144,1,120,4|0
56,128,108825,2,0,B|8:216|64:304,1,180,4|0
144,344,110141,1,4
208,272,110667,5,0
144,200,111194,1,0
208,128,111720,1,2
272,200,112246,2,0,B|352:200|352:104,1,120,4|8
352,80,113036,1,0
352,32,113299,2,0,B|432:32|432:128,1,120,2|8
432,200,114352,5,0
432,296,114878,1,8
384,296,115141,1,0
336,296,115404,1,0
240,296,115931,1,8
168,232,116457,6,2,B|88:232|88:144,1,120
88,112,117246,1,0
176,64,117773,1,2
264,112,118299,1,6
304,144,118562,5,0
304,240,119088,1,8
304,336,119615,1,0
224,288,120141,5,0
128,288,120667,1,2
176,200,121194,2,0,B|176:128,2,60,0|0|0
80,200,122246,5,0
112,112,122773,1,2
192,64,123299,2,0,B|320:64,1,120,2|0
408,64,124352,1,8
408,160,124878,6,0,B|392:280|296:352|208:352|104:280|96:144,1,480,0|2
160,88,127510,5,0
256,88,128036,1,0
352,88,128562,1,2
304,168,129088,2,0,B|328:224|416:224,2,120,4|0|0
256,184,130404,1,0
208,192,130667,1,8
160,184,130931,1,0
112,168,131194,6,0,B|48:208|64:296,1,120,0|8
136,328,132246,1,0
184,328,132510,1,0
232,328,132773,1,8
304,264,133299,6,2,B|384:264|384:176,1,120,2|2
384,144,134088,1,0
304,88,134615,1,2
224,32,135141,2,2,B|160:56|240:96|176:136,1,120
144,160,135931,1,8
144,256,136457,1,0
144,352,136983,1,8
224,304,137510,6,0,B|288:336|360:296,1,120,2|8
424,256,138562,2,0,B|488:256,2,60,0|0|8
344,200,139615,2,0,B|280:160|208:208,1,120,0|8
152,248,140667,1,0
104,248,140931,1,0
56,248,141194,1,8
32,152,141720,5,0
104,88,142246,1,8
176,152,142773,1,0
272,152,143299,1,8
256,192,143825,12,0,145931
