osu file format v9

[General]
AudioFilename: Electricshock.mp3
AudioLeadIn: 0
PreviewTime: -1
Countdown: 1
SampleSet: Soft
StackLeniency: 0.7
Mode: 0
LetterboxInBreaks: 1

[Editor]
Bookmarks: 41065,67945
DistanceSpacing: 0.8
BeatDivisor: 4
GridSize: 8

[Metadata]
Title:Electric Shock
Artist:f(x)
Creator:Irreversible
Version:Insane
Source:
Tags:

[Difficulty]
HPDrainRate:7
CircleSize:4
OverallDifficulty:8
ApproachRate:8
SliderMultiplier:2.5
SliderTickRate:1

[Events]
//Background and Video events
Video,0,"electricshockvid.avi"
0,0,"Unbenannt.jpg"
//Break Periods
2,132466,139436
2,155266,160076
//Storyboard Layer 0 (Background)
//Storyboard Layer 1 (Fail)
//Storyboard Layer 2 (Pass)
//Storyboard Layer 3 (Foreground)
//Storyboard Sound Samples
//Background Colour Transformations
3,100,163,162,255

[TimingPoints]
4106.93141586782,479.998403072246,4,2,0,100,1,0
29786,-133.333333333333,4,2,0,100,0,0
30026,-100,4,2,0,100,0,0
30735,-50,4,2,0,100,0,0
30975,-100,4,2,0,100,0,0
39855,-200,4,2,0,100,0,0
41055,-133.333333333333,4,2,0,100,0,0
44175,-200,4,2,0,100,0,0
52791,-100,4,2,0,100,0,0
55935,-100,4,2,0,100,0,1
71016,-100,4,2,0,100,0,0
87255,-133.333333333333,4,2,0,100,0,0
87735,-100,4,2,0,100,0,0
91095,-133.333333333333,4,2,0,100,0,0
91455,-100,4,2,0,100,0,0
100575,-200,4,2,0,100,0,0
102975,-200,4,2,0,100,0,0
116775,-100,4,2,0,100,0,0
117375,-100,4,2,0,100,0,1
132486,-200,4,2,0,100,0,1
132495,-200,4,2,0,100,0,0
151466,-100,4,2,0,100,0,0
155777,-200,4,2,0,100,0,0
168495,-83.3333333333333,4,2,0,100,0,0
193695,-200,4,2,0,100,0,0

[Colours]
Combo1 : 255,157,60
Combo2 : 248,92,139
Combo3 : 249,255,13
Combo4 : 192,192,192
Combo5 : 255,255,255

[HitObjects]
64,192,2186,1,0
168,96,2546,1,0
320,104,2906,2,0,B|392:152|392:224,1,125
288,248,3386,2,0,B|240:320|168:320,1,125
56,280,3866,5,0
128,200,4106,1,0
88,56,4466,1,0
232,64,4826,2,0,B|320:64|360:104,1,125
336,176,5306,2,0,B|272:144|200:144,1,125
152,232,5786,5,0
432,216,6026,1,0
288,128,6266,1,0
288,312,6506,1,0
368,144,6746,6,0,B|368:72|296:40,1,125
216,112,7226,2,0,B|216:184|288:216,1,125
200,288,7706,5,0
352,56,7946,1,0
120,152,8186,1,0
416,200,8426,1,0
264,200,8666,2,0,B|280:280|368:296,1,125
368,136,9146,2,0,B|352:56|264:40,1,125
48,192,9866,5,0
472,192,10346,1,0
256,40,10826,2,0,B|144:48|136:144,1,125
255,291,11306,2,0,B|330:281|376:196,1,125
72,160,11786,1,0
168,96,12026,1,0
224,192,12266,1,0
304,112,12506,1,0
256,320,12746,5,0
160,320,12986,1,0
304,256,13226,1,0
112,256,13466,1,0
208,192,13706,5,0
400,80,14186,1,0
424,192,14426,1,0
64,192,14666,1,0
104,88,14906,1,0
256,296,15146,1,0
256,72,15386,1,0
376,72,15626,22,0,B|456:112|456:224,1,125
440,312,16106,22,0,B|360:272|360:160,1,125
312,136,16586,1,0
264,112,16706,1,0
208,112,16826,1,0
104,152,17066,1,0
48,248,17306,1,0
160,248,17546,5,0
248,312,17786,1,0
304,312,17906,1,0
352,288,18026,1,0
400,192,18266,1,0
312,120,18506,1,0
256,112,18626,1,0
208,136,18746,1,0
80,96,18986,1,0
112,192,19226,6,0,B|24:192,1,62.5
49,192,19466,1,0
48,288,19706,2,0,B|128:288,1,62.5
110,288,19946,1,0
240,288,20186,5,0
368,288,20426,1,0
416,280,20546,1,0
456,248,20666,1,0
472,200,20786,1,0
472,152,20906,1,0
376,152,21146,5,0
304,72,21386,1,0
232,152,21626,2,0,B|152:152,1,62.5
232,152,21866,1,0
304,72,22106,5,0
304,168,22346,1,0
304,216,22466,1,0
320,264,22586,1,0
360,288,22706,1,0
408,288,22826,1,0
408,192,23066,1,0
440,152,23186,1,0
440,104,23306,1,0
304,72,23546,1,0
200,144,23786,1,0
80,56,24026,1,0
40,168,24266,1,0
80,264,24506,37,0
128,288,24626,1,0
176,304,24746,2,0,B|264:312|344:288,1,125
400,280,25226,2,0,B|312:184|408:88,1,187.5
386,111,25706,1,0
272,88,25946,1,0
176,120,26186,1,0
48,280,26426,5,0
104,304,26546,1,0
160,280,26666,1,0
280,64,26906,1,0
280,64,27146,2,0,B|280:296,1,187.5
280,248,27626,1,0
472,64,27866,5,0
168,64,28106,1,0
160,176,28346,1,0
176,232,28466,1,0
216,272,28586,1,0
472,272,28826,1,0
472,176,29066,6,0,B|376:144|344:64,1,125
368,109,29426,1,0
256,96,29786,2,0,B|144:96,1,93.7500035762788
96,240,30266,1,0
192,248,30506,1,0
384,304,30746,2,0,B|384:256|328:240|328:240|384:240|384:240|344:216|344:216|368:200|368:200|368:128|368:128|344:128|384:104,1,250
360,72,31226,2,0,B|288:16,1,62.5
288,64,31466,2,0,B|360:120,1,62.5
400,144,31706,2,0,B|440:200|392:304,1,125
296,192,32186,5,0
208,120,32426,1,0
256,296,32666,1,0
160,224,32906,2,0,B|80:224|56:120,1,125
66,154,33266,1,0
64,152,33386,2,0,B|64:72|168:48,2,125
184,248,34106,6,0,B|256:296|360:288,1,125
304,144,34586,2,0,B|408:144|472:80,1,125
456,208,35066,1,0
368,248,35306,2,0,B|288:312|200:280,1,125
152,304,35786,1,0
56,264,36026,1,0
64,216,36146,1,0
56,168,36266,1,0
96,80,36506,5,0
192,56,36746,2,0,B|256:32|328:64,1,125
312,112,37106,2,0,B|312:192,1,62.5
160,296,37466,1,0
432,296,37706,1,0
432,184,37946,5,0
424,128,38066,1,0
384,88,38186,1,0
248,120,38426,1,0
144,64,38666,1,0
56,136,38906,1,0
144,160,39146,2,0,B|144:232|32:272,1,125
208,232,39626,2,0,B|208:304|296:352,1,125
312,256,40106,2,0,B|424:184,2,125
248,192,41306,5,0
200,128,41546,1,0
144,64,41786,2,0,B|64:128|56:224,1,187.500007152558
160,296,42746,1,0
320,240,43226,1,0
336,80,43706,1,0
184,152,44186,2,0,B|136:88|48:120,2,125
448,184,45626,5,0
416,232,45866,1,0
360,248,46106,1,0
152,248,46586,1,0
96,232,46826,1,0
64,184,47066,1,0
64,72,47546,1,0
184,72,47786,2,0,B|184:184|256:256,1,187.5
245,245,48746,1,0
256,104,49226,5,0
184,248,49466,1,0
328,248,49706,1,0
256,48,49946,1,0
128,312,50186,1,0
376,312,50426,1,0
184,248,50666,1,0
328,248,50906,1,0
256,48,51386,1,0
256,48,51866,2,0,B|256:136|256:184,2,125
456,48,53306,5,0
456,248,53546,1,0
256,248,53786,1,0
256,48,54026,1,0
360,144,54266,1,0
360,144,54386,1,0
360,144,54506,1,0
248,144,54746,2,0,B|160:144|160:24,2,125
160,216,55466,5,0
160,328,55706,1,0
256,272,55946,1,0
360,208,56186,1,0
360,208,56306,1,0
360,208,56426,1,0
376,104,56666,5,0
336,64,56786,1,0
280,48,56906,1,0
168,48,57146,1,0
120,72,57266,1,0
216,128,57506,1,0
168,160,57626,1,0
56,160,57866,5,0
56,160,57986,1,0
56,328,58226,1,0
56,328,58346,1,0
184,256,58586,2,0,B|248:256,2,62.5
296,256,59066,2,0,B|376:256|376:256,1,62.5
472,256,59426,2,0,B|472:192,1,62.5
472,96,59786,6,0,B|408:96,1,62.5
320,48,60146,2,0,B|240:48,1,62.5
248,192,60506,1,0
192,208,60626,1,0
144,184,60746,1,0
56,112,60986,1,0
56,56,61106,1,0
168,56,61346,2,0,B|240:56,1,62.5
344,72,61706,2,0,B|448:72,1,62.5
456,168,62066,2,0,B|456:280,1,62.5
352,312,62426,6,0,B|280:312|256:216,2,125
264,240,63146,2,0,B|264:96|88:64,1,250
88,192,63866,1,0
120,240,63986,1,0
168,272,64106,1,0
224,176,64346,1,0
272,152,64466,1,0
328,160,64586,1,0
288,264,64826,1,0
352,256,64946,1,0
432,176,65186,1,0
432,176,65306,5,0
256,120,65546,2,0,B|256:208,1,62.5
88,56,65906,1,0
88,56,66026,1,0
88,288,66266,5,0
136,320,66386,1,0
192,328,66506,1,0
304,328,66746,1,0
344,304,66866,1,0
360,216,67106,1,0
400,192,67226,2,0,B|440:176|456:104,2,62.5
312,120,67706,2,0,B|184:120,1,125
96,280,68186,6,0,B|96:216,2,62.5
240,280,68666,6,0,B|240:216,1,62.5
336,280,69026,2,0,B|336:208,1,62.5
336,48,69506,1,0
48,48,69866,1,0
128,128,70106,5,0
128,240,70346,1,0
272,152,70586,1,0
272,320,70826,1,0
464,48,71306,5,0
464,320,71786,1,0
360,120,72266,2,0,B|320:80|272:144|208:88,1,125
240,216,72746,2,0,B|280:176|328:240|392:184,1,125
360,320,73226,2,0,B|320:280|272:344|208:288,1,125
128,304,73706,2,0,B|48:240,2,62.5
144,192,74186,2,0,B|96:160|160:96|72:72,1,125
208,88,74666,1,0
408,88,74906,1,0
328,168,75146,5,0
256,256,75386,1,0
200,240,75506,1,0
160,200,75626,1,0
104,104,75866,1,0
104,320,76106,1,0
104,104,76346,1,0
104,320,76586,1,0
416,320,76826,5,0
320,192,77066,1,0
464,192,77306,1,0
256,80,77546,1,0
192,192,77786,1,0
120,192,77906,1,0
48,192,78026,1,0
96,320,78266,1,0
48,192,78506,1,0
48,80,78746,5,0
96,56,78866,1,0
144,80,78986,1,0
144,192,79226,2,0,B|144:320,1,125
256,320,79706,2,0,B|256:176,1,125
256,80,80186,1,0
360,48,80426,1,0
448,112,80666,1,0
360,184,80906,5,0
264,128,81146,1,0
248,184,81266,1,0
232,232,81386,1,0
328,288,81626,1,0
232,232,81866,1,0
136,168,82106,1,0
96,272,82346,1,0
192,328,82586,5,0
248,336,82706,1,0
304,336,82826,1,0
408,304,83066,1,0
408,208,83306,2,0,B|408:112,1,62.5
408,96,83546,1,0
376,56,83666,1,0
320,48,83786,1,0
280,72,83906,1,0
272,120,84026,1,0
272,168,84146,1,0
272,216,84266,1,0
272,320,84506,1,0
168,64,84746,5,0
168,320,84986,1,0
400,320,85226,1,0
400,64,85466,1,0
288,96,85706,1,0
368,176,85946,1,0
368,176,86066,1,0
368,176,86186,1,0
256,200,86426,5,0
200,288,86666,2,0,B|104:288|64:192,1,125
88,240,87026,1,0
104,112,87386,2,0,B|152:80|208:120,1,93.7500035762788
208,232,87866,1,0
264,240,87986,1,0
312,208,88106,1,0
256,112,88346,1,0
424,72,88586,6,0,B|424:272,1,187.5
425,260,89066,1,0
120,80,89306,1,0
64,200,89546,1,0
152,224,89786,6,0,B|152:152,2,62.5
232,304,90266,1,0
344,280,90506,2,0,B|440:280|480:184,1,125
452,232,90866,1,0
408,112,91226,2,0,B|360:80|312:120,1,93.7500035762788
256,168,91706,1,0
56,248,91946,1,0
88,56,92186,1,0
136,152,92426,1,0
192,248,92666,5,0
232,288,92786,2,0,B|296:320|368:280,1,125
400,176,93146,2,0,B|352:216|352:312,1,125
352,88,93626,5,0
240,88,93866,1,0
296,184,94106,1,0
296,296,94346,1,0
208,240,94586,2,0,B|104:240|104:240,1,62.5
48,128,95066,1,0
120,64,95306,1,0
288,112,95546,5,0
424,80,95786,1,0
432,224,96026,1,0
256,224,96266,2,0,B|160:224|96:152,2,125
256,224,96986,2,0,B|352:224|416:152,1,125
376,136,97346,1,0
376,88,97466,1,0
208,88,97706,5,0
96,88,97946,1,0
152,176,98186,1,0
152,176,98426,2,0,B|152:296,1,62.5
456,200,98906,5,0
456,72,99146,1,0
344,72,99386,6,0,B|280:144,2,62.5
232,48,99866,1,0
128,96,100106,2,0,B|72:128|24:224,1,125
43,188,100586,1,0
42,188,100826,2,0,B|109:176|184:192,1,125
206,237,101546,2,0,B|151:165|150:165,1,62.5
170,187,102026,2,0,B|192:120|256:64,1,125
136,96,102986,5,0
64,144,103226,1,0
168,216,103706,2,0,B|208:288|264:320,1,125
400,216,104666,2,0,B|360:152|304:112,1,125
224,56,105626,2,0,B|80:56,1,125
99,56,106346,2,0,B|32:168,1,125
48,280,107066,1,0
96,256,107306,1,0
136,224,107546,1,0
464,280,108026,1,0
416,256,108266,1,0
376,224,108506,1,0
256,192,108986,5,0
256,192,109226,2,0,B|256:48,2,125
256,304,110666,5,0
312,296,110906,1,0
368,280,111146,1,0
424,248,111386,1,0
456,200,111626,1,0
472,144,111866,1,0
472,88,112106,1,0
472,88,112346,1,0
472,88,112826,5,0
472,88,113306,2,0,B|416:32|336:48,1,125
304,48,114026,2,0,B|304:128,1,62.5
248,112,114506,2,0,B|168:112,1,62.5
72,176,114986,5,0
40,280,115226,1,0
152,304,115466,1,0
264,312,115706,5,0
272,304,115826,1,0
280,296,115946,1,0
288,288,116066,1,0
296,280,116186,1,0
304,272,116306,1,0
312,264,116426,1,0
320,256,116546,1,0
328,248,116666,1,0
328,48,116906,5,0
216,48,117146,1,0
104,48,117386,2,0,B|104:120|184:160,1,125
168,152,117746,1,0
165,149,117866,1,0
320,288,118106,5,0
368,256,118226,1,0
408,216,118346,1,0
296,192,118586,1,0
256,152,118706,1,0
368,144,118946,1,0
328,104,119066,1,0
80,104,119306,5,0
80,104,119426,1,0
80,304,119666,1,0
80,304,119786,1,0
192,304,120026,2,0,B|192:232,1,62.5
192,241,120266,1,0
192,128,120506,2,0,B|296:128,1,62.5
304,232,120866,6,0,B|376:232,1,62.5
448,56,121226,2,0,B|368:56,1,62.5
192,128,121586,2,0,B|272:128,1,62.5
80,176,121946,2,0,B|48:200|32:248,1,62.5
41,224,122186,1,0
160,288,122426,1,0
208,272,122546,1,0
304,272,122786,1,0
352,288,122906,1,0
368,48,123266,1,0
72,48,123626,1,0
72,160,123866,6,0,B|160:152|216:192,1,125
120,240,124346,1,0
208,272,124586,2,0,B|305:281|457:193,1,250
320,72,125306,1,0
272,40,125426,1,0
216,48,125546,1,0
112,96,125786,2,0,B|40:176,2,62.5
176,184,126266,2,0,B|112:248,1,62.5
208,312,126626,2,0,B|272:240,1,62.5
360,272,126986,5,0
360,272,127106,1,0
456,88,127346,1,0
456,88,127466,1,0
232,56,127706,5,0
232,104,127826,1,0
208,144,127946,1,0
104,144,128186,1,0
56,168,128306,1,0
152,224,128546,1,0
176,272,128666,1,0
416,272,128906,6,0,B|416:200,4,62.5
304,160,129626,2,0,B|304:256,1,62.5
304,160,129866,1,0
208,104,130106,2,0,B|136:48,1,62.5
112,192,130466,2,0,B|48:240,1,62.5
256,312,130946,1,0
424,192,131306,1,0
256,160,131546,2,0,B|256:24,2,125
256,160,132266,1,0
96,184,140186,5,0
104,240,140426,2,0,B|144:304|216:328,1,125
408,184,141146,1,0
408,240,141386,2,0,B|368:304|296:328,1,125
256,320,142106,1,0
336,264,142346,1,0
176,224,142586,1,0
336,144,142826,1,0
176,88,143066,1,0
256,48,143306,2,0,B|256:200,1,125
448,192,144026,5,0
392,192,144266,2,0,B|344:192,4,31.25
216,192,144986,1,0
160,192,145226,2,0,B|112:192,4,31.25
72,136,145946,1,0
72,80,146186,5,0
128,80,146426,1,0
440,312,146906,1,0
440,280,147026,1,0
440,248,147146,1,0
440,80,147386,1,0
256,192,147866,5,0
248,136,148106,2,0,B|224:80|152:48,1,125
104,48,148826,1,0
48,64,149066,1,0
48,256,149546,1,0
152,240,149786,1,0
264,176,150026,1,0
320,48,150266,5,0
152,240,150506,1,0
264,176,150746,1,0
48,256,150986,1,0
80,112,151466,5,0
168,168,151706,2,0,B|120:224|128:304,1,125
168,168,152186,2,0,B|176:232|256:264,1,125
168,168,152666,2,0,B|232:192|304:160,1,125
168,168,153146,2,0,B|232:144|256:64,1,125
352,80,153626,1,0
432,144,153866,5,0
376,224,154106,1,0
104,96,154586,1,0
120,144,154706,1,0
160,176,154826,1,0
256,184,155066,1,0
152,160,160826,5,0
184,120,161066,1,0
232,88,161306,1,0
360,160,161786,1,0
328,120,162026,1,0
280,88,162266,1,0
256,40,162746,1,0
256,40,162986,2,0,B|256:248,1,187.5
256,227,163946,1,0
152,192,164426,5,0
152,64,164666,1,0
152,192,164906,1,0
264,128,165146,1,0
152,192,165386,1,0
48,128,165626,1,0
152,192,165866,1,0
264,256,166106,1,0
432,64,166586,1,0
472,192,167066,2,0,B|416:272|352:272|352:272,2,125
256,48,168506,5,0
168,96,168746,2,0,B|104:152|72:232,1,149.999995422363
79,215,169106,1,0
80,216,169226,1,0
312,200,169466,1,0
312,200,169586,1,0
312,200,169706,2,0,B|376:256|408:336,1,149.999995422363
256,64,170186,5,0
256,96,170306,1,0
256,128,170426,1,0
256,160,170546,1,0
256,192,170666,1,0
136,192,170906,5,0
136,312,171146,1,0
192,296,171266,1,0
248,272,171386,1,0
304,240,171506,1,0
352,200,171626,1,0
304,88,171866,1,0
248,104,171986,1,0
208,152,172106,1,0
320,200,172346,5,0
320,200,172466,1,0
352,304,172706,1,0
352,304,172826,1,0
80,304,173066,1,0
80,304,173186,1,0
80,64,173426,1,0
80,64,173546,1,0
304,72,173786,5,0
352,104,173906,1,0
384,152,174026,1,0
272,192,174266,2,0,B|272:280,1,74.9999977111817
184,184,174626,2,0,B|184:288,3,74.9999977111817
64,248,175226,1,0
64,192,175346,2,0,B|64:112,1,74.9999977111817
192,136,175706,21,0
248,112,175826,1,0
304,80,175946,1,0
408,136,176186,1,0
368,176,176306,1,0
288,264,176546,1,0
344,264,176666,2,0,B|208:176|56:248,1,299.999990844727
72,40,177386,1,0
72,168,177626,1,0
72,304,177866,2,0,B|184:312|256:224,1,149.999995422363
230,120,178346,2,0,B|344:192|312:360,1,224.999993133545
318,313,178826,1,0
424,256,179066,5,0
376,216,179186,1,0
344,168,179306,1,0
440,96,179546,1,0
384,88,179666,1,0
328,96,179786,1,0
216,128,180026,1,0
256,176,180146,1,0
144,216,180386,1,0
88,216,180506,2,0,B|48:312,1,93.7500035762788
152,328,180866,5,0
152,328,180986,1,0
464,328,181226,1,0
464,208,181466,5,0
440,152,181586,1,0
400,112,181706,1,0
280,88,181946,1,0
240,136,182066,1,0
344,296,182306,1,0
344,240,182426,2,0,B|248:240,4,74.9999977111817
272,144,183146,1,0
168,208,183386,2,0,B|152:112|224:32,1,149.999995422363
80,96,183866,2,0,B|32:168|72:288,1,149.999995422363
256,320,184346,5,0
256,272,184706,1,0
256,224,185066,1,0
256,176,185306,2,0,B|296:72|440:88,1,149.999995422363
256,176,185786,2,0,B|216:72|72:88,1,149.999995422363
72,192,186266,1,0
72,192,186506,1,0
160,312,186746,5,0
216,312,186866,1,0
272,312,186986,1,0
376,248,187226,1,0
320,248,187346,1,0
264,248,187466,1,0
176,160,187706,1,0
232,160,187826,1,0
328,88,188066,1,0
272,88,188186,1,0
152,80,188426,6,0,B|96:152|104:280,1,149.999995422363
232,160,188906,2,0,B|248:240|208:320,1,149.999995422363
336,296,189386,2,0,B|416:296|512:232,1,149.999995422363
384,184,189866,2,0,B|416:104|392:32,1,149.999995422363
80,192,190346,5,0
200,192,190586,1,0
312,192,190826,1,0
264,64,191066,2,0,B|264:160|160:224,1,149.999995422363
312,192,191546,2,0,B|312:304|400:344,1,149.999995422363
256,48,192026,5,0
40,192,192386,1,0
480,192,192746,1,0
256,48,192986,1,0
256,48,193226,1,0
256,48,193466,1,0
256,48,193706,2,0,B|256:176,1,125
