osu file format v14

[General]
AudioFilename: 3-01 HolyKnight.mp3
AudioLeadIn: 0
PreviewTime: 51087
Countdown: 0
SampleSet: Soft
StackLeniency: 0.7
Mode: 0
LetterboxInBreaks: 1
WidescreenStoryboard: 0

[Editor]
Bookmarks: 40249
DistanceSpacing: 1.2
BeatDivisor: 4
GridSize: 8
TimelineZoom: 3.299999

[Metadata]
Title:Holy Knight
TitleUnicode:Holy Knight
Artist:eyemedia
ArtistUnicode:eyemedia
Creator:judgment light
Version:Knight
Source:Cytus
Tags:
BeatmapID:471142
BeatmapSetID:198583

[Difficulty]
HPDrainRate:7
CircleSize:5
OverallDifficulty:8
ApproachRate:9
SliderMultiplier:1.6
SliderTickRate:1

[Events]
//Background and Video events
0,0,"e22fe788d43f8794d512c301d31b0ef41ad53a9e.png",0,0
//Break Periods
2,129481,131004
//Storyboard Layer 0 (Background)
//Storyboard Layer 1 (Fail)
//Storyboard Layer 2 (Pass)
//Storyboard Layer 3 (Foreground)
//Storyboard Sound Samples

[TimingPoints]
3088,387.096774193548,4,2,0,40,1,0
15475,-100,4,2,0,50,0,1
26313,-100,4,2,0,60,0,0
27087,-100,4,2,0,40,0,0
40249,-100,4,2,0,40,0,0
52636,-100,4,2,0,50,0,1
61926,-100,4,2,0,35,0,1
62120,-100,4,2,0,40,0,1
62313,-100,4,2,0,45,0,1
62507,-100,4,2,0,50,0,1
62700,-100,4,2,0,55,0,1
62894,-100,4,2,0,60,0,1
63087,-100,4,2,0,65,0,1
63281,-100,4,2,0,70,0,1
63475,-100,4,2,0,75,0,1
63862,-100,4,2,0,60,0,1
64249,-100,4,2,0,40,0,1
64442,-100,4,2,0,45,0,1
64636,-100,4,2,0,50,0,1
64829,-100,4,2,0,55,0,1
65023,-100,4,2,0,50,0,1
71217,-100,4,2,0,30,0,1
71604,-100,4,2,0,35,0,1
71991,-100,4,2,0,40,0,1
72378,-100,4,2,0,45,0,1
72765,-100,4,2,0,50,0,1
73152,-100,4,2,0,55,0,1
73539,-100,4,2,0,60,0,1
73926,-100,4,2,0,65,0,1
74313,-100,4,2,0,70,0,1
75862,-100,4,2,0,70,0,0
77023,-100,4,2,0,5,0,0
78184,-200,4,2,0,20,0,0
90571,-200,4,2,0,30,0,0
91346,-133.333333333333,4,2,0,40,0,0
91539,-100,4,2,0,40,0,0
103346,-100,4,1,0,50,0,0
103733,-100,4,1,0,60,0,1
113023,-100,4,2,0,50,0,1
113410,-100,4,2,0,55,0,1
113797,-100,4,2,0,60,0,1
114184,-100,4,2,0,65,0,1
114571,-83.3333333333333,4,1,0,70,0,1
114958,-83.3333333333333,4,1,0,60,0,1
115346,-83.3333333333333,4,1,0,50,0,1
115539,-83.3333333333333,4,1,0,55,0,1
115733,-83.3333333333333,4,1,0,60,0,1
115926,-83.3333333333333,4,1,0,65,0,1
116120,-83.3333333333333,4,1,0,70,0,1
116894,-83.3333333333333,4,1,0,60,0,1
117668,-83.3333333333333,4,1,0,70,0,1
118442,-200,4,1,0,60,0,1
118829,-200,4,1,0,5,0,1
118926,-200,4,1,0,60,0,1
119217,-100,4,1,0,60,0,1
122313,-100,4,1,0,50,0,1
122700,-100,4,1,0,52,0,1
123087,-100,4,1,0,55,0,1
123475,-100,4,1,0,57,0,1
123862,-100,4,1,0,60,0,1
124249,-100,4,1,0,62,0,1
124636,-100,4,1,0,65,0,1
125023,-100,4,1,0,67,0,1
125410,-100,4,1,0,70,0,1
125991,-100,4,1,0,80,0,1
126571,-100,4,1,0,90,0,1
126958,-100,4,1,0,70,0,0
129281,-100,4,2,0,5,0,0
131604,-100,4,1,0,60,0,0

[Colours]
Combo1 : 0,128,255
Combo2 : 255,0,0

[HitObjects]
80,144,2507,5,2,0:0:0:0:
80,144,2604,1,0,0:0:0:0:
80,144,2700,1,2,0:0:0:0:
157,208,2894,1,0,0:0:0:0:
274,124,3088,1,2,0:0:0:0:
414,322,3862,5,2,0:0:0:0:
355,245,4249,1,0,0:0:0:0:
283,306,4636,1,2,0:0:0:0:
460,147,5023,1,0,0:0:0:0:
355,245,5217,1,2,0:0:0:0:
221,86,6184,5,2,0:0:0:0:
283,306,6571,1,0,0:0:0:0:
256,218,6765,1,2,0:0:0:0:
86,284,7152,1,2,0:0:0:0:
140,203,7539,1,0,0:0:0:0:
189,285,7733,6,0,L|169:381,1,80,2|0,0:0|0:0,0:0:0:0:
207,165,8120,2,0,L|223:86,1,80,2|0,0:0|0:0,0:0:0:0:
94,117,8507,5,2,0:0:0:0:
171,95,8894,1,0,0:0:0:0:
251,233,9281,1,2,0:0:0:0:
404,224,9668,1,0,0:0:0:0:
324,167,9862,1,2,0:0:0:0:
183,297,10249,1,2,0:0:0:0:
100,164,10829,5,2,0:0:0:0:
76,284,11023,1,0,0:0:0:0:
360,90,11604,5,0,0:0:0:0:
381,208,11798,1,0,0:0:0:0:
179,207,12378,5,2,0:0:0:0:
219,284,12571,1,0,0:0:0:0:
266,212,12765,1,2,0:0:0:0:
171,362,12958,1,0,0:0:0:0:
336,291,13152,1,2,0:0:0:0:
373,305,13249,1,0,0:0:0:0:
410,293,13345,1,2,0:0:0:0:
447,306,13442,1,0,0:0:0:0:
483,292,13539,1,2,0:0:0:0:
416,140,13733,1,0,0:0:0:0:
261,362,13926,5,2,0:0:0:0:
109,282,14313,1,2,0:0:0:0:
337,291,14700,5,2,0:0:0:0:
172,361,14894,1,2,0:0:0:0:
304,218,15087,1,2,0:0:0:0:
235,56,15281,1,2,0:0:0:0:
153,209,15475,5,6,0:2:0:0:
188,289,15668,1,0,0:0:0:0:
362,153,15862,1,10,0:2:0:0:
303,218,16055,1,0,0:0:0:0:
109,139,16249,2,0,L|53:155,1,40,2|0,0:2|0:0,0:0:0:0:
2,245,16442,2,0,L|18:301,1,40,2|0,0:2|0:0,0:0:0:0:
116,341,16636,2,0,L|154:330,1,40,10|0,0:2|0:0,0:0:0:0:
207,226,16829,2,0,L|196:187,1,40,2|0,0:2|0:0,0:0:0:0:
180,117,17023,5,2,0:0:0:0:
261,82,17217,1,0,0:0:0:0:
304,217,17410,1,10,0:0:0:0:
386,248,17604,1,0,0:0:0:0:
237,311,17797,1,2,0:0:0:0:
221,332,17894,2,0,L|228:380,1,40,8|2,0:0|0:0,0:0:0:0:
114,209,18087,1,0,0:0:0:0:
129,230,18184,2,0,L|119:302,1,40,10|0,0:0|0:0,0:0:0:0:
244,161,18378,1,2,0:0:0:0:
321,118,18571,5,2,0:0:0:0:
250,64,18765,1,0,0:0:0:0:
330,123,18958,1,10,0:0:0:0:
401,69,19152,1,0,0:0:0:0:
323,124,19346,2,0,L|310:168,1,40,2|0,0:0|0:0,0:0:0:0:
234,183,19539,2,0,L|221:227,1,40,2|0,0:0|0:0,0:0:0:0:
142,232,19733,2,0,L|129:276,1,40,10|0,0:0|0:0,0:0:0:0:
51,281,19926,2,0,L|38:325,1,40,2|0,0:0|0:0,0:0:0:0:
108,132,20120,6,0,L|121:176,1,40,2|0,0:0|0:0,0:0:0:0:
197,191,20313,2,0,L|210:235,1,40,2|0,0:0|0:0,0:0:0:0:
289,240,20507,2,0,L|302:284,1,40,10|0,0:0|0:0,0:0:0:0:
380,289,20700,2,0,L|393:333,1,40,2|0,0:0|0:0,0:0:0:0:
390,196,20894,5,2,0:0:0:0:
386,156,20991,2,0,L|405:111,1,40,8|2,0:0|0:0,0:0:0:0:
263,50,21184,1,0,0:0:0:0:
287,82,21281,2,0,L|264:139,1,40,10|0,0:0|0:0,0:0:0:0:
115,212,21475,2,0,L|121:273,1,40,2|0,0:0|0:0,0:0:0:0:
293,277,21668,6,0,L|288:237,1,40,2|0,0:0|0:0,0:0:0:0:
195,145,21862,2,0,L|199:184,1,40,2|0,0:0|0:0,0:0:0:0:
296,285,22055,2,0,L|291:241,1,40,10|0,0:0|0:0,0:0:0:0:
188,140,22249,2,0,L|193:184,1,40,2|0,0:0|0:0,0:0:0:0:
359,254,22442,6,0,L|359:198,1,40,2|0,0:0|0:0,0:0:0:0:
229,312,22636,2,0,L|229:272,1,40,2|0,0:0|0:0,0:0:0:0:
119,234,22829,2,0,L|119:178,1,40,10|0,0:0|0:0,0:0:0:0:
283,147,23023,2,0,L|283:107,1,40,2|0,0:0|0:0,0:0:0:0:
100,79,23217,6,0,L|155:117,1,40,2|0,0:0|0:0,0:0:0:0:
384,155,23410,2,0,L|337:189,1,40,2|0,0:0|0:0,0:0:0:0:
168,284,23604,2,0,L|203:217,1,40,10|0,0:0|0:0,0:0:0:0:
254,38,23797,2,0,L|268:93,1,40,2|0,0:0|0:0,0:0:0:0:
291,277,23991,6,0,L|281:238,1,40,2|8,0:0|0:0,0:0:0:0:
77,180,24184,2,0,L|86:141,1,40,2|0,0:0|0:0,0:0:0:0:
322,114,24378,2,0,L|311:156,1,40,10|0,0:0|0:0,0:0:0:0:
205,195,24571,2,0,L|214:233,1,40,10|0,0:0|0:0,0:0:0:0:
316,325,24765,5,2,0:0:0:0:
351,304,24862,1,0,0:0:0:0:
375,273,24958,1,2,0:0:0:0:
390,236,25055,1,0,0:0:0:0:
392,195,25152,1,0,0:0:0:0:
375,159,25249,1,0,0:0:0:0:
354,123,25346,1,2,0:0:0:0:
317,106,25442,1,0,0:0:0:0:
195,106,25539,5,2,0:0:0:0:
158,123,25635,1,0,0:0:0:0:
137,159,25732,1,0,0:0:0:0:
120,195,25829,1,0,0:0:0:0:
122,236,25926,1,0,0:0:0:0:
137,273,26023,1,0,0:0:0:0:
161,304,26120,2,0,L|211:330,1,40,2|0,0:0|0:0,0:0:0:0:
256,208,26313,5,2,0:0:0:0:
417,140,27087,5,2,0:0:0:0:
366,77,27281,1,2,0:0:0:0:
286,69,27475,1,2,0:0:0:0:
223,118,27668,1,2,0:0:0:0:
197,194,27862,6,0,L|186:289,1,80,2|2,1:2|1:2,1:2:0:0:
310,214,28249,1,8,0:2:0:0:
141,126,28442,1,2,0:0:0:0:
118,113,28539,1,0,0:0:0:0:
94,98,28636,2,0,L|41:66,2,40,0|0|2,0:0|0:0|1:2,0:0:0:0:
117,207,29023,1,8,0:2:0:0:
253,326,29217,5,2,0:0:0:0:
253,326,29313,1,0,0:0:0:0:
253,326,29410,2,0,B|208:356|208:356|165:349,1,80,2|0,0:2|1:0,0:0:0:0:
210,228,29797,1,8,0:0:0:0:
324,277,29991,1,0,0:0:0:0:
210,228,30184,2,0,L|114:228,1,80,2|0,0:0|1:0,0:0:0:0:
324,277,30571,2,0,L|370:278,1,40,10|0,1:2|0:2,0:0:0:0:
427,324,30765,2,0,L|484:325,1,40,0|0,0:0|1:2,0:0:0:0:
442,232,30958,5,2,1:2:0:0:
293,138,31152,1,0,1:0:0:0:
406,110,31346,1,10,0:0:0:0:
331,262,31539,1,2,0:0:0:0:
329,265,31636,1,0,0:0:0:0:
327,268,31733,1,0,0:0:0:0:
325,271,31829,1,0,0:0:0:0:
323,274,31926,2,0,L|272:373,2,80,2|10|2,1:2|0:0|0:0,0:0:0:0:
165,208,32507,6,0,P|172:269|194:286,1,80,2|0,0:0|1:0,0:0:0:0:
226,150,32797,2,0,L|134:133,1,80,2|0,1:2|0:2,0:0:0:0:
238,229,33087,1,2,1:2:0:0:
277,221,33184,1,0,0:0:0:0:
316,213,33281,2,0,L|364:202,1,40,2|0,0:0|0:0,0:0:0:0:
449,230,33475,2,0,L|438:182,1,40,2|0,1:2|0:0,0:0:0:0:
464,99,33668,2,0,L|425:107,1,40,10|0,1:2|1:0,0:0:0:0:
334,83,33862,2,0,L|342:121,1,40,2|0,0:0|1:0,0:0:0:0:
380,277,34055,6,0,L|402:372,1,80,2|0,1:2|1:2,1:2:0:0:
391,156,34442,1,8,0:0:0:0:
238,229,34636,1,2,0:0:0:0:
272,249,34733,1,0,0:0:0:0:
305,269,34829,1,0,0:0:0:0:
148,173,35023,1,0,1:0:0:0:
219,322,35217,1,8,0:0:0:0:
241,135,35410,5,2,0:0:0:0:
50,215,35604,1,2,0:0:0:0:
105,84,35797,1,0,1:0:0:0:
132,287,35991,1,8,0:0:0:0:
105,84,36184,1,2,0:0:0:0:
148,173,36378,2,0,L|135:289,1,80,2|0,0:0|1:0,0:0:0:0:
219,322,36668,1,2,0:0:0:0:
258,327,36765,1,8,1:2:0:0:
297,331,36862,1,0,1:0:0:0:
336,332,36958,2,0,L|380:324,1,40,2|0,0:0|1:0,0:0:0:0:
414,233,37152,5,2,1:2:0:0:
461,80,37346,1,0,1:2:0:0:
414,233,37539,1,8,0:0:0:0:
352,133,37733,1,2,0:0:0:0:
354,136,37829,1,0,0:0:0:0:
356,139,37926,1,0,0:0:0:0:
358,142,38023,1,0,0:0:0:0:
360,145,38120,1,2,1:2:0:0:
423,244,38313,1,10,0:0:0:0:
277,233,38507,1,2,0:0:0:0:
277,233,38604,1,0,0:0:0:0:
277,233,38700,6,0,L|180:251,1,80,2|0,0:0|1:0,0:0:0:0:
108,298,38991,2,0,L|130:215,1,80,2|0,1:2|0:0,0:0:0:0:
150,134,39281,1,2,1:2:0:0:
161,95,39378,1,0,0:0:0:0:
172,56,39475,6,0,L|221:97,1,40,2|0,0:0|0:0,0:0:0:0:
264,133,39668,2,0,L|313:174,1,40,2|0,1:2|0:0,0:0:0:0:
358,208,39862,2,0,L|407:249,1,40,10|0,1:2|1:0,0:0:0:0:
452,281,40055,2,0,L|501:322,1,40,2|0,0:0|1:0,0:0:0:0:
355,310,40249,5,2,1:2:0:0:
263,342,40442,1,0,1:2:0:0:
287,199,40636,1,10,0:0:0:0:
302,46,40829,2,0,L|294:133,1,80,2|0,0:0|0:2,0:0:0:0:
153,173,41217,2,0,L|164:261,1,80,2|8,1:2|0:0,0:0:0:0:
208,96,41604,1,2,1:2:0:0:
208,97,41700,1,0,1:0:0:0:
208,97,41797,6,0,L|126:89,1,80,0|0,1:1|1:1,0:0:0:0:
42,180,42184,1,8,0:0:0:0:
119,345,42378,1,2,0:2:0:0:
178,321,42475,1,0,0:0:0:0:
239,337,42571,1,2,0:2:0:0:
330,205,42765,1,2,1:2:0:0:
168,209,42958,1,10,0:2:0:0:
300,319,43152,1,2,1:2:0:0:
300,319,43249,1,0,1:0:0:0:
300,319,43346,6,0,L|385:340,1,80,2|0,1:2|1:1,0:0:0:0:
269,246,43733,1,8,0:0:0:0:
394,170,43926,2,0,L|425:71,1,80,2|0,0:0|0:0,0:0:0:0:
236,139,44313,2,0,L|206:53,1,80,2|8,1:2|0:0,0:0:0:0:
411,80,44700,1,2,1:2:0:0:
417,90,44797,1,0,0:0:0:0:
423,100,44894,6,0,L|446:201,1,80,0|0,1:0|1:1,0:0:0:0:
203,207,45281,2,0,L|178:317,1,80,8|0,0:0|0:0,0:0:0:0:
305,173,45668,1,2,0:0:0:0:
175,100,45862,1,2,1:2:0:0:
110,118,45958,1,0,0:0:0:0:
43,101,46055,2,0,L|73:195,1,80,10|2,0:0|1:2,0:0:0:0:
117,260,46346,1,0,1:0:0:0:
117,260,46442,6,0,P|154:280|213:262,1,80,2|0,1:2|1:0,0:0:0:0:
235,146,46829,1,8,0:0:0:0:
111,118,47023,2,0,B|60:106|60:106|28:129,1,80,2|0,0:0|0:0,0:0:0:0:
293,103,47410,2,0,B|341:87|341:87|367:105,1,80,2|8,1:2|0:0,0:0:0:0:
163,168,47797,1,2,1:2:0:0:
163,168,47894,1,0,1:0:0:0:
163,168,47991,5,0,1:0:0:0:
117,259,48184,1,2,1:2:0:0:
110,118,48378,1,10,0:0:0:0:
216,218,48571,1,2,0:0:0:0:
53,288,48765,1,2,0:0:0:0:
163,166,48958,1,0,1:0:0:0:
177,149,49055,2,0,L|177:107,1,40,2|8,0:0|0:0,0:0:0:0:
258,60,49250,1,0,0:0:0:0:
274,70,49346,2,0,L|313:72,1,40,2|0,1:2|1:0,0:0:0:0:
377,123,49539,5,0,1:0:0:0:
429,263,49733,1,0,1:0:0:0:
376,123,49926,1,8,1:2:0:0:
328,218,50120,1,2,0:2:0:0:
328,218,50217,1,0,0:2:0:0:
328,218,50313,1,0,0:0:0:0:
263,282,50507,1,0,1:0:0:0:
226,177,50700,2,0,L|211:135,2,40,8|0|0,1:2|1:0|1:0,0:0:0:0:
284,104,51087,6,0,L|279:71,1,20,2|0,0:0|0:0,0:0:0:0:
297,109,51184,1,0,0:0:0:0:
315,115,51280,1,0,0:0:0:0:
334,119,51377,1,0,0:0:0:0:
353,121,51474,1,0,0:0:0:0:
373,119,51571,1,0,0:0:0:0:
392,114,51668,1,0,0:0:0:0:
410,106,51764,1,0,0:0:0:0:
426,94,51861,1,2,0:0:0:0:
360,207,52055,5,2,0:0:0:0:
360,207,52152,1,0,0:0:0:0:
360,207,52249,1,2,0:0:0:0:
270,97,52442,1,0,0:0:0:0:
265,206,52636,6,0,B|266:255|266:255|295:288,1,80,2|0,1:2|0:0,0:0:0:0:
177,351,53023,1,8,1:2:0:0:
177,351,53217,1,0,0:0:0:0:
167,163,53410,2,0,B|167:215|167:215|142:249,1,80,2|0,1:2|0:0,0:0:0:0:
343,353,53797,2,0,L|431:353,1,80,10|0,1:2|0:0,0:0:0:0:
283,277,54184,6,0,L|414:277,1,120,2|0,1:2|0:0,0:0:0:0:
362,186,54571,1,10,1:2:0:0:
410,75,54765,2,0,B|431:130|431:130|402:162,1,80,2|2,0:0|1:2,0:0:0:0:
347,120,55055,1,8,0:0:0:0:
187,100,55249,1,2,0:0:0:0:
165,170,55346,1,8,1:2:0:0:
131,43,55539,1,2,0:0:0:0:
235,154,55733,6,0,B|236:205|236:205|201:242,1,80,2|0,1:2|0:0,0:0:0:0:
117,112,56120,1,10,1:2:0:0:
265,51,56313,2,0,L|365:49,1,80,2|0,0:2|1:0,0:0:0:0:
470,184,56700,2,0,L|353:184,1,80,2|8,0:0|1:2,0:0:0:0:
326,122,57087,1,2,0:0:0:0:
385,269,57281,5,0,1:0:0:0:
311,213,57475,1,2,0:0:0:0:
311,213,57571,1,0,0:0:0:0:
311,213,57668,1,8,1:2:0:0:
279,340,57862,1,2,0:0:0:0:
197,255,58055,1,2,1:2:0:0:
155,205,58152,1,8,0:0:0:0:
259,79,58346,1,2,0:0:0:0:
238,139,58442,1,10,1:2:0:0:
158,59,58636,1,2,0:0:0:0:
316,41,58829,6,0,P|380:43|439:68,1,120,2|0,1:2|0:0,0:0:0:0:
482,114,59217,1,10,1:2:0:0:
350,188,59410,2,0,B|338:217|338:217|346:264,1,80,2|0,0:0|1:0,0:0:0:0:
234,122,59797,2,0,B|245:147|245:147|234:201,1,80,2|8,0:0|1:2,0:0:0:0:
217,293,60184,1,0,0:0:0:0:
349,187,60378,5,2,1:2:0:0:
233,121,60572,2,0,L|143:57,1,80,2|8,0:0|1:2,0:0:0:0:
290,157,60958,1,0,0:0:0:0:
210,272,61152,1,2,1:2:0:0:
217,293,61249,2,0,L|259:328,1,40,8|2,0:0|0:0,0:0:0:0:
74,270,61442,1,0,0:2:0:0:
67,291,61539,2,0,L|25:326,1,40,10|0,1:2|0:0,0:0:0:0:
142,211,61733,1,2,0:0:0:0:
257,321,61926,6,0,L|311:320,1,40,0|0,1:2|0:0,0:0:0:0:
389,278,62120,2,0,L|335:279,1,40,2|0,1:2|0:0,0:0:0:0:
236,252,62313,2,0,L|281:251,1,40,8|0,1:2|0:0,0:0:0:0:
415,214,62507,2,0,L|371:214,1,40,2|0,1:2|0:0,0:0:0:0:
196,190,62700,2,0,L|257:190,1,40,2|0,1:2|0:0,0:0:0:0:
442,149,62894,2,0,L|396:149,1,40,2|0,1:2|0:0,0:0:0:0:
147,125,63087,2,0,L|194:123,1,40,10|0,1:2|0:0,0:0:0:0:
415,86,63281,2,0,L|358:86,1,40,2|0,1:2|0:0,0:0:0:0:
93,82,63475,6,0,B|65:137|101:175|101:175|86:205,1,120,6|0,1:0|0:0,0:0:0:0:
29,197,63862,2,0,B|16:223|16:223|50:264|19:324,1,120,6|0,1:0|0:0,0:0:0:0:
104,255,64249,6,0,L|147:252,1,40,2|0,1:2|0:0,0:0:0:0:
177,199,64442,2,0,L|219:203,1,40,2|0,1:2|0:0,0:0:0:0:
259,152,64636,2,0,L|297:170,1,40,2|0,1:2|0:0,0:0:0:0:
356,134,64829,2,0,L|380:169,1,40,2|0,1:2|0:0,0:0:0:0:
361,256,65023,5,2,1:2:0:0:
409,65,65217,1,0,1:2:0:0:
208,294,65410,1,10,1:2:0:0:
256,103,65604,1,0,1:2:0:0:
369,266,65797,2,0,L|417:306,1,40,2|0,0:0|0:0,0:0:0:0:
143,266,65991,2,0,L|112:291,1,40,2|0,0:0|0:0,0:0:0:0:
343,192,66184,2,0,L|378:164,1,40,10|0,0:0|0:0,0:0:0:0:
169,192,66378,2,0,L|137:167,1,40,2|0,0:0|0:0,0:0:0:0:
325,84,66571,5,2,1:2:0:0:
189,83,66765,1,0,1:2:0:0:
325,239,66958,1,10,1:2:0:0:
189,238,67152,1,0,1:2:0:0:
101,341,67346,2,0,L|142:289,1,40,2|0,0:0|0:0,0:0:0:0:
300,337,67539,2,0,L|304:377,1,40,2|0,0:0|0:0,0:0:0:0:
208,377,67733,2,0,L|212:326,1,40,10|0,0:0|0:0,0:0:0:0:
386,309,67926,2,0,L|411:341,1,40,2|0,0:0|0:0,0:0:0:0:
255,180,68120,5,2,1:2:0:0:
110,192,68313,1,0,1:2:0:0:
257,180,68507,1,10,1:2:0:0:
402,192,68700,1,0,1:2:0:0:
170,121,68894,2,0,L|102:104,1,40,2|0,1:2|0:0,0:0:0:0:
181,246,69087,2,0,L|156:300,1,40,2|0,1:2|0:0,0:0:0:0:
342,121,69281,2,0,L|410:104,1,40,10|0,1:2|0:0,0:0:0:0:
331,246,69475,2,0,L|356:300,1,40,2|0,1:2|0:0,0:0:0:0:
256,284,69668,6,0,L|257:346,1,40,2|0,1:2|0:0,0:0:0:0:
259,103,69862,2,0,L|259:63,1,40,2|0,1:2|0:0,0:0:0:0:
150,186,70055,2,0,L|89:191,1,40,10|0,1:2|0:0,0:0:0:0:
362,186,70249,2,0,L|423:191,1,40,2|0,1:2|0:0,0:0:0:0:
152,60,70442,6,0,L|181:118,1,40,2|8,1:2|0:0,0:0:0:0:
360,60,70636,2,0,L|331:118,1,40,2|0,1:2|0:0,0:0:0:0:
126,82,70829,2,0,L|174:132,1,40,10|0,1:2|0:0,0:0:0:0:
386,82,71023,2,0,L|338:132,1,40,2|0,1:2|0:0,0:0:0:0:
213,217,71217,6,0,L|163:231,1,40,2|0,1:2|0:0,0:0:0:0:
185,257,71410,2,0,L|136:274,1,40,2|0,0:0|0:0,0:0:0:0:
2,130,71604,6,0,L|52:144,1,40,10|0,1:2|0:0,0:0:0:0:
52,180,71797,2,0,L|101:197,1,40,2|0,0:0|0:0,0:0:0:0:
197,117,71991,6,0,L|189:69,1,40,2|0,1:2|0:0,0:0:0:0:
263,155,72184,2,0,L|280:106,1,40,2|0,0:0|0:0,0:0:0:0:
118,258,72378,6,0,L|110:306,1,40,10|0,1:2|0:0,0:0:0:0:
207,191,72571,2,0,L|224:240,1,40,2|0,0:0|0:0,0:0:0:0:
150,91,72765,6,0,L|222:89,1,40,2|0,1:2|0:0,0:0:0:0:
408,196,72958,2,0,L|349:202,1,40,2|0,0:2|0:0,0:0:0:0:
195,158,73152,2,0,L|228:218,1,40,10|0,1:2|0:0,0:0:0:0:
389,95,73346,2,0,L|400:56,1,40,2|0,0:2|0:0,0:0:0:0:
290,200,73539,6,0,L|301:238,1,40,2|0,1:2|0:0,0:0:0:0:
128,361,73733,2,0,L|141:322,1,40,2|0,1:2|0:0,0:0:0:0:
37,144,73926,2,0,L|65:202,1,40,10|0,1:2|0:0,0:0:0:0:
285,291,74120,2,0,L|228:291,1,40,2|0,1:2|0:0,0:0:0:0:
114,287,74313,5,6,1:2:0:0:
136,254,74410,1,0,0:0:0:0:
158,221,74507,1,2,1:2:0:0:
181,188,74604,1,0,0:0:0:0:
203,155,74700,1,2,0:0:0:0:
226,122,74797,1,0,0:0:0:0:
249,89,74894,1,2,1:2:0:0:
272,56,74991,1,0,0:0:0:0:
232,56,75087,5,6,1:2:0:0:
255,89,75184,1,0,0:0:0:0:
278,122,75281,1,2,1:2:0:0:
301,155,75378,1,0,0:0:0:0:
323,188,75475,1,2,0:0:0:0:
346,221,75571,1,0,0:0:0:0:
368,254,75668,2,0,L|407:315,1,40,2|0,1:2|0:0,0:0:0:0:
256,242,75862,5,6,1:2:0:0:
256,192,75958,12,0,77023,0:0:0:0:
316,149,78184,5,2,0:0:0:0:
400,112,78378,1,2,0:0:0:0:
316,149,78571,1,2,0:0:0:0:
392,200,78765,1,2,0:0:0:0:
316,149,78958,6,0,L|272:128,1,40,2|0,0:0|0:0,0:0:0:0:
400,112,79346,2,0,L|440:84,1,40,0|0,0:0|0:0,0:0:0:0:
392,200,79733,2,0,L|395:248,1,40,0|0,0:0|0:0,0:0:0:0:
395,245,80023,1,0,0:0:0:0:
395,250,80120,5,2,0:0:0:0:
257,345,80313,1,2,0:0:0:0:
320,133,80507,1,2,0:0:0:0:
460,223,80700,1,0,0:0:0:0:
464,227,80797,1,0,0:0:0:0:
468,230,80894,1,0,0:0:0:0:
302,252,81087,5,2,0:0:0:0:
216,158,81281,2,0,L|167:154,1,40,2|0,0:0|0:0,0:0:0:0:
118,238,81571,1,0,0:0:0:0:
118,238,81668,2,0,L|63:236,1,40,2|0,0:0|0:0,0:0:0:0:
298,76,82055,6,0,L|351:76,1,40,2|0,0:0|0:0,0:0:0:0:
344,76,82346,1,0,0:0:0:0:
349,76,82442,1,0,0:0:0:0:
200,51,82636,1,2,0:0:0:0:
292,159,82829,2,0,L|301:208,1,40,2|0,0:0|0:0,0:0:0:0:
199,222,83217,2,0,L|192:263,1,40,2|0,0:0|0:0,0:0:0:0:
216,136,83604,5,2,0:0:0:0:
307,201,83797,1,0,0:0:0:0:
316,203,83894,1,0,0:0:0:0:
325,205,83991,1,0,0:0:0:0:
447,191,84184,1,0,0:0:0:0:
414,283,84378,1,0,0:0:0:0:
404,284,84475,1,0,0:0:0:0:
394,286,84571,1,0,0:0:0:0:
384,288,84668,1,0,0:0:0:0:
374,290,84765,5,2,0:0:0:0:
271,308,84958,1,2,0:0:0:0:
295,199,85152,2,0,L|306:150,1,40,2|0,0:0|0:0,0:0:0:0:
306,150,85442,1,0,0:0:0:0:
309,140,85539,1,0,0:0:0:0:
182,53,85733,1,0,0:0:0:0:
131,134,85926,1,0,0:0:0:0:
134,143,86023,1,0,0:0:0:0:
137,152,86120,1,0,0:0:0:0:
140,161,86217,1,0,0:0:0:0:
143,170,86313,1,0,0:0:0:0:
226,255,86507,5,2,0:0:0:0:
332,297,86700,2,0,L|347:333,1,40,2|0,0:0|0:0,0:0:0:0:
351,343,86991,1,0,0:0:0:0:
355,351,87087,1,0,0:0:0:0:
445,272,87281,1,2,0:0:0:0:
227,161,87475,5,2,0:0:0:0:
406,212,87765,1,2,0:0:0:0:
350,48,88056,1,2,0:0:0:0:
134,162,88249,5,2,0:0:0:0:
98,233,88442,1,0,0:0:0:0:
156,288,88636,1,0,0:0:0:0:
234,275,88829,1,0,0:0:0:0:
269,256,88926,1,0,0:0:0:0:
337,297,89120,1,0,0:0:0:0:
396,349,89313,1,0,0:0:0:0:
433,363,89410,1,0,0:0:0:0:
459,287,89604,1,0,0:0:0:0:
469,248,89700,1,0,0:0:0:0:
480,209,89797,1,0,0:0:0:0:
422,152,89991,1,0,0:0:0:0:
372,218,90184,1,0,0:0:0:0:
351,104,90378,1,0,0:0:0:0:
280,177,90571,5,2,0:0:0:0:
201,194,90765,1,2,0:0:0:0:
123,211,90958,1,2,0:0:0:0:
44,228,91152,1,2,0:0:0:0:
91,89,91346,6,0,P|126:68|164:64,1,60.0000022888184,6|0,1:2|0:0,0:0:0:0:
184,58,91636,1,0,0:0:0:0:
223,65,91733,1,2,0:0:0:0:
258,83,91829,1,0,0:0:0:0:
263,122,91926,1,2,0:0:0:0:
236,151,92023,1,0,0:0:0:0:
216,186,92120,5,0,0:0:0:0:
232,222,92217,1,0,0:0:0:0:
267,240,92313,1,2,0:0:0:0:
306,232,92410,1,0,0:0:0:0:
329,199,92507,1,0,0:0:0:0:
329,158,92604,1,0,0:0:0:0:
298,132,92700,1,2,0:0:0:0:
258,128,92797,1,0,0:0:0:0:
219,139,92894,5,0,0:0:0:0:
183,158,92991,1,0,0:0:0:0:
154,185,93087,1,0,0:0:0:0:
136,220,93184,1,0,0:0:0:0:
135,260,93281,1,0,0:0:0:0:
149,297,93378,1,0,0:0:0:0:
185,312,93475,1,2,0:0:0:0:
224,310,93571,1,2,0:0:0:0:
256,326,93668,5,2,0:0:0:0:
287,350,93765,1,0,0:0:0:0:
322,368,93862,2,0,L|366:343,1,40,6|0,0:0|0:0,0:0:0:0:
358,280,94055,2,0,L|402:255,1,40,2|0,0:0|0:0,0:0:0:0:
393,191,94249,2,0,L|437:166,1,40,6|0,0:0|0:0,0:0:0:0:
427,103,94442,6,0,L|471:78,1,40,2|0,0:0|0:0,0:0:0:0:
402,73,94636,5,0,0:0:0:0:
362,69,94733,1,0,0:0:0:0:
324,81,94829,1,2,0:0:0:0:
294,108,94926,1,0,0:0:0:0:
281,146,95023,1,2,0:0:0:0:
283,186,95120,1,0,0:0:0:0:
293,224,95217,5,0,0:0:0:0:
300,262,95313,1,0,0:0:0:0:
284,298,95410,1,2,0:0:0:0:
249,318,95507,1,0,0:0:0:0:
209,308,95604,1,0,0:0:0:0:
178,282,95700,1,2,0:0:0:0:
142,265,95797,1,2,0:0:0:0:
101,263,95894,1,0,0:0:0:0:
72,290,95991,5,0,0:0:0:0:
74,329,96087,1,0,0:0:0:0:
112,341,96184,1,0,0:0:0:0:
145,319,96281,1,0,0:0:0:0:
158,281,96378,1,0,0:0:0:0:
150,241,96475,1,0,0:0:0:0:
129,207,96571,1,0,0:0:0:0:
113,170,96668,1,0,0:0:0:0:
110,129,96765,5,2,0:0:0:0:
127,93,96862,1,0,0:0:0:0:
153,63,96958,1,2,0:0:0:0:
192,57,97055,1,2,0:0:0:0:
231,64,97152,1,2,0:0:0:0:
247,100,97249,1,0,0:0:0:0:
243,139,97346,2,0,L|228:209,1,40,6|0,0:0|0:0,0:0:0:0:
200,331,97539,5,2,0:0:0:0:
236,347,97636,1,0,0:0:0:0:
275,353,97733,1,0,0:0:0:0:
312,339,97829,1,0,0:0:0:0:
340,310,97926,1,2,0:0:0:0:
351,271,98023,1,0,0:0:0:0:
338,232,98120,1,2,0:0:0:0:
305,208,98217,1,0,0:0:0:0:
265,202,98313,5,0,0:0:0:0:
226,214,98410,1,0,0:0:0:0:
187,226,98507,1,2,0:0:0:0:
148,238,98604,1,0,0:0:0:0:
110,250,98700,1,0,0:0:0:0:
72,263,98797,1,0,0:0:0:0:
34,276,98894,2,0,L|42:213,1,40,6|0,0:0|0:0,0:0:0:0:
56,64,99087,5,0,0:0:0:0:
85,91,99184,1,0,0:0:0:0:
114,118,99281,1,2,0:0:0:0:
143,145,99378,1,0,0:0:0:0:
172,172,99475,1,2,0:0:0:0:
201,198,99571,1,0,0:0:0:0:
231,223,99668,2,0,L|280:267,1,40,6|0,0:0|0:0,0:0:0:0:
392,355,99862,5,2,0:0:0:0:
401,316,99958,1,0,0:0:0:0:
410,277,100055,1,0,0:0:0:0:
419,238,100152,1,2,0:0:0:0:
429,199,100249,1,0,0:0:0:0:
439,160,100346,1,0,0:0:0:0:
449,121,100442,2,0,L|385:130,1,40,6|0,0:0|0:0,0:0:0:0:
271,156,100636,6,0,L|245:116,5,40,2|0|0|0|0|0,0:0|0:0|0:0|0:0|0:0|0:0,0:0:0:0:
374,105,101217,2,0,L|400:65,3,40,2|0|0|0,0:0|0:0|0:0|0:0,0:0:0:0:
305,61,101604,2,0,L|298:11,3,40,2|0|0|0,0:0|0:0|0:0|0:0,0:0:0:0:
356,186,101991,2,0,L|348:231,1,40,2|0,0:0|0:0,0:0:0:0:
319,306,102184,5,0,0:0:0:0:
278,308,102281,1,0,0:0:0:0:
237,310,102378,1,0,0:0:0:0:
196,312,102475,1,0,0:0:0:0:
168,340,102571,1,0,0:0:0:0:
128,344,102668,1,0,0:0:0:0:
88,348,102765,1,0,0:0:0:0:
48,351,102862,1,0,0:0:0:0:
8,354,102958,1,2,0:0:0:0:
81,204,103152,5,2,0:0:0:0:
81,204,103249,1,0,0:0:0:0:
81,204,103346,2,0,L|150:202,1,40,2|0,1:2|2:0,0:0:0:0:
158,132,103539,2,0,L|219:134,1,40,0|0,1:0|2:0,0:0:0:0:
299,202,103733,5,2,1:1:0:0:
367,126,103926,1,2,0:2:0:0:
457,293,104120,1,8,1:0:0:0:
411,210,104313,1,2,0:2:0:0:
254,115,104507,5,2,1:0:0:0:
296,288,104700,1,2,0:2:0:0:
199,194,104894,1,10,1:0:0:0:
143,276,105087,1,2,0:2:0:0:
117,131,105281,6,0,L|51:77,1,80,2|2,1:0|0:2,0:0:0:0:
254,115,105668,2,0,L|299:42,1,80,10|2,1:0|0:2,0:0:0:0:
364,155,106055,1,0,1:2:0:0:
389,186,106152,1,2,0:2:0:0:
313,252,106346,1,2,0:2:0:0:
296,288,106442,1,8,0:0:0:0:
417,324,106636,1,2,0:2:0:0:
224,328,106829,5,2,1:0:0:0:
143,328,107023,1,2,0:2:0:0:
216,196,107217,1,10,1:0:0:0:
260,123,107410,1,2,0:0:0:0:
55,54,107604,5,2,1:2:0:0:
134,125,107797,1,2,0:0:0:0:
61,332,107991,1,8,1:0:0:0:
136,201,108184,1,2,0:0:0:0:
315,189,108378,6,0,L|420:181,1,80,2|0,1:2|0:0,0:0:0:0:
286,318,108765,2,0,L|206:324,1,80,10|2,1:0|0:0,0:0:0:0:
268,140,109152,1,0,0:0:0:0:
265,136,109249,1,2,0:2:0:0:
262,132,109346,1,2,0:0:0:0:
259,128,109442,1,2,0:2:0:0:
257,124,109539,1,8,0:0:0:0:
194,33,109733,1,2,0:2:0:0:
133,140,109926,6,2,P|125:229|161:262,1,120,2|2,0:0|0:2,0:0:0:0:
200,284,110313,1,10,0:0:0:0:
343,253,110507,2,2,P|408:249|445:272,1,80,2|0,0:0|0:2,0:0:0:0:
342,174,110894,2,2,L|330:67,1,80,2|8,0:0|0:0,0:0:0:0:
272,271,111281,2,0,L|281:351,1,80,0|2,0:2|0:0,0:0:0:0:
343,175,111669,1,2,0:0:0:0:
188,210,111862,2,0,L|90:214,1,80,8|0,0:0|0:2,0:0:0:0:
258,72,112249,1,2,0:0:0:0:
258,75,112346,1,2,0:2:0:0:
258,78,112442,1,2,0:0:0:0:
258,81,112539,1,2,0:2:0:0:
258,84,112636,1,8,0:0:0:0:
267,192,112829,1,2,0:2:0:0:
167,291,113023,6,0,L|179:338,1,40,2|0,1:0|0:0,0:0:0:0:
252,269,113217,2,0,L|250:318,1,40,2|0,1:0|0:0,0:0:0:0:
337,280,113410,2,0,L|317:344,1,40,2|0,1:0|0:0,0:0:0:0:
407,322,113604,2,0,L|379:364,1,40,2|0,1:0|0:0,0:0:0:0:
490,195,113797,6,0,L|462:237,1,40,2|0,1:0|0:0,0:0:0:0:
381,131,113991,2,0,L|361:195,1,40,2|0,1:0|0:0,0:0:0:0:
255,101,114184,2,0,L|253:150,1,40,2|0,1:0|0:0,0:0:0:0:
114,113,114378,2,0,L|126:160,1,40,2|0,1:0|0:0,0:0:0:0:
181,354,114571,6,0,P|233:371|319:339,1,143.999995605469,6|0,0:0|2:0,0:0:0:0:
359,289,114958,2,0,B|382:237|353:183|353:183|374:144,1,143.999995605469,6|0,0:0|0:0,0:0:0:0:
426,54,115346,6,0,L|397:106,1,47.9999985351563,2|0,0:0|0:0,0:0:0:0:
292,244,115539,2,0,L|232:248,1,47.9999985351563,2|0,0:0|0:0,0:0:0:0:
408,110,115733,2,0,L|432:69,1,47.9999985351563,2|0,0:0|0:0,0:0:0:0:
269,88,115926,2,0,L|245:20,1,47.9999985351563,2|0,0:0|0:0,0:0:0:0:
329,161,116120,5,2,0:0:0:0:
126,344,116410,1,2,0:0:0:0:
66,77,116700,1,2,0:0:0:0:
195,206,116894,5,0,0:2:0:0:
224,184,116991,1,2,0:2:0:0:
270,172,117087,1,0,0:2:0:0:
321,183,117184,1,0,0:2:0:0:
368,216,117281,1,2,0:2:0:0:
182,160,117668,5,2,0:0:0:0:
385,343,117958,1,2,0:0:0:0:
445,76,118248,1,2,0:0:0:0:
301,125,118442,6,2,L|352:270,1,140,0|0,0:0|2:0,0:0:0:0:
385,343,119217,5,2,0:0:0:0:
163,211,119410,1,2,0:0:0:0:
212,335,119604,1,8,0:0:0:0:
402,269,119797,1,2,0:0:0:0:
134,294,119991,5,2,0:0:0:0:
294,360,120184,1,2,0:0:0:0:
355,168,120378,1,8,0:0:0:0:
282,250,120571,1,2,0:0:0:0:
173,221,120765,6,0,L|120:223,1,40,2|0,0:0|1:0,0:0:0:0:
185,156,120958,2,0,L|133:131,1,40,0|0,0:0|0:0,0:0:0:0:
232,109,121152,2,0,L|208:64,1,40,10|0,0:0|1:0,0:0:0:0:
297,100,121346,2,0,L|294:55,1,40,2|0,0:0|0:0,0:0:0:0:
290,253,121539,6,0,L|297:313,1,40,2|8,0:0|0:0,0:0:0:0:
384,175,121733,2,0,L|444:169,1,40,0|0,0:0|0:0,0:0:0:0:
192,186,121926,2,0,L|126:191,1,40,14|0,0:0|0:0,0:0:0:0:
247,33,122120,2,0,L|250:104,1,40,4|0,0:0|0:0,0:0:0:0:
243,346,122313,5,6,0:0:0:0:
266,340,122410,1,0,0:0:0:0:
289,334,122507,1,0,0:0:0:0:
312,328,122604,1,0,0:0:0:0:
343,328,122700,5,10,0:0:0:0:
369,309,122797,1,0,0:0:0:0:
383,280,122894,1,0,0:0:0:0:
383,247,122991,1,0,0:0:0:0:
368,222,123087,5,2,0:0:0:0:
329,232,123184,1,0,0:0:0:0:
290,242,123281,1,0,0:0:0:0:
251,252,123378,1,0,0:0:0:0:
203,266,123475,5,10,0:0:0:0:
159,246,123571,1,0,0:0:0:0:
137,203,123668,1,0,0:0:0:0:
130,155,123765,1,0,0:0:0:0:
163,119,123862,6,0,L|230:109,1,40,2|0,0:0|0:0,0:0:0:0:
363,154,124055,2,0,L|323:159,1,40,2|0,0:0|0:0,0:0:0:0:
82,231,124249,2,0,L|106:271,1,40,10|0,0:0|0:0,0:0:0:0:
284,304,124442,2,0,L|266:355,1,40,2|0,0:0|0:0,0:0:0:0:
239,211,124636,6,0,L|225:163,1,40,2|8,0:0|0:0,0:0:0:0:
419,46,124829,2,0,L|395:93,1,40,2|0,0:0|0:0,0:0:0:0:
352,268,125023,2,0,L|407:264,1,40,10|0,0:0|0:0,0:0:0:0:
76,159,125217,2,0,L|24:169,1,40,2|0,0:0|0:0,0:0:0:0:
192,95,125410,5,6,0:0:0:0:
384,320,125604,1,2,0:0:0:0:
209,69,125991,5,2,0:0:0:0:
292,205,126184,1,6,0:0:0:0:
372,347,126378,1,2,0:0:0:0:
235,43,126765,5,2,0:0:0:0:
337,368,126958,1,6,0:0:0:0:
256,192,127055,12,0,129281,0:0:0:0:
256,192,131604,5,2,0:2:0:0:
