osu file format v13

[General]
AudioFilename: Holy Knight.mp3
AudioLeadIn: 0
PreviewTime: 49200
Countdown: 0
SampleSet: Soft
StackLeniency: 0.7
Mode: 0
LetterboxInBreaks: 1
WidescreenStoryboard: 1

[Editor]
DistanceSpacing: 0.5
BeatDivisor: 4
GridSize: 8
TimelineZoom: 3.099999

[Metadata]
Title:Holy Knight
TitleUnicode:Holy Knight
Artist:eyemedia
ArtistUnicode:eyemedia
Creator:Vore
Version:Holy Knight
Source:Cytus
Tags:chapter 5 v vanessa
BeatmapID:481997
BeatmapSetID:204081

[Difficulty]
HPDrainRate:6
CircleSize:4
OverallDifficulty:7
ApproachRate:10
SliderMultiplier:1.2
SliderTickRate:2

[Events]
//Background and Video events
0,0,"BG.jpg",0,0
//Break Periods
//Storyboard Layer 0 (Background)
//Storyboard Layer 1 (Fail)
//Storyboard Layer 2 (Pass)
//Storyboard Layer 3 (Foreground)
//Storyboard Sound Samples
//Background Colour Transformations
3,100,163,162,255

[TimingPoints]
620,387.096774193548,4,2,0,75,1,0
1974,-166.666666666667,4,2,0,75,0,0
6619,-100,4,2,0,75,0,0
8942,-71.4285714285714,4,2,0,75,0,0
10490,-100,4,2,0,75,0,0
13587,-100,4,1,0,75,0,0
18232,-100,4,2,0,75,0,0
19786,-133.333333333333,4,1,0,60,0,0
21329,-66.6666666666667,4,2,0,75,0,0
24426,-100,4,2,0,75,0,0
25200,-200,4,2,0,75,0,0
30039,-66.6666666666667,4,2,0,75,0,0
31394,-200,4,2,0,75,0,0
33523,-66.6666666666667,4,2,0,75,0,0
34878,-200,4,2,0,75,0,0
36232,-80,4,2,0,75,0,0
49200,-66.6666666666667,4,1,0,50,0,0
76103,-200,4,2,0,75,0,0
83071,-66.6666666666667,4,2,0,75,0,0
86361,-200,4,2,0,75,0,0
89265,-66.6666666666667,4,2,0,75,0,0
100297,-66.6666666666667,4,1,0,50,0,1
112684,-200,4,1,0,50,0,1
115200,-66.6666666666667,4,1,0,50,0,1
116555,-200,4,1,0,50,0,1
120426,-66.6666666666667,4,1,0,50,0,1
127587,-66.6666666666667,4,1,0,50,0,0

[HitObjects]
112,112,620,5,0,0:0:0:0:
136,120,716,1,0,0:0:0:0:
156,128,813,1,0,0:0:0:0:
240,160,1007,1,0,0:0:0:0:
328,256,1200,1,0,0:0:0:0:
328,256,1297,1,0,0:0:0:0:
328,256,1394,1,0,0:0:0:0:
360,144,1587,1,0,0:0:0:0:
360,144,1684,1,0,0:0:0:0:
360,144,1781,1,0,0:0:0:0:
256,48,1974,5,0,0:0:0:0:
400,192,2361,1,0,0:0:0:0:
304,128,2749,1,0,0:0:0:0:
336,96,2846,1,0,0:0:0:0:
368,64,2943,1,0,0:0:0:0:
208,128,3136,1,0,0:0:0:0:
176,96,3233,1,0,0:0:0:0:
144,64,3330,1,0,0:0:0:0:
256,192,3523,1,0,0:0:0:0:
256,64,4297,5,0,0:0:0:0:
384,184,4684,1,0,0:0:0:0:
128,184,4878,1,0,0:0:0:0:
256,248,5265,1,0,0:0:0:0:
384,304,5652,1,0,0:0:0:0:
344,120,5845,5,0,0:0:0:0:
376,80,5942,1,0,0:0:0:0:
408,48,6039,1,0,0:0:0:0:
192,272,6232,1,0,0:0:0:0:
160,304,6329,1,0,0:0:0:0:
128,336,6426,1,0,0:0:0:0:
248,72,6619,6,0,P|280:128|248:200,1,120
267,179,7394,1,0,0:0:0:0:
264,312,7781,1,0,0:0:0:0:
376,88,7974,1,0,0:0:0:0:
160,80,8361,1,0,0:0:0:0:
144,312,8942,6,0,P|104:296|128:240,1,83.9999974365235
392,80,9716,2,0,P|432:136|408:160,1,83.9999974365235
256,40,10490,5,0,0:0:0:0:
416,192,10684,1,0,0:0:0:0:
256,336,10878,1,0,0:0:0:0:
104,192,11071,1,0,0:0:0:0:
200,124,11265,5,0,0:0:0:0:
232,120,11361,1,0,0:0:0:0:
260,132,11458,1,0,0:0:0:0:
280,152,11555,1,0,0:0:0:0:
296,172,11652,1,0,0:0:0:0:
308,196,11749,1,0,0:0:0:0:
320,224,11845,1,0,0:0:0:0:
352,296,12039,5,0,0:0:0:0:
120,236,12232,1,0,0:0:0:0:
184,40,12426,1,0,0:0:0:0:
400,104,12619,1,0,0:0:0:0:
276,240,12813,5,0,0:0:0:0:
244,216,12910,1,0,0:0:0:0:
224,184,13007,1,0,0:0:0:0:
228,152,13103,1,0,0:0:0:0:
240,132,13200,1,0,0:0:0:0:
256,116,13297,1,0,0:0:0:0:
272,104,13394,1,0,0:0:0:0:
256,340,13587,5,0,0:0:0:0:
448,184,13781,1,0,0:0:0:0:
88,188,13974,1,0,0:0:0:0:
256,40,14168,1,0,0:0:0:0:
256,340,14361,5,8,0:0:0:0:
448,184,14555,1,8,0:0:0:0:
88,188,14749,1,8,0:0:0:0:
256,40,14942,1,8,0:0:0:0:
128,80,15136,5,0,0:0:0:0:
384,280,15329,1,0,0:0:0:0:
392,76,15523,1,0,0:0:0:0:
120,288,15716,1,0,0:0:0:0:
392,76,15910,5,0,0:0:0:0:
120,288,16103,1,0,0:0:0:0:
128,80,16297,1,0,0:0:0:0:
384,280,16490,1,0,0:0:0:0:
51,193,16684,5,0,0:0:0:0:
185,196,16878,1,0,0:0:0:0:
329,195,17071,1,0,0:0:0:0:
472,194,17265,1,0,0:0:0:0:
184,195,17458,1,8,0:0:0:0:
472,195,17652,1,8,0:0:0:0:
52,193,17845,1,8,0:0:0:0:
330,195,18039,1,8,0:0:0:0:
314,68,18232,5,8,0:0:0:0:
346,93,18329,1,0,0:0:0:0:
356,133,18426,1,8,0:0:0:0:
337,166,18523,1,0,0:0:0:0:
307,190,18619,1,8,0:0:0:0:
331,226,18716,1,0,0:0:0:0:
365,254,18813,1,8,0:0:0:0:
161,73,19007,5,8,0:0:0:0:
127,101,19103,1,0,0:0:0:0:
104,143,19200,1,8,0:0:0:0:
123,179,19297,1,0,0:0:0:0:
145,215,19394,1,8,0:0:0:0:
118,248,19490,1,0,0:0:0:0:
91,273,19587,1,8,0:0:0:0:
306,315,19781,5,0,0:0:0:0:
271,288,19878,1,0,0:0:0:0:
237,261,19974,1,0,0:0:0:0:
218,220,20071,1,0,0:0:0:0:
286,143,20168,5,0,0:0:0:0:
311,174,20265,1,0,0:0:0:0:
338,206,20361,1,0,0:0:0:0:
350,237,20458,1,0,0:0:0:0:
438,226,20555,5,0,0:0:0:0:
411,193,20652,1,0,0:0:0:0:
383,165,20749,1,0,0:0:0:0:
342,158,20845,1,0,0:0:0:0:
309,186,20942,1,0,0:0:0:0:
284,204,21039,1,0,0:0:0:0:
253,224,21135,1,0,0:0:0:0:
220,215,21232,1,0,0:0:0:0:
187,201,21329,2,0,L|142:173,3,45.0000017166138,0|0|0|0,0:0|0:0|0:0|0:0,0:0:0:0:
416,248,21716,6,0,L|384:288,1,45.0000017166138
304,240,21910,2,0,L|344:192,1,45.0000017166138
256,176,22103,2,0,L|216:224,1,45.0000017166138
160,176,22297,2,0,L|200:128,1,45.0000017166138
128,112,22490,2,0,L|88:152,1,45.0000017166138
72,248,22684,2,0,L|32:200,1,45.0000017166138
140,278,22878,6,0,L|148:228,1,45.0000017166138
226,154,23071,2,0,L|216:203,1,45.0000017166138
284,289,23265,2,0,L|301:225,1,45.0000017166138
392,166,23458,2,0,L|379:216,1,45.0000017166138
380,209,23652,6,0,L|327:187,1,45.0000017166138
285,253,23845,2,0,L|241:266,1,45.0000017166138
179,206,24039,2,0,L|139:183,1,45.0000017166138
109,253,24232,2,0,L|55:277,1,45.0000017166138
256,192,24426,12,0,25007,0:0:0:0:
166,51,25200,5,0,0:0:0:0:
210,121,25394,1,0,0:0:0:0:
251,188,25587,1,0,0:0:0:0:
301,254,25781,1,0,0:0:0:0:
364,288,25974,2,0,P|425:235|394:176,1,150
315,118,27329,5,0,0:0:0:0:
281,98,27426,1,0,0:0:0:0:
242,81,27523,1,0,0:0:0:0:
256,32,28297,5,0,0:0:0:0:
336,96,28490,1,0,0:0:0:0:
192,96,28684,1,0,0:0:0:0:
400,192,28878,1,0,0:0:0:0:
128,192,29071,1,0,0:0:0:0:
344,288,29265,1,0,0:0:0:0:
176,280,29458,1,0,0:0:0:0:
256,352,29652,1,0,0:0:0:0:
354,73,30039,5,0,0:0:0:0:
402,146,30232,1,0,0:0:0:0:
355,222,30426,1,0,0:0:0:0:
288,288,30619,2,0,P|175:272|153:247,1,135.000005149841
164,261,31103,1,0,0:0:0:0:
98,57,31394,5,0,0:0:0:0:
160,124,31587,1,0,0:0:0:0:
225,199,31781,1,0,0:0:0:0:
288,253,31974,1,0,0:0:0:0:
361,315,32168,2,0,P|411:269|385:207,1,135
354,160,33523,6,0,P|315:109|273:97,1,90.0000034332277
292,99,33910,1,0,0:0:0:0:
354,160,34103,1,0,0:0:0:0:
354,160,34297,2,0,P|316:110|288:99,1,90.0000034332277
261,176,34781,1,0,0:0:0:0:
369,235,35071,1,0,0:0:0:0:
368,235,35265,2,0,P|316:303|278:313,1,120,0|0,0:0|0:0,0:0:0:0:
140,152,36232,5,0,0:0:0:0:
140,152,36426,2,0,P|153:99|179:89,2,75,0|0|0,0:0|0:0|0:0,0:0:0:0:
376,205,37007,1,0,0:0:0:0:
376,205,37200,2,0,P|350:279|362:304,2,75,0|0|0,0:0|0:0|0:0,0:0:0:0:
187,121,37781,5,0,0:0:0:0:
326,119,37974,1,0,0:0:0:0:
185,246,38168,1,0,0:0:0:0:
333,251,38361,1,0,0:0:0:0:
338,211,38458,1,0,0:0:0:0:
319,174,38555,1,0,0:0:0:0:
291,152,38652,1,0,0:0:0:0:
246,141,38749,1,0,0:0:0:0:
216,149,38845,1,0,0:0:0:0:
191,162,38942,1,0,0:0:0:0:
166,179,39039,1,0,0:0:0:0:
146,199,39136,1,0,0:0:0:0:
146,199,39329,1,0,0:0:0:0:
240,238,39523,5,0,0:0:0:0:
283,220,39619,1,0,0:0:0:0:
311,190,39716,1,0,0:0:0:0:
301,156,39813,1,0,0:0:0:0:
278,119,39910,1,0,0:0:0:0:
246,103,40007,1,0,0:0:0:0:
202,97,40103,1,0,0:0:0:0:
165,104,40200,1,0,0:0:0:0:
156,258,40490,5,0,0:0:0:0:
189,234,40587,1,0,0:0:0:0:
225,209,40684,1,0,0:0:0:0:
333,214,40878,1,0,0:0:0:0:
332,88,41071,5,0,0:0:0:0:
296,73,41168,1,0,0:0:0:0:
264,82,41265,1,0,0:0:0:0:
231,98,41361,1,0,0:0:0:0:
199,118,41458,1,0,0:0:0:0:
268,178,41845,1,0,0:0:0:0:
342,226,42039,1,0,0:0:0:0:
222,145,42426,1,0,0:0:0:0:
303,204,42813,5,0,0:0:0:0:
336,222,42910,1,0,0:0:0:0:
335,251,43007,1,0,0:0:0:0:
307,279,43103,1,0,0:0:0:0:
276,287,43200,1,0,0:0:0:0:
249,287,43297,1,0,0:0:0:0:
218,268,43394,1,0,0:0:0:0:
188,239,43490,1,0,0:0:0:0:
166,209,43587,1,0,0:0:0:0:
286,73,43781,5,0,0:0:0:0:
343,117,43974,1,0,0:0:0:0:
343,117,44071,1,0,0:0:0:0:
343,117,44168,1,0,0:0:0:0:
372,140,44361,1,0,0:0:0:0:
401,161,44555,1,0,0:0:0:0:
335,262,44942,1,0,0:0:0:0:
191,264,45136,1,0,0:0:0:0:
255,62,45523,5,0,0:0:0:0:
392,112,45910,1,0,0:0:0:0:
265,191,46297,1,0,0:0:0:0:
254,61,46490,1,0,0:0:0:0:
392,112,46684,1,0,0:0:0:0:
265,191,46878,1,0,0:0:0:0:
265,191,47168,1,0,0:0:0:0:
392,112,47458,1,0,0:0:0:0:
254,61,47652,1,0,0:0:0:0:
265,191,48232,1,0,0:0:0:0:
310,296,49200,5,0,0:0:0:0:
331,264,49297,1,0,0:0:0:0:
336,232,49394,1,0,0:0:0:0:
341,203,49490,1,0,0:0:0:0:
343,169,49587,1,0,0:0:0:0:
346,135,49684,1,0,0:0:0:0:
346,115,49781,2,0,L|341:66,2,45.0000017166138,0|0|0,0:0|0:0|0:0,0:0:0:0:
209,92,50168,5,8,0:0:0:0:
177,132,50265,1,8,0:0:0:0:
179,180,50361,1,8,0:0:0:0:
236,243,50555,1,8,0:0:0:0:
331,264,50749,1,8,0:0:0:0:
346,229,50845,1,0,0:0:0:0:
337,181,50942,1,0,0:0:0:0:
317,153,51039,1,0,0:0:0:0:
287,124,51136,1,0,0:0:0:0:
259,130,51232,5,0,0:0:0:0:
220,149,51329,1,0,0:0:0:0:
184,173,51426,1,0,0:0:0:0:
159,198,51523,1,10,0:0:0:0:
129,173,51619,1,0,0:0:0:0:
130,136,51716,1,0,0:0:0:0:
151,101,51813,1,0,0:0:0:0:
186,74,51910,1,10,0:0:0:0:
222,83,52007,1,0,0:0:0:0:
259,103,52103,5,0,0:0:0:0:
273,133,52200,1,0,0:0:0:0:
279,165,52297,1,10,0:0:0:0:
279,199,52394,1,0,0:0:0:0:
255,234,52490,1,0,0:0:0:0:
234,255,52587,1,0,0:0:0:0:
201,276,52684,1,10,0:0:0:0:
161,265,52781,1,0,0:0:0:0:
127,239,52878,1,10,0:0:0:0:
171,165,53071,5,0,0:0:0:0:
212,130,53168,1,0,0:0:0:0:
245,104,53265,1,0,0:0:0:0:
339,84,53458,1,0,0:0:0:0:
389,201,53845,5,10,0:0:0:0:
357,218,53942,1,0,0:0:0:0:
322,228,54039,1,0,0:0:0:0:
288,205,54136,1,0,0:0:0:0:
247,190,54232,1,10,0:0:0:0:
213,203,54329,1,0,0:0:0:0:
179,226,54426,1,10,0:0:0:0:
142,203,54523,1,0,0:0:0:0:
139,168,54619,1,0,0:0:0:0:
168,133,54716,5,0,0:0:0:0:
192,109,54813,1,10,0:0:0:0:
234,113,54910,1,0,0:0:0:0:
261,135,55007,1,0,0:0:0:0:
279,158,55103,1,0,0:0:0:0:
295,181,55200,1,10,0:0:0:0:
310,210,55297,1,0,0:0:0:0:
310,249,55394,1,0,0:0:0:0:
297,288,55490,6,0,L|338:310,1,45.0000017166138
183,257,55684,2,0,L|137:240,1,45.0000017166138
269,191,55878,2,0,L|290:152,1,45.0000017166138
266,128,56071,1,0,0:0:0:0:
236,106,56168,1,8,0:0:0:0:
192,109,56265,1,0,0:0:0:0:
159,136,56361,1,0,0:0:0:0:
131,162,56458,1,0,0:0:0:0:
99,145,56555,1,8,0:0:0:0:
110,111,56652,1,0,0:0:0:0:
142,84,56749,1,0,0:0:0:0:
177,83,56845,1,0,0:0:0:0:
202,108,56942,5,8,0:0:0:0:
216,129,57039,1,0,0:0:0:0:
240,158,57136,1,0,0:0:0:0:
256,185,57232,1,0,0:0:0:0:
273,220,57329,1,8,0:0:0:0:
301,247,57426,1,0,0:0:0:0:
339,258,57523,1,8,0:0:0:0:
367,233,57619,6,0,L|406:204,1,45.0000017166138
291,183,57813,2,0,L|326:152,1,45.0000017166138
192,268,58007,2,0,L|136:312,1,45.0000017166138
124,220,58200,2,0,L|64:272,1,45.0000017166138,0|0,0:0|0:0,0:0:0:0:
182,165,58394,5,0,0:0:0:0:
197,126,58490,1,8,0:0:0:0:
237,110,58587,1,0,0:0:0:0:
276,113,58684,1,8,0:0:0:0:
310,126,58781,2,0,L|279:170,2,45.0000017166138,0|0|0,0:0|0:0|0:0,0:0:0:0:
354,144,59071,2,0,L|311:193,1,45.0000017166138
339,200,59265,1,8,0:0:0:0:
351,228,59361,1,0,0:0:0:0:
348,266,59458,1,8,0:0:0:0:
313,287,59555,1,0,0:0:0:0:
280,290,59652,1,0,0:0:0:0:
246,268,59749,1,0,0:0:0:0:
173,193,60039,6,0,L|112:193,2,45.0000017166138,0|0|0,0:0|0:0|0:0,0:0:0:0:
324,193,60426,2,0,L|382:193,2,45.0000017166138,0|0|0,0:0|0:0|0:0,0:0:0:0:
256,72,60813,2,0,L|256:167,1,90.0000034332277
255,338,61200,2,0,L|255:244,1,90.0000034332277
251,35,61587,5,0,0:0:0:0:
441,185,61781,1,0,0:0:0:0:
256,332,61974,1,0,0:0:0:0:
66,194,62168,1,0,0:0:0:0:
315,74,62361,5,0,0:0:0:0:
368,234,62555,1,0,0:0:0:0:
206,291,62749,1,0,0:0:0:0:
147,132,62942,1,0,0:0:0:0:
344,272,63136,5,0,0:0:0:0:
338,104,63330,1,0,0:0:0:0:
176,104,63523,1,0,0:0:0:0:
171,267,63717,1,0,0:0:0:0:
344,272,63910,5,8,0:0:0:0:
338,104,64104,1,8,0:0:0:0:
176,104,64297,1,8,0:0:0:0:
171,267,64491,1,8,0:0:0:0:
254,276,64684,5,0,0:0:0:0:
342,190,64878,1,0,0:0:0:0:
255,96,65071,1,0,0:0:0:0:
170,187,65265,1,0,0:0:0:0:
255,96,65459,1,8,0:0:0:0:
342,190,65652,1,8,0:0:0:0:
170,187,65846,1,8,0:0:0:0:
253,277,66039,1,8,0:0:0:0:
418,58,66232,5,0,0:0:0:0:
82,144,66425,1,0,0:0:0:0:
418,236,66619,1,0,0:0:0:0:
80,326,66812,1,0,0:0:0:0:
418,322,67006,5,8,0:0:0:0:
81,234,67199,1,8,0:0:0:0:
418,146,67393,1,8,0:0:0:0:
81,58,67586,1,8,0:0:0:0:
448,192,67781,5,8,0:0:0:0:
352,56,67974,1,8,0:0:0:0:
193,53,68168,1,8,0:0:0:0:
72,192,68361,1,8,0:0:0:0:
446,190,68555,5,8,0:0:0:0:
345,333,68749,1,8,0:0:0:0:
192,336,68942,1,8,0:0:0:0:
72,192,69136,1,8,0:0:0:0:
432,184,69329,5,0,0:0:0:0:
424,224,69426,1,0,0:0:0:0:
416,256,69523,1,0,0:0:0:0:
392,280,69620,1,0,0:0:0:0:
352,304,69716,1,0,0:0:0:0:
312,312,69813,1,0,0:0:0:0:
272,304,69910,1,0,0:0:0:0:
232,280,70007,1,0,0:0:0:0:
216,248,70104,1,0,0:0:0:0:
248,216,70200,1,0,0:0:0:0:
288,184,70297,1,0,0:0:0:0:
304,144,70394,1,0,0:0:0:0:
250,83,70490,6,0,L|222:118,1,45.0000017166138
163,69,70684,2,0,L|137:107,1,45.0000017166138
75,202,70878,2,0,L|105:166,1,45.0000017166138
232,128,71071,2,0,L|190:197,1,45.0000017166138
240,272,71265,2,0,L|274:222,1,45.0000017166138
392,168,71458,2,0,L|344:232,1,45.0000017166138
408,312,71652,2,0,L|448:264,1,45.0000017166138
392,168,71845,2,0,L|366:206,1,45.0000017166138
257,248,72039,2,0,L|257:294,1,45.0000017166138
256,171,72232,2,0,L|256:124,1,45.0000017166138
172,72,72426,5,0,0:0:0:0:
142,92,72523,1,0,0:0:0:0:
131,128,72619,1,0,0:0:0:0:
144,159,72716,1,0,0:0:0:0:
171,191,72813,5,0,0:0:0:0:
213,177,72910,1,0,0:0:0:0:
239,149,73007,1,0,0:0:0:0:
236,109,73103,1,0,0:0:0:0:
271,94,73200,6,0,L|313:73,3,45.0000017166138,0|0|0|0,0:0|0:0|0:0|0:0,0:0:0:0:
335,86,73587,1,0,0:0:0:0:
356,123,73684,1,0,0:0:0:0:
350,162,73781,1,0,0:0:0:0:
322,190,73878,1,0,0:0:0:0:
284,210,73974,1,0,0:0:0:0:
250,218,74071,1,0,0:0:0:0:
256,192,74168,12,0,76103,0:0:0:0:
424,56,76297,5,0,0:0:0:0:
336,128,76490,1,0,0:0:0:0:
256,192,76684,1,0,0:0:0:0:
160,264,76878,1,0,0:0:0:0:
160,264,77071,2,0,P|152:320|232:320,1,150,0|0,0:0|0:0,0:0:0:0:
304,280,78232,5,0,0:0:0:0:
448,248,78426,1,0,0:0:0:0:
336,176,78619,2,0,P|304:152|272:144,1,60
208,80,79200,1,0,0:0:0:0:
152,176,79394,1,0,0:0:0:0:
280,248,79781,1,0,0:0:0:0:
416,288,80168,2,0,L|384:224,1,60
344,128,80749,1,0,0:0:0:0:
224,72,80942,1,0,0:0:0:0:
112,152,81329,1,0,0:0:0:0:
208,224,81716,2,0,P|296:240|328:272,1,135
160,224,82878,5,0,0:0:0:0:
272,224,83071,2,0,P|336:208|392:216,1,90.0000034332277
272,224,84619,2,0,P|336:208|384:216,1,90.0000034332277
272,224,85394,2,0,P|320:208|376:216,1,90.0000034332277
400,152,85878,1,0,0:0:0:0:
296,88,86168,1,0,0:0:0:0:
144,136,86361,2,0,P|80:176|168:336,1,300
328,288,88684,5,2,0:0:0:0:
440,192,88878,1,2,0:0:0:0:
328,288,89071,1,2,0:0:0:0:
440,192,89265,2,2,P|384:160|384:112,1,90.0000034332277,0|0,0:0|0:0,0:0:0:0:
360,120,89555,5,0,0:0:0:0:
320,104,89652,1,0,0:0:0:0:
272,96,89749,1,0,0:0:0:0:
248,128,89845,1,2,0:0:0:0:
224,160,89942,1,0,0:0:0:0:
208,192,90039,1,2,0:0:0:0:
168,208,90136,1,0,0:0:0:0:
120,200,90232,1,0,0:0:0:0:
112,160,90329,1,0,0:0:0:0:
136,136,90426,5,2,0:0:0:0:
168,104,90523,1,0,0:0:0:0:
192,88,90619,1,0,0:0:0:0:
232,112,90716,1,0,0:0:0:0:
256,144,90813,1,2,0:0:0:0:
272,176,90910,1,0,0:0:0:0:
264,208,91007,1,0,0:0:0:0:
328,272,91587,5,2,0:0:0:0:
328,272,91684,1,2,0:0:0:0:
328,272,91781,1,2,0:0:0:0:
352,112,91974,1,2,0:0:0:0:
256,88,92168,1,2,0:0:0:0:
168,128,92361,1,2,0:0:0:0:
168,240,92555,5,2,0:0:0:0:
208,272,92652,1,0,0:0:0:0:
256,288,92749,1,0,0:0:0:0:
288,320,92845,1,0,0:0:0:0:
336,312,92942,1,2,0:0:0:0:
376,288,93039,1,0,0:0:0:0:
376,248,93136,1,2,0:0:0:0:
360,216,93232,1,0,0:0:0:0:
336,192,93329,1,0,0:0:0:0:
304,168,93426,5,0,0:0:0:0:
280,144,93523,1,2,0:0:0:0:
256,128,93619,1,0,0:0:0:0:
224,112,93716,1,0,0:0:0:0:
184,112,93813,1,0,0:0:0:0:
152,128,93910,1,2,0:0:0:0:
384,96,94878,5,2,0:0:0:0:
368,200,95071,1,2,0:0:0:0:
328,232,95168,1,2,0:0:0:0:
280,264,95265,1,2,0:0:0:0:
160,224,95458,1,2,0:0:0:0:
192,112,95652,5,2,0:0:0:0:
240,104,95749,1,0,0:0:0:0:
280,112,95846,1,0,0:0:0:0:
304,136,95943,1,0,0:0:0:0:
304,168,96039,1,2,0:0:0:0:
304,216,96136,1,0,0:0:0:0:
272,240,96233,1,2,0:0:0:0:
288,272,96330,1,0,0:0:0:0:
320,304,96426,1,0,0:0:0:0:
360,328,96523,5,0,0:0:0:0:
408,328,96620,1,2,0:0:0:0:
440,296,96717,1,0,0:0:0:0:
448,256,96814,1,0,0:0:0:0:
448,224,96910,1,0,0:0:0:0:
440,176,97007,1,2,0:0:0:0:
416,144,97103,1,0,0:0:0:0:
392,120,97200,1,0,0:0:0:0:
360,104,97297,1,0,0:0:0:0:
320,88,97394,5,2,0:0:0:0:
272,104,97490,1,0,0:0:0:0:
232,128,97587,1,2,0:0:0:0:
192,144,97684,1,0,0:0:0:0:
152,168,97781,1,2,0:0:0:0:
120,200,97878,1,0,0:0:0:0:
80,184,97974,1,2,0:0:0:0:
80,136,98071,1,0,0:0:0:0:
104,96,98168,1,0,0:0:0:0:
144,72,98265,5,2,0:0:0:0:
184,56,98361,1,0,0:0:0:0:
240,40,98458,1,0,0:0:0:0:
288,56,98555,1,2,0:0:0:0:
320,80,98652,1,0,0:0:0:0:
336,120,98749,1,2,0:0:0:0:
344,144,98845,1,0,0:0:0:0:
336,184,98942,1,0,0:0:0:0:
320,216,99039,1,0,0:0:0:0:
304,248,99136,5,2,0:0:0:0:
272,264,99233,1,0,0:0:0:0:
216,280,99329,1,2,0:0:0:0:
168,280,99427,1,0,0:0:0:0:
128,272,99523,1,0,0:0:0:0:
120,224,99619,1,0,0:0:0:0:
144,192,99716,1,2,0:0:0:0:
168,168,99813,1,0,0:0:0:0:
208,144,99910,1,0,0:0:0:0:
336,176,100103,5,2,0:0:0:0:
328,304,100297,1,0,0:0:0:0:
288,304,100394,1,0,0:0:0:0:
248,296,100490,1,0,0:0:0:0:
216,280,100587,1,0,0:0:0:0:
184,256,100684,2,0,L|144:208,4,45.0000017166138,0|0|0|0|0,0:0|0:0|0:0|0:0|0:0,0:0:0:0:
408,168,101265,5,0,0:0:0:0:
384,136,101361,1,0,0:0:0:0:
360,104,101458,1,0,0:0:0:0:
224,80,101652,1,0,0:0:0:0:
72,288,101845,5,0,0:0:0:0:
192,88,102039,1,0,0:0:0:0:
304,280,102232,1,0,0:0:0:0:
456,96,102426,1,0,0:0:0:0:
456,280,102619,5,0,0:0:0:0:
304,88,102813,1,0,0:0:0:0:
192,288,103007,1,0,0:0:0:0:
72,88,103200,1,0,0:0:0:0:
152,264,103394,5,0,0:0:0:0:
368,104,103588,1,0,0:0:0:0:
88,192,103781,1,0,0:0:0:0:
424,192,103975,1,0,0:0:0:0:
144,96,104168,5,0,0:0:0:0:
368,264,104362,1,0,0:0:0:0:
256,48,104556,1,0,0:0:0:0:
256,304,104749,1,0,0:0:0:0:
352,104,104942,6,0,L|440:72,1,90.0000034332277
160,264,105329,2,0,L|56:304,1,90.0000034332277
368,144,105716,6,0,L|472:112,1,90.0000034332277
152,224,106103,2,0,L|56:208,1,90.0000034332277
360,304,106490,6,0,L|456:328,1,90.0000034332277
120,88,106878,2,0,L|24:64,1,90.0000034332277
360,264,107265,6,0,L|448:328,1,90.0000034332277
120,136,107652,2,0,L|40:80,1,90.0000034332277
320,80,108039,5,0,0:0:0:0:
360,104,108136,1,0,0:0:0:0:
376,144,108232,1,0,0:0:0:0:
344,184,108329,1,0,0:0:0:0:
304,208,108426,1,0,0:0:0:0:
256,224,108523,1,0,0:0:0:0:
208,216,108619,1,0,0:0:0:0:
184,184,108716,1,0,0:0:0:0:
152,152,108813,1,0,0:0:0:0:
104,160,108910,5,0,0:0:0:0:
96,216,109007,1,0,0:0:0:0:
112,264,109103,1,0,0:0:0:0:
136,296,109200,1,0,0:0:0:0:
168,320,109297,1,0,0:0:0:0:
208,336,109394,1,0,0:0:0:0:
456,48,109587,5,0,0:0:0:0:
56,336,109781,1,0,0:0:0:0:
56,336,110361,1,0,0:0:0:0:
456,48,110555,1,0,0:0:0:0:
256,56,111136,5,0,0:0:0:0:
456,192,111329,1,0,0:0:0:0:
256,336,111523,1,0,0:0:0:0:
64,192,111716,1,0,0:0:0:0:
192,232,111910,6,0,L|144:216,1,45.0000017166138
312,152,112103,2,0,L|368:136,1,45.0000017166138
208,160,112297,2,0,L|160:144,1,45.0000017166138
320,232,112490,2,0,L|376:216,1,45.0000017166138
256,80,112684,2,0,L|256:152,1,60
192,320,113458,5,0,0:0:0:0:
304,64,113652,1,0,0:0:0:0:
240,320,113845,1,0,0:0:0:0:
352,64,114039,1,0,0:0:0:0:
368,64,114232,1,0,0:0:0:0:
384,64,114523,1,0,0:0:0:0:
400,64,114813,1,0,0:0:0:0:
384,192,115007,5,0,0:0:0:0:
344,224,115103,1,0,0:0:0:0:
280,232,115200,2,0,L|232:232,2,45,0|0|0,0:0|0:0|0:0,0:0:0:0:
264,200,115781,5,0,0:0:0:0:
248,176,116071,1,0,0:0:0:0:
224,144,116361,1,0,0:0:0:0:
200,120,116555,2,0,P|168:88|96:96,1,120
112,136,117426,5,0,0:0:0:0:
120,176,117523,1,0,0:0:0:0:
128,216,117619,1,0,0:0:0:0:
152,248,117716,1,0,0:0:0:0:
184,280,117813,1,0,0:0:0:0:
224,288,117910,1,0,0:0:0:0:
344,288,118103,5,0,0:0:0:0:
400,272,118200,1,0,0:0:0:0:
432,240,118297,1,0,0:0:0:0:
456,208,118394,1,0,0:0:0:0:
464,168,118490,1,0,0:0:0:0:
456,136,118587,1,0,0:0:0:0:
448,96,118684,1,0,0:0:0:0:
320,88,118878,5,0,0:0:0:0:
272,88,118974,1,0,0:0:0:0:
232,96,119071,1,0,0:0:0:0:
192,120,119168,1,0,0:0:0:0:
192,152,119265,1,0,0:0:0:0:
232,160,119362,1,0,0:0:0:0:
272,160,119459,1,0,0:0:0:0:
320,160,119556,1,0,0:0:0:0:
336,200,119653,5,0,0:0:0:0:
288,208,119749,1,0,0:0:0:0:
240,216,119845,1,0,0:0:0:0:
192,216,119942,1,0,0:0:0:0:
184,256,120039,1,0,0:0:0:0:
232,272,120136,1,0,0:0:0:0:
280,272,120232,1,0,0:0:0:0:
328,272,120329,1,0,0:0:0:0:
432,264,120426,6,0,L|408:208,1,45.0000017166138
328,312,120619,2,0,L|296:352,1,45.0000017166138
224,264,120813,2,0,L|208:216,1,45.0000017166138
128,312,121007,2,0,L|80:336,1,45.0000017166138
128,192,121200,6,0,L|88:152,1,45.0000017166138
168,48,121394,2,0,L|120:72,1,45.0000017166138
256,120,121587,2,0,L|256:168,1,45.0000017166138
352,88,121781,2,0,L|400:64,1,45.0000017166138
368,176,121974,2,0,L|408:200,1,45.0000017166138
320,272,122168,6,0,L|280:296,1,45.0000017166138,0|0,0:0|0:0,0:0:0:0:
400,232,122361,2,0,L|448:208,1,45.0000017166138
272,200,122555,2,0,L|224:224,1,45.0000017166138
352,168,122749,2,0,L|408:136,1,45.0000017166138
240,120,122942,2,0,L|200:144,1,45.0000017166138
328,88,123136,2,0,L|368:64,1,45.0000017166138
112,296,123523,6,0,L|72:336,1,45.0000017166138
112,192,123716,2,0,L|72:152,1,45.0000017166138
208,192,123910,2,0,L|240:160,1,45.0000017166138
208,296,124103,2,0,L|240:328,1,45.0000017166138
296,168,124297,6,0,L|336:144,1,45.0000017166138
296,40,124490,2,0,L|344:80,1,45.0000017166138
472,40,124684,2,0,L|432:80,1,45.0000017166138
472,176,124878,2,0,L|424:136,1,45.0000017166138
256,192,125071,12,0,127587,0:0:0:0:
336,224,128168,5,0,0:0:0:0:
368,256,128265,1,0,0:0:0:0:
400,280,128362,1,0,0:0:0:0:
184,224,128556,1,0,0:0:0:0:
160,256,128652,1,0,0:0:0:0:
136,288,128749,1,0,0:0:0:0:
256,304,128942,5,0,0:0:0:0:
256,80,129136,1,0,0:0:0:0:
256,304,129329,1,0,0:0:0:0:
256,80,129523,1,0,0:0:0:0:
256,192,129716,5,0,0:0:0:0:
