osu file format v13

[General]
AudioFilename: Holy Knight.mp3
AudioLeadIn: 0
PreviewTime: 49200
Countdown: 0
SampleSet: None
StackLeniency: 0.7
Mode: 0
LetterboxInBreaks: 1
WidescreenStoryboard: 1

[Editor]
DistanceSpacing: 0.5
BeatDivisor: 4
GridSize: 8
TimelineZoom: 3.099999

[Metadata]
Title:Holy Knight
TitleUnicode:Holy Knight
Artist:eyemedia
ArtistUnicode:eyemedia
Creator:Vore
Version:Grace
Source:Cytus
Tags:chapter 5 v vanessa
BeatmapID:494789
BeatmapSetID:204081

[Difficulty]
HPDrainRate:5
CircleSize:4
OverallDifficulty:6
ApproachRate:9
SliderMultiplier:1.2
SliderTickRate:2

[Events]
//Background and Video events
0,0,"BG.jpg",0,0
//Break Periods
2,40303,48600
//Storyboard Layer 0 (Background)
//Storyboard Layer 1 (Fail)
//Storyboard Layer 2 (Pass)
//Storyboard Layer 3 (Foreground)
//Storyboard Sound Samples
//Background Colour Transformations
3,100,163,162,255

[TimingPoints]
620,387.096774193548,4,2,0,75,1,0
620,-66.6666666666667,4,2,0,75,0,0
1200,-133.333333333333,4,2,0,75,0,0
1974,-66.6666666666667,4,2,0,75,0,0
3329,-133.333333333333,4,2,0,75,0,0
4297,-66.6666666666667,4,2,0,75,0,0
5652,-133.333333333333,4,2,0,75,0,0
7974,-66.6666666666667,4,2,0,75,0,0
8942,-57.1428571428571,4,2,0,75,0,0
28684,-100,4,2,0,75,0,0
31394,-57.1428571428571,4,2,0,75,0,0
49200,-57.1428571428571,4,1,0,65,0,0

[HitObjects]
120,240,620,6,0,L|184:200,1,45.0000017166138
264,176,813,1,0,0:0:0:0:
384,64,1007,1,0,0:0:0:0:
360,312,1200,2,0,L|352:216,1,90.0000034332277,0|0,0:0|0:0,0:0:0:0:
128,240,1974,6,0,L|312:128,1,180.000006866455
256,240,2749,1,0,0:0:0:0:
400,144,3136,1,0,0:0:0:0:
400,272,3329,2,0,L|264:328,1,135.000005149841
160,240,4297,6,0,P|120:168|168:80,1,180.000006866455
280,40,4878,1,0,0:0:0:0:
360,144,5265,1,0,0:0:0:0:
336,312,5652,2,0,L|168:216,1,180.000006866455
256,64,6619,5,0,0:0:0:0:
328,208,7007,1,0,0:0:0:0:
192,304,7394,1,0,0:0:0:0:
112,88,7781,1,0,0:0:0:0:
112,88,7974,2,0,L|176:160,1,90.0000034332277
171,155,8361,1,0,0:0:0:0:
360,312,8942,6,0,P|408:272|408:224,1,105.000001001358
112,48,9716,2,0,P|88:72|88:152,1,105.000001001358
352,112,10490,6,0,L|448:56,1,105.000001001358
104,264,10878,2,0,L|8:320,1,105.000001001358
352,264,11265,2,0,L|448:328,1,105.000001001358
120,112,11652,2,0,L|32:56,1,105.000001001358
256,152,12039,1,0,0:0:0:0:
288,192,12232,1,0,0:0:0:0:
256,216,12426,1,0,0:0:0:0:
224,192,12619,1,0,0:0:0:0:
376,328,12813,6,0,P|432:328|472:296,1,105.000001001358
144,64,13200,2,0,P|80:56|48:88,1,105.000001001358
256,192,13587,2,0,L|256:80,1,105.000001001358
256,192,13974,2,0,L|256:312,1,105.000001001358
360,192,14361,6,0,L|240:192,1,105.000001001358
152,192,14749,2,0,L|280:192,1,105.000001001358
192,72,15136,5,0,0:0:0:0:
344,72,15329,1,0,0:0:0:0:
112,128,15523,1,0,0:0:0:0:
400,136,15716,1,0,0:0:0:0:
216,224,15910,5,0,0:0:0:0:
320,304,16103,1,0,0:0:0:0:
88,224,16297,1,0,0:0:0:0:
440,336,16490,1,0,0:0:0:0:
344,88,16684,6,0,P|408:72|448:104,1,105.000001001358
136,96,17071,2,0,P|72:64|32:96,1,105.000001001358
344,312,17458,2,0,P|424:328|464:296,1,105.000001001358
128,312,17845,2,0,P|64:336|16:320,1,105.000001001358
208,112,18232,6,0,P|264:96|320:136,1,105.000001001358
312,216,18619,2,0,P|248:232|192:184,1,105.000001001358
304,120,19007,2,0,P|328:208|304:240,1,105.000001001358
216,216,19394,2,0,P|184:176|224:112,1,105.000001001358
48,56,19781,5,0,0:0:0:0:
88,80,19878,1,0,0:0:0:0:
112,120,19974,1,0,0:0:0:0:
128,160,20071,2,0,L|160:232,3,52.500000500679,0|0|0|0,0:0|0:0|0:0|0:0,0:0:0:0:
168,240,20458,2,0,L|216:272,3,52.500000500679,0|0|0|0,0:0|0:0|0:0|0:0,0:0:0:0:
248,280,20845,1,0,0:0:0:0:
296,264,20942,1,0,0:0:0:0:
336,240,21039,1,0,0:0:0:0:
368,208,21136,1,0,0:0:0:0:
360,168,21232,1,0,0:0:0:0:
344,128,21329,6,0,L|256:72,1,105.000001001358
344,264,21716,2,0,L|448:328,1,105.000001001358
112,224,22103,2,0,L|144:120,1,105.000001001358
400,88,22490,2,0,L|312:160,1,105.000001001358
144,224,22878,6,0,L|144:280,1,52.500000500679
216,224,23071,2,0,L|216:304,1,52.500000500679
296,224,23265,2,0,L|296:288,1,52.500000500679
368,224,23458,2,0,L|368:280,1,52.500000500679
368,152,23652,6,0,L|368:88,1,52.500000500679
296,152,23845,2,0,L|296:96,1,52.500000500679
216,152,24039,2,0,L|216:96,1,52.500000500679
144,152,24232,2,0,L|144:96,1,52.500000500679
256,192,24426,1,0,0:0:0:0:
256,192,24523,12,0,25007,0:0:0:0:
344,320,25200,6,0,P|400:320|424:280,1,105.000001001358
128,72,25587,2,0,P|72:80|56:120,1,105.000001001358
256,192,25974,1,0,0:0:0:0:
344,120,26168,1,0,0:0:0:0:
392,216,26361,1,0,0:0:0:0:
136,120,26942,1,0,0:0:0:0:
80,208,27136,1,0,0:0:0:0:
216,304,27329,1,0,0:0:0:0:
248,304,27426,1,0,0:0:0:0:
272,304,27523,1,0,0:0:0:0:
296,304,27716,5,0,0:0:0:0:
312,304,27910,1,0,0:0:0:0:
120,88,28297,1,0,0:0:0:0:
360,80,28490,1,0,0:0:0:0:
288,144,28684,2,0,L|224:120,1,60
288,144,29071,2,0,L|344:168,1,60
160,240,29458,1,0,0:0:0:0:
248,288,29652,1,0,0:0:0:0:
80,96,30039,6,0,L|144:128,1,60
232,120,30426,1,0,0:0:0:0:
312,184,30619,1,0,0:0:0:0:
232,256,30910,1,0,0:0:0:0:
304,312,31200,1,0,0:0:0:0:
72,128,31394,2,0,P|120:80|160:88,1,105.000001001358
432,280,31781,2,0,P|408:328|352:336,1,105.000001001358
256,192,32168,1,0,0:0:0:0:
256,72,32361,1,0,0:0:0:0:
256,320,32555,1,0,0:0:0:0:
432,192,33136,5,0,0:0:0:0:
96,192,33329,1,0,0:0:0:0:
256,192,33523,1,0,0:0:0:0:
256,192,33716,1,0,0:0:0:0:
320,136,33910,1,0,0:0:0:0:
384,80,34103,1,0,0:0:0:0:
120,88,34297,1,0,0:0:0:0:
384,304,34490,1,0,0:0:0:0:
256,192,34781,1,0,0:0:0:0:
384,88,35071,1,0,0:0:0:0:
112,288,35265,1,0,0:0:0:0:
144,120,36232,5,0,0:0:0:0:
208,192,36426,1,0,0:0:0:0:
272,272,36619,2,0,P|336:256|344:224,1,105.000001001358
320,136,37103,1,0,0:0:0:0:
168,264,37394,1,0,0:0:0:0:
192,104,37587,1,0,0:0:0:0:
328,88,37781,1,0,0:0:0:0:
192,288,37974,1,0,0:0:0:0:
328,264,38168,1,0,0:0:0:0:
64,168,38361,6,0,P|104:128|160:104,1,105.000001001358
424,184,38942,2,0,P|400:248|368:272,1,105.000001001358
372,269,39329,1,0,0:0:0:0:
184,144,39716,2,0,P|248:96|304:96,1,105.000001001358
352,104,40103,1,0,0:0:0:0:
312,280,49200,6,0,L|368:248,1,52.500000500679
232,272,49394,2,0,L|184:296,1,52.500000500679
248,200,49587,2,0,L|296:168,1,52.500000500679
184,168,49781,2,0,L|136:200,1,52.500000500679
128,64,49974,1,0,0:0:0:0:
256,192,50168,2,0,L|256:128,2,52.500000500679,0|0|0,0:0|0:0|0:0,0:0:0:0:
