osu file format v13

[General]
AudioFilename: Mirai e no Tobira (OVA EDIT).mp3
AudioLeadIn: 1000
PreviewTime: 52017
Countdown: 0
SampleSet: Soft
StackLeniency: 0.7
Mode: 0
LetterboxInBreaks: 0
WidescreenStoryboard: 0

[Editor]
DistanceSpacing: 1.5
BeatDivisor: 4
GridSize: 4
TimelineZoom: 2

[Metadata]
Title:Mirai e no Tobira (OVA EDIT)
TitleUnicode:未来への扉(OVA EDIT)
Artist:eyelis
ArtistUnicode:eyelis
Creator:Kawaiwkyik
Version:Insane
Source:Kami nomi zo Shiru Sekai: Tenri-hen
Tags:神のみぞ知るセカイ 天理篇 The World God Only Knows twgok Moecho iMage-- yf_bmp IamKwaN
BeatmapID:530589
BeatmapSetID:227734

[Difficulty]
HPDrainRate:7
CircleSize:4
OverallDifficulty:7
ApproachRate:9
SliderMultiplier:1.4
SliderTickRate:1

[Events]
//Background and Video events
0,0,"bg.jpg",0,0
//Break Periods
//Storyboard Layer 0 (Background)
//Storyboard Layer 1 (Fail)
//Storyboard Layer 2 (Pass)
//Storyboard Layer 3 (Foreground)
//Storyboard Sound Samples

[TimingPoints]
1000,359.281437125748,4,2,2,20,1,0
1000,-133.333333333333,4,2,2,20,0,0
14652,-100,4,2,1,60,0,0
25251,-200,4,2,1,60,0,0
26868,-100,4,2,1,40,0,0
37646,-100,4,2,1,50,0,0
38365,-100,4,2,1,60,0,0
48964,-100,4,2,1,40,0,0
49323,-100,4,2,1,50,0,0
49502,-100,4,2,1,60,0,0
49862,-200,4,2,1,60,0,0
51299,-149.253731343284,4,2,1,20,0,0
52017,-149.253731343284,4,2,1,60,0,0
52556,-100,4,2,1,60,0,1
63964,-100,4,2,1,60,0,0
64053,-100,4,2,1,60,0,1
86598,-100,4,2,2,60,0,1
86868,-100,4,2,1,60,0,1
86958,-100,4,2,2,60,0,1
87227,-100,4,2,1,60,0,1
92976,-100,4,2,1,50,0,1
94413,-100,4,2,1,40,0,1
95850,-100,4,2,1,30,0,1
97287,-100,4,2,1,5,0,0

[Colours]
Combo1 : 0,64,128
Combo2 : 0,128,255
Combo3 : 255,128,192
Combo4 : 255,0,128

[HitObjects]
68,68,1000,6,0,P|64:108|64:144,1,52.5000020027161,2|0,0:0|0:0,0:0:0:0:
160,136,1359,2,0,P|157:110|156:84,1,52.5000020027161,0|2,0:0|0:0,0:0:0:0:
244,80,1718,2,0,P|253:118|266:152,1,52.5000020027161
354,111,2077,2,0,P|342:88|332:63,1,52.5000020027161,2|0,0:0|0:0,0:0:0:0:
340,200,2437,6,0,P|384:200|432:148,1,105.000004005432,2|0,0:0|0:0,0:0:0:0:
427,160,2976,1,2,0:0:0:0:
280,276,3155,2,0,L|224:272,1,52.5000020027161,0|2,0:0|0:0,0:0:0:0:
372,292,3514,2,0,L|428:296,1,52.5000020027161,2|0,0:0|0:0,0:0:0:0:
152,312,3874,6,0,P|140:272|172:208,2,105.000004005432,0|0|2,0:0|0:0|0:0,0:0:0:0:
228,348,4772,1,0,0:0:0:0:
300,256,4952,1,0,0:0:0:0:
340,364,5131,1,0,0:0:0:0:
412,248,5311,6,0,P|416:208|420:180,1,52.5000020027161,2|0,0:0|0:0,0:0:0:0:
336,160,5670,2,0,P|346:121|355:94,1,52.5000020027161,0|2,0:0|0:0,0:0:0:0:
224,36,6029,1,2,0:0:0:0:
144,36,6209,1,2,0:0:0:0:
104,104,6389,1,2,0:0:0:0:
144,172,6568,1,2,0:0:0:0:
234,268,6748,6,0,P|242:212|210:156,2,105.000004005432,0|0|0,0:0|0:0|0:0,0:0:0:0:
176,324,7646,1,2,0:0:0:0:
116,272,7826,2,0,L|48:260,1,52.5000020027161,0|2,0:0|0:0,0:0:0:0:
248,356,8185,6,0,P|280:364|360:336,1,105.000004005432
348,345,8724,1,0,0:0:0:0:
248,272,8904,2,0,P|225:248|209:165,1,105.000004005432,2|0,0:0|0:0,0:0:0:0:
206,180,9443,1,0,0:0:0:0:
324,64,9622,6,0,L|316:124,1,52.5000020027161,2|0,0:0|0:0,0:0:0:0:
300,192,9982,1,0,0:0:0:0:
404,24,10161,2,0,P|412:76|428:140,1,105.000004005432,2|0,0:0|0:0,0:0:0:0:
496,56,10700,1,0,0:0:0:0:
220,80,10880,6,0,P|272:75|324:64,1,105.000004005432,2|0,0:0|0:0,0:0:0:0:
300,192,11419,2,0,P|256:184|232:180,1,52.5000020027161,0|2,0:0|0:0,0:0:0:0:
152,104,11778,2,0,P|177:99|203:94,1,52.5000020027161,0|2,0:0|0:0,0:0:0:0:
136,216,12137,2,0,P|140:241|145:267,1,52.5000020027161,0|2,0:0|0:0,0:0:0:0:
200,324,12497,5,2,0:0:0:0:
264,280,12676,2,0,P|276:320|272:352,1,52.5000020027161
52,212,13035,1,2,0:0:0:0:
44,200,13395,1,2,0:0:0:0:
200,164,13574,1,2,0:0:0:0:
64,120,13754,1,2,0:0:0:0:
64,120,14113,6,0,B|88:128|88:128|108:112|108:112|136:128|185:133|224:120,1,157.500006008148,6|8,0:3|0:0,0:0:0:0:
211,123,14832,1,8,0:0:0:0:
211,123,15371,6,0,P|276:124|360:96,1,140,4|8,0:0|0:0,0:0:0:0:
424,184,15910,1,0,0:0:0:0:
316,276,16089,2,0,P|324:216|328:188,1,70,2|2,0:0|0:0,0:0:0:0:
512,156,16449,2,0,P|504:216|500:244,1,70,8|0,0:0|0:0,0:0:0:0:
408,344,16808,6,0,P|360:328|272:312,1,140,2|8,0:0|0:0,0:0:0:0:
172,260,17347,1,0,0:0:0:0:
360,180,17526,1,2,0:0:0:0:
272,328,17706,2,0,L|260:260,1,70,2|8,0:0|0:0,0:0:0:0:
240,152,18065,1,0,0:0:0:0:
180,376,18245,6,0,P|164:320|128:240,1,140,6|8,0:0|0:0,0:0:0:0:
56,172,18784,1,0,0:0:0:0:
48,312,18964,1,2,0:0:0:0:
224,240,19143,1,2,0:0:0:0:
272,352,19323,2,0,L|344:332,1,70,8|0,0:0|0:0,0:0:0:0:
476,352,19682,6,0,L|488:292|508:200,1,140,2|8,0:0|0:0,0:0:0:0:
404,104,20221,1,0,0:0:0:0:
360,180,20401,2,0,L|372:264,1,70,2|2,0:0|0:0,0:0:0:0:
504,214,20760,1,8,0:0:0:0:
384,328,20940,1,0,0:0:0:0:
272,168,21119,6,0,P|280:104|300:20,1,140,4|8,0:0|0:0,0:0:0:0:
304,252,21658,1,0,0:0:0:0:
172,192,21838,2,0,P|132:188|84:184,1,70,2|2,0:0|0:0,0:0:0:0:
360,180,22197,2,0,P|400:184|448:188,1,70,8|0,0:0|0:0,0:0:0:0:
248,312,22556,6,0,P|224:272|256:184,1,140,2|8,0:0|0:0,0:0:0:0:
392,264,23095,1,0,0:0:0:0:
348,380,23275,1,2,0:0:0:0:
276,288,23455,1,2,0:0:0:0:
464,344,23634,2,0,P|416:324|384:304,1,70,8|0,0:0|0:0,0:0:0:0:
111,336,23994,6,0,P|181:332|248:312,1,140,6|8,0:0|0:0,0:0:0:0:
208,160,24532,2,0,P|200:204|204:256,1,70,2|0,0:0|0:0,0:0:0:0:
292,68,24892,2,0,P|307:110|336:153,1,70,2|8,0:0|0:0,0:0:0:0:
512,284,25251,6,0,P|512:240|356:236,1,245,4|8,0:0|0:0,0:0:0:0:
352,252,26868,6,0,P|364:204|372:160,1,70,2|0,0:0|0:0,0:0:0:0:
272,192,27227,2,0,P|258:144|243:102,1,70,2|0,0:0|0:0,0:0:0:0:
168,176,27586,1,2,0:0:0:0:
76,212,27766,1,0,0:0:0:0:
20,292,27946,2,0,P|20:336|32:380,1,70,2|0,0:0|0:0,0:0:0:0:
76,212,28305,6,0,P|84:160|60:76,1,140,2|2,0:0|0:0,0:0:0:0:
116,300,28844,1,0,0:0:0:0:
208,336,29023,2,0,P|252:320|296:312,1,70,2|0,0:0|0:0,0:0:0:0:
384,300,29383,2,0,P|375:346|360:388,1,70,2|0,0:0|0:0,0:0:0:0:
320,212,29742,6,0,P|316:144|368:92,1,140,2|2,0:0|0:0,0:0:0:0:
362,94,30281,1,0,0:0:0:0:
461,181,30461,2,0,L|392:172,1,70,2|0,0:0|0:0,0:0:0:0:
304,240,30820,2,0,L|234:249,1,70,2|0,0:0|0:0,0:0:0:0:
172,324,31179,6,0,P|104:344|24:300,1,140,2|2,0:0|0:0,0:0:0:0:
42,319,31718,1,0,0:0:0:0:
252,352,31898,1,2,0:0:0:0:
332,332,32077,1,0,0:0:0:0:
396,276,32257,1,2,0:0:0:0:
420,196,32437,1,0,0:0:0:0:
420,196,32616,6,0,L|412:108,1,70,2|0,0:0|0:0,0:0:0:0:
252,212,32976,2,0,L|340:204,1,70,2|0,0:0|0:0,0:0:0:0:
404,40,33335,2,0,L|316:48,1,70,2|0,0:0|0:0,0:0:0:0:
240,48,33694,2,0,L|246:117,1,70,2|0,0:0|0:0,0:0:0:0:
168,172,34053,6,0,P|108:180|32:204,2,140,2|2|2,0:0|0:0|0:0,0:0:0:0:
224,236,34952,1,0,0:0:0:0:
296,196,35131,2,0,P|304:252|292:292,1,70,2|0,0:0|0:0,0:0:0:0:
248,120,35491,5,2,0:3:0:0:
248,120,35850,1,2,0:3:0:0:
248,120,36209,2,0,L|256:48,1,70,2|0,0:3|0:0,0:0:0:0:
296,196,36568,2,0,P|316:160|336:132,1,70,2|0,0:3|0:0,0:0:0:0:
436,232,36928,5,2,0:3:0:0:
412,312,37107,1,0,0:0:0:0:
356,252,37287,1,2,0:3:0:0:
332,332,37467,1,0,0:0:0:0:
296,196,37646,1,8,0:0:0:0:
144,296,37826,1,8,0:0:0:0:
144,296,38365,6,0,P|96:308|28:252,1,140,4|8,0:0|0:0,0:0:0:0:
208,216,38904,1,0,0:0:0:0:
232,344,39083,2,0,L|308:336,1,70,2|2,0:0|0:0,0:0:0:0:
404,364,39443,2,0,P|408:320|396:284,1,70,8|0,0:0|0:0,0:0:0:0:
432,92,39802,6,0,P|400:156|360:216,1,140,2|8,0:0|0:0,0:0:0:0:
328,120,40341,1,0,0:0:0:0:
452,240,40520,1,2,0:0:0:0:
296,264,40700,1,2,0:0:0:0:
404,364,40880,2,0,P|468:352|500:348,1,70,8|0,0:0|0:0,0:0:0:0:
328,120,41239,6,0,P|316:196|296:280,1,140,2|8,0:0|0:0,0:0:0:0:
452,240,41778,1,0,0:0:0:0:
328,120,41958,1,2,0:0:0:0:
296,344,42137,2,0,P|308:300|320:252,1,70,2|8,0:0|0:0,0:0:0:0:
232,184,42497,1,0,0:0:0:0:
172,348,42676,6,0,P|124:336|32:320,1,140,2|8,0:0|0:0,0:0:0:0:
236,272,43215,2,0,L|312:260,1,70,0|2,0:0|0:0,0:0:0:0:
136,184,43574,1,2,0:0:0:0:
172,348,43754,1,8,0:0:0:0:
336,252,43934,1,0,0:0:0:0:
96,276,44113,5,6,0:0:0:0:
216,96,44473,2,0,L|208:172,2,70,0|0|8,0:0|0:0|0:0,0:0:0:0:
336,252,45191,1,0,0:0:0:0:
408,220,45371,1,2,0:0:0:0:
468,268,45550,5,4,0:0:0:0:
256,336,45910,2,0,L|180:328,1,70
108,336,46269,2,0,P|104:284|76:192,1,140,8|0,0:0|0:0,0:0:0:0:
79,199,46808,1,2,0:0:0:0:
232,248,46988,6,0,P|280:256|336:176,1,140,4|0,0:0|0:0,0:0:0:0:
268,104,47526,2,0,L|260:192,1,70,0|8,0:0|0:0,0:0:0:0:
160,288,47886,2,0,L|153:218,1,70,0|2,0:0|0:0,0:0:0:0:
284,360,48245,5,0,0:0:0:0:
284,360,48335,1,0,0:0:0:0:
284,360,48425,2,0,L|332:368,1,35,8|0,0:3|0:0,0:0:0:0:
424,336,48604,2,0,L|389:330,1,35,0|0,0:0|0:0,0:0:0:0:
288,280,48784,2,0,L|336:288,1,35,2|0,0:0|0:0,0:0:0:0:
400,252,48964,5,8,0:3:0:0:
434,250,49053,1,8,0:3:0:0:
466,236,49143,1,8,0:3:0:0:
490,211,49233,1,8,0:3:0:0:
503,178,49323,1,8,0:3:0:0:
504,144,49413,1,0,0:0:0:0:
491,111,49502,1,4,0:3:0:0:
467,86,49592,1,0,0:0:0:0:
436,71,49682,1,0,0:0:0:0:
401,69,49772,1,0,0:0:0:0:
368,80,49862,6,0,B|336:88|284:68|284:68|224:84|224:84|156:64|80:84,1,280,4|0,0:0|0:0,0:0:0:0:
88,172,52017,5,8,0:0:0:0:
88,172,52197,1,8,0:0:0:0:
88,172,52556,6,0,P|144:160|220:120,1,140,4|0,0:0|0:0,0:0:0:0:
340,252,53095,1,8,0:0:0:0:
176,184,53275,1,0,0:0:0:0:
344,228,53455,1,2,0:0:0:0:
484,124,53634,1,2,0:0:0:0:
348,204,53814,2,0,P|292:196|252:188,1,70,8|0,0:0|0:0,0:0:0:0:
428,192,54173,5,2,0:0:0:0:
464,44,54353,1,0,0:0:0:0:
420,212,54532,2,0,L|424:300,1,70,8|0,0:0|0:0,0:0:0:0:
312,344,54892,1,2,0:0:0:0:
500,240,55071,1,2,0:0:0:0:
320,168,55251,1,8,0:0:0:0:
204,336,55431,6,0,P|184:280|148:196,1,140,6|0,0:0|0:0,0:0:0:0:
216,96,55970,1,8,0:0:0:0:
268,252,56149,1,0,0:0:0:0:
328,52,56329,1,2,0:0:0:0:
264,268,56508,1,2,0:0:0:0:
108,176,56688,1,8,0:0:0:0:
320,168,56868,1,0,0:0:0:0:
360,328,57047,6,0,P|400:316|440:308,1,70,2|0,0:0|0:0,0:0:0:0:
427,310,57407,1,8,0:0:0:0:
240,356,57586,2,0,P|205:348|172:338,1,70,0|2,0:0|0:0,0:0:0:0:
232,172,57946,1,2,0:0:0:0:
332,300,58125,1,8,0:0:0:0:
436,104,58305,6,0,P|360:92|284:52,1,140,4|2,0:0|0:0,0:0:0:0:
332,300,58844,2,0,P|384:288|416:276,1,70,8|0,0:0|0:0,0:0:0:0:
340,192,59203,1,2,0:0:0:0:
240,356,59383,1,2,0:0:0:0:
472,232,59562,1,8,0:0:0:0:
148,288,59742,6,0,P|100:280|8:252,1,140,6|2,0:0|0:0,0:0:0:0:
96,184,60281,1,8,0:0:0:0:
240,356,60461,2,0,P|260:308|276:280,1,70,0|2,0:0|0:0,0:0:0:0:
364,356,60820,2,0,P|405:324|433:308,1,70,2|8,0:0|0:0,0:0:0:0:
268,292,61179,1,0,0:0:0:0:
500,356,61359,6,0,P|508:304|508:268,1,70,6|0,0:0|0:0,0:0:0:0:
320,104,61718,1,8,0:0:0:0:
444,244,61898,1,0,0:0:0:0:
364,356,62077,1,2,0:0:0:0:
264,196,62257,1,2,0:0:0:0:
460,252,62437,1,8,0:0:0:0:
184,340,62616,6,0,P|132:324|48:316,1,140,6|8,0:0|0:3,0:0:0:0:
128,212,63155,1,8,0:0:0:0:
356,252,63335,6,0,L|368:132,1,105,4|0,0:0|0:0,0:0:0:0:
388,128,63694,1,4,0:0:0:0:
364,356,63874,1,8,0:0:0:0:
476,68,64053,6,0,P|472:136|472:212,1,140,4|0,0:0|0:0,0:0:0:0:
376,28,64592,1,8,0:0:0:0:
356,252,64772,1,0,0:0:0:0:
288,88,64952,1,2,0:0:0:0:
364,356,65131,1,2,0:0:0:0:
272,240,65311,1,8,0:0:0:0:
471,207,65491,1,0,0:0:0:0:
224,160,65670,6,0,P|176:156|128:148,1,70,2|0,0:0|0:0,0:0:0:0:
284,320,66029,1,8,0:0:0:0:
64,228,66209,2,0,P|112:232|160:240,1,70,0|2,0:0|0:0,0:0:0:0:
284,320,66568,1,2,0:0:0:0:
180,364,66748,1,8,0:0:0:0:
16,144,66928,6,0,P|28:96|40:0,1,140,4|0,0:0|0:0,0:0:0:0:
224,160,67467,2,0,P|176:156|128:148,1,70,8|0,0:0|0:0,0:0:0:0:
64,228,67826,1,2,0:0:0:0:
316,156,68005,1,2,0:0:0:0:
156,328,68185,1,8,0:0:0:0:
328,168,68365,1,0,0:0:0:0:
292,352,68544,6,0,P|336:344|384:340,1,70,2|0,0:0|0:0,0:0:0:0:
240,204,68904,2,0,P|224:246|204:289,1,70,8|0,0:0|0:0,0:0:0:0:
408,240,69263,2,0,P|379:205|351:166,1,70,2|0,0:0|0:0,0:0:0:0:
384,92,69622,1,8,0:0:0:0:
324,276,69802,6,0,P|268:256|184:252,1,140,6|2,0:0|0:0,0:0:0:0:
408,240,70341,2,0,P|369:194|298:149,1,140,8|2,0:0|0:0,0:0:0:0:
396,328,70880,1,2,0:0:0:0:
496,200,71059,1,8,0:0:0:0:
296,244,71239,6,0,P|226:241|160:219,1,140,6|2,0:0|0:0,0:0:0:0:
208,328,71778,1,8,0:0:0:0:
244,148,71958,2,0,P|248:92|248:52,1,70,0|2,0:0|0:0,0:0:0:0:
160,219,72317,1,2,0:0:0:0:
332,124,72497,1,8,0:0:0:0:
332,124,72676,1,0,0:0:0:0:
104,152,72856,6,0,P|76:188|96:284,1,140,6|8,0:0|0:0,0:0:0:0:
260,160,73395,2,0,P|248:208|244:248,1,70,0|2,0:0|0:0,0:0:0:0:
424,144,73754,2,0,P|418:109|409:75,1,70,0|8,0:0|0:0,0:0:0:0:
384,328,74113,6,0,P|420:348|512:296,1,140,6|2,0:0|0:0,0:0:0:0:
424,144,74652,1,8,0:0:0:0:
440,272,74832,1,0,0:0:0:0:
296,344,75011,1,2,0:0:0:0:
280,324,75100,1,0,0:0:0:0:
262,308,75190,1,0,0:0:0:0:
241,295,75280,1,0,0:0:0:0:
218,287,75370,1,8,0:0:0:0:
194,282,75460,1,0,0:0:0:0:
170,282,75549,1,0,0:0:0:0:
146,287,75639,1,0,0:0:0:0:
123,295,75729,5,6,0:0:0:0:
48,344,75910,1,0,0:0:0:0:
108,132,76089,1,8,0:0:0:0:
40,252,76269,1,0,0:0:0:0:
200,196,76449,1,0,0:0:0:0:
144,40,76628,1,2,0:0:0:0:
200,196,76808,1,8,0:0:0:0:
336,128,76988,1,0,0:0:0:0:
224,96,77167,5,2,0:0:0:0:
352,224,77347,1,0,0:0:0:0:
384,48,77526,1,8,0:0:0:0:
224,96,77706,1,0,0:0:0:0:
424,164,77886,1,0,0:0:0:0:
272,280,78065,1,2,0:0:0:0:
436,332,78245,1,8,0:0:0:0:
260,288,78425,1,0,0:0:0:0:
500,216,78604,6,0,P|508:168|512:116,1,70,4|0,0:0|0:0,0:0:0:0:
384,48,78964,1,8,0:0:0:0:
320,296,79143,2,0,P|352:308|424:236,1,140,6|4,0:0|0:0,0:0:0:0:
264,196,79682,1,8,0:0:0:0:
208,348,79862,6,0,P|156:332|68:328,1,140,6|2,0:0|0:0,0:0:0:0:
120,144,80401,2,0,L|132:220,1,70,8|0,0:0|0:0,0:0:0:0:
272,108,80760,2,0,L|273:38,1,70,2|2,0:0|0:0,0:0:0:0:
44,84,81119,2,0,L|29:159,1,70,8|0,0:0|0:0,0:0:0:0:
264,196,81479,5,12,0:0:0:0:
192,60,81658,1,0,0:0:0:0:
192,60,81748,1,0,0:0:0:0:
192,60,81838,1,0,0:0:0:0:
364,168,82017,2,0,P|408:176|496:124,1,140,12|0,0:0|0:0,0:0:0:0:
292,104,82556,5,12,0:0:0:0:
340,272,82736,1,0,0:0:0:0:
340,272,82826,1,0,0:0:0:0:
340,272,82916,1,0,0:0:0:0:
180,148,83095,2,0,P|132:132|28:120,1,140,12|0,0:0|0:0,0:0:0:0:
228,376,83634,5,8,0:3:0:0:
280,180,83814,1,8,0:3:0:0:
83,231,83993,1,4,0:3:0:0:
83,231,84353,5,12,0:0:0:0:
148,304,84532,1,0,0:0:0:0:
148,304,84622,1,0,0:0:0:0:
148,304,84712,1,0,0:0:0:0:
304,88,84892,2,0,P|224:76|164:60,1,140,12|0,0:0|0:0,0:0:0:0:
352,248,85431,1,12,0:0:0:0:
452,160,85610,6,0,P|460:100|464:68,1,70,0|0,0:0|0:0,0:0:0:0:
476,288,85970,2,0,P|404:268|328:260,1,140,12|0,0:0|0:0,0:0:0:0:
208,348,86508,2,0,L|248:344,3,35,8|0|2|2,0:0|0:0|0:0|0:0,0:0:0:0:
96,316,86868,2,0,L|136:312,3,35,8|0|2|2,0:0|0:0|0:0|0:0,0:0:0:0:
8,280,87227,5,12,0:0:0:0:
100,112,87407,1,8,0:0:0:0:
156,208,87586,1,8,0:0:0:0:
8,184,87766,1,8,0:0:0:0:
228,132,87946,1,8,0:0:0:0:
312,336,88125,6,0,L|272:332|232:328,1,70
424,360,88485,2,0,P|428:308|448:216,1,140,4|4,0:0|0:0,0:0:0:0:
388,96,89023,1,8,0:0:0:0:
304,232,89203,1,8,0:3:0:0:
284,228,89293,1,0,0:0:0:0:
264,224,89383,1,8,0:3:0:0:
244,220,89473,1,8,0:3:0:0:
224,216,89562,1,4,0:3:0:0:
204,212,89652,1,4,0:3:0:0:
184,208,89742,2,0,P|148:208|104:192,1,70,4|0,0:3|0:0,0:0:0:0:
236,320,90101,5,8,0:0:0:0:
404,248,90281,1,8,0:0:0:0:
240,344,90461,1,8,0:0:0:0:
308,120,90640,1,8,0:0:0:0:
420,268,90820,1,8,0:0:0:0:
432,288,91179,5,8,0:0:0:0:
252,40,91359,1,12,0:0:0:0:
256,192,91538,12,0,97287,0:0:0:0:
