osu file format v13

[General]
AudioFilename: Mirai e no Tobira (OVA EDIT).mp3
AudioLeadIn: 1000
PreviewTime: 52017
Countdown: 0
SampleSet: Soft
StackLeniency: 0.7
Mode: 0
LetterboxInBreaks: 0
WidescreenStoryboard: 0

[Editor]
DistanceSpacing: 1
BeatDivisor: 4
GridSize: 4
TimelineZoom: 1

[Metadata]
Title:Mirai e no Tobira (OVA EDIT)
TitleUnicode:未来への扉(OVA EDIT)
Artist:eyelis
ArtistUnicode:eyelis
Creator:Kawaiwkyik
Version:Easy
Source:Kami nomi zo Shiru Sekai: Tenri-hen
Tags:神のみぞ知るセカイ 天理篇 The World God Only Knows twgok Moecho iMage-- yf_bmp IamKwaN
BeatmapID:531010
BeatmapSetID:227734

[Difficulty]
HPDrainRate:1
CircleSize:2.8
OverallDifficulty:2
ApproachRate:3
SliderMultiplier:1.1
SliderTickRate:1

[Events]
//Background and Video events
0,0,"bg.jpg",0,0
//Break Periods
//Storyboard Layer 0 (Background)
//Storyboard Layer 1 (Fail)
//Storyboard Layer 2 (Pass)
//Storyboard Layer 3 (Foreground)
//Storyboard Sound Samples

[TimingPoints]
1000,359.281437125748,4,2,1,20,1,0
1000,-133.333333333333,4,2,1,20,0,0
14652,-100,4,2,1,60,0,0
26868,-100,4,2,1,40,0,0
38365,-100,4,2,1,60,0,0
48964,-100,4,2,1,40,0,0
49323,-100,4,2,1,50,0,0
49502,-100,4,2,1,60,0,0
52556,-100,4,2,1,60,0,1
63964,-100,4,2,1,60,0,0
64053,-100,4,2,1,60,0,1
92976,-100,4,2,1,50,0,1
94413,-100,4,2,1,40,0,1
95850,-100,4,2,1,30,0,1
97287,-100,4,2,1,5,0,0

[Colours]
Combo1 : 0,64,128
Combo2 : 0,128,255
Combo3 : 255,128,192
Combo4 : 255,0,128

[HitObjects]
128,112,1000,6,0,L|256:100,2,123.750004720688,0|0|0,0:0|0:0|0:0,0:0:0:0:
72,192,2437,1,0,0:0:0:0:
200,344,3155,1,0,0:0:0:0:
376,252,3874,6,0,P|368:200|360:120,2,123.750004720688,0|0|0,0:0|0:0|0:0,0:0:0:0:
308,324,5311,2,0,P|264:312|144:300,1,165.000006294251
56,124,6748,5,0,0:0:0:0:
240,196,7467,2,0,P|288:208|388:140,1,165.000006294251
472,192,8544,2,0,L|464:288,1,82.5000031471254
276,332,9622,6,0,P|236:312|160:348,2,123.750004720688,0|0|0,0:0|0:0|0:0,0:0:0:0:
372,360,11059,1,0,0:0:0:0:
104,68,12497,6,0,B|176:108|312:28|392:76,1,288.750011014939
152,304,14652,1,8,0:0:0:0:
276,124,15371,6,0,P|320:132|420:72,2,165,4|0|8,0:0|0:0|0:0,0:0:0:0:
176,76,16808,2,0,P|136:60|100:256,1,330,2|8,0:0|0:0,0:0:0:0:
180,292,18245,6,0,P|256:280|332:336,1,165,2|0,0:0|0:0,0:0:0:0:
460,232,19323,1,8,0:0:0:0:
368,172,19682,2,0,P|412:132|520:136,2,165,2|0|8,0:0|0:0|0:0,0:0:0:0:
364,284,21119,6,0,L|240:276,1,110,6|8,0:0|0:0,0:0:0:0:
152,320,21838,2,0,P|88:328|40:196,1,220,2|0,0:0|0:0,0:0:0:0:
212,76,23275,1,2,0:0:0:0:
384,216,23994,6,0,P|432:224|508:136,1,165,4|0,0:0|0:0,0:0:0:0:
320,28,25251,1,4,0:0:0:0:
36,288,26508,1,8,0:0:0:0:
120,356,26868,6,0,B|184:316|280:376|335:348,1,220,2|2,0:0|0:0,0:0:0:0:
376,132,28305,2,0,B|312:172|216:112|160:139,1,220,2|2,0:0|0:0,0:0:0:0:
16,304,29742,2,0,P|44:348|192:220,1,330,2|0,0:0|0:0,0:0:0:0:
124,144,31179,5,2,0:0:0:0:
320,248,31898,2,0,L|436:240,2,110,2|0|2,0:0|0:0|0:0,0:0:0:0:
256,36,33335,1,2,0:0:0:0:
192,248,34053,2,0,L|76:240,2,110,2|0|2,0:0|0:0|0:0,0:0:0:0:
384,356,35491,6,0,B|492:412|556:328|540:240|504:196|412:180|364:260|364:260|316:268|296:316|296:316|220:268|132:288,1,660,4|8,0:0|0:0,0:0:0:0:
104,68,38365,5,4,0:0:0:0:
320,112,39083,2,0,P|372:128|380:288,1,220,2|2,0:0|0:0,0:0:0:0:
180,328,40520,1,2,0:0:0:0:
84,128,41239,6,0,P|120:104|244:124,2,165,2|0|8,0:0|0:0|0:0,0:0:0:0:
164,200,42676,2,0,P|128:224|4:204,2,165,2|0|8,0:0|0:0|0:0,0:0:0:0:
244,276,44113,5,6,0:0:0:0:
444,188,44832,1,8,0:0:0:0:
256,72,45550,1,2,0:0:0:0:
68,188,46269,1,8,0:0:0:0:
256,304,46988,6,0,P|304:280|440:368,1,220,4|8,0:0|0:0,0:0:0:0:
504,268,48065,1,0,0:0:0:0:
424,192,48425,2,0,L|440:80,2,110,4|8|8,0:3|0:3|0:3,0:0:0:0:
208,156,49862,1,4,0:0:0:0:
156,184,52556,6,0,P|216:192|312:124,1,165,4|8,0:0|0:0,0:0:0:0:
484,268,53814,1,8,0:0:0:0:
408,348,54173,2,0,L|288:336,2,110,2|8|2,0:0|0:0|0:0,0:0:0:0:
484,268,55251,2,0,L|480:208,1,55,8|6,0:0|0:0,0:0:0:0:
440,52,55970,6,0,P|392:32|296:140,1,220,8|8,0:0|0:0,0:0:0:0:
312,248,57047,2,8,P|208:228|152:276,2,165,2|0|8,0:0|0:0|0:0,0:0:0:0:
352,284,58305,6,0,P|396:304|484:240,1,165,6|8,0:0|0:0,0:0:0:0:
476,132,59203,1,2,0:0:0:0:
388,68,59562,2,0,L|324:64,1,55,8|6,0:0|0:0,0:0:0:0:
196,160,60281,2,0,P|176:180|4:144,1,220,8|8,0:0|0:0,0:0:0:0:
104,96,61359,6,0,L|92:316,1,220,6|2,0:0|0:0,0:0:0:0:
256,292,62616,2,0,P|328:268|416:372,1,220,6|4,0:0|0:0,0:0:0:0:
480,272,63694,1,4,0:0:0:0:
404,192,64053,6,0,P|400:124|472:48,1,165,4|8,0:0|0:0,0:0:0:0:
256,140,65311,1,8,0:0:0:0:
52,52,66029,2,0,P|107:111|48:224,1,220,8|8,0:0|0:0,0:0:0:0:
64,276,66928,6,0,P|112:256|212:312,1,165,6|8,0:0|0:0,0:0:0:0:
416,236,68185,2,0,L|424:116,1,110,8|2,0:0|0:0,0:0:0:0:
312,140,68904,2,0,P|228:148|164:36,1,220,8|8,0:0|0:0,0:0:0:0:
108,48,69802,6,0,P|68:72|72:200,1,165,6|8,0:0|0:0,0:0:0:0:
148,240,70700,2,0,L|264:232,1,110,2|8,0:0|0:0,0:0:0:0:
312,232,71239,2,0,P|336:272|276:368,1,165,4|8,0:0|0:0,0:0:0:0:
72,308,72497,1,8,0:0:0:0:
24,208,72856,6,0,L|40:96,1,110,6|8,0:0|0:0,0:0:0:0:
140,56,73574,2,0,P|200:116|284:100,1,165,2|4,0:0|0:0,0:0:0:0:
392,224,74652,2,0,L|504:216,2,110,8|2|8,0:0|0:0|0:0,0:0:0:0:
344,323,75730,6,0,P|248:370|151:324,1,220,4|0,0:0|0:0,0:0:0:0:
152,104,77167,2,0,P|247:57|344:103,1,220,2|0,0:0|0:0,0:0:0:0:
444,300,78604,5,4,0:0:0:0:
284,268,79143,2,0,P|232:260|176:304,2,110,4|4|4,0:0|0:0|0:0,0:0:0:0:
408,160,80401,2,0,P|420:112|296:128,1,220,8|8,0:0|0:0,0:0:0:0:
220,180,81479,6,0,L|32:172,2,165,12|12|12,0:0|0:0|0:0,0:0:0:0:
284,332,83095,2,0,P|368:312|472:316,1,165,12|12,0:0|0:0,0:0:0:0:
352,112,84353,6,0,P|348:76|448:28,2,165,12|12|12,0:0|0:0|0:0,0:0:0:0:
236,228,85970,2,0,P|96:224|56:224,1,165,12|12,0:0|0:0,0:0:0:0:
256,344,87227,5,8,0:0:0:0:
416,192,87946,2,0,P|432:156|368:48,1,165,8|4,0:0|0:0,0:0:0:0:
276,88,88844,2,0,P|228:92|176:48,2,110,4|8|4,0:0|0:3|0:0,0:0:0:0:
316,248,90101,5,8,0:0:0:0:
112,332,90820,2,0,L|128:216,1,110,8|8,0:0|0:0,0:0:0:0:
136,168,91359,1,4,0:0:0:0:
256,192,91538,12,0,97287,0:0:0:0:
