osu file format v14

[General]
AudioFilename: Mirai e no Tobira (OVA EDIT).mp3
AudioLeadIn: 0
PreviewTime: 52017
Countdown: 0
SampleSet: Soft
StackLeniency: 0.7
Mode: 0
LetterboxInBreaks: 0
WidescreenStoryboard: 0

[Editor]
DistanceSpacing: 1.1
BeatDivisor: 4
GridSize: 4
TimelineZoom: 1.9

[Metadata]
Title:Mirai e no Tobira (OVA EDIT)
TitleUnicode:未来への扉(OVA EDIT)
Artist:eyelis
ArtistUnicode:eyelis
Creator:Bearizm
Version:Normal
Source:神のみぞ知るセカイ 天理篇
Tags:Kami nomi zo Shiru Sekai Tenri-hen The World God Only Knows Tenri Arc TWGOK KamiNomi
BeatmapID:783669
BeatmapSetID:356039

[Difficulty]
HPDrainRate:4
CircleSize:3.5
OverallDifficulty:4
ApproachRate:5
SliderMultiplier:0.9
SliderTickRate:1

[Events]
//Background and Video events
0,0,"bg.jpg",0,0
//Break Periods
//Storyboard Layer 0 (Background)
//Storyboard Layer 1 (Fail)
//Storyboard Layer 2 (Pass)
//Storyboard Layer 3 (Foreground)
//Storyboard Sound Samples

[TimingPoints]
1000,359.281437125748,4,2,1,40,1,0
14652,-100,4,2,1,70,0,0
15371,-100,4,2,1,80,0,0
26868,-100,4,2,1,70,0,0
52017,-100,4,2,1,70,0,0
52556,-100,4,2,1,80,0,1
91359,-100,4,2,1,80,0,0
91538,-100,4,2,1,40,0,0
97287,-100,4,2,1,5,0,0

[Colours]
Combo1 : 255,255,0
Combo2 : 128,255,255
Combo3 : 18,124,255
Combo4 : 0,234,0

[HitObjects]
192,32,1000,6,0,L|200:124,1,90,2|0,0:0|0:0,0:0:0:0:
284,172,1718,1,0,0:0:0:0:
348,96,2077,1,0,0:0:0:0:
444,128,2437,2,0,L|432:308,1,180
344,348,3514,1,0,0:0:0:0:
260,296,3874,6,0,L|164:308,1,90,2|0,0:0|0:0,0:0:0:0:
84,264,4592,2,0,P|72:220|80:176,1,90
178,173,5311,2,0,B|186:217|186:217|170:305|170:305|178:353,1,180,2|0,0:0|0:0,0:0:0:0:
275,362,6389,1,0,0:0:0:0:
339,286,6748,6,0,P|383:278|427:286,1,90,2|0,0:0|0:0,0:0:0:0:
508,228,7467,2,0,L|496:136,1,90
404,102,8185,2,0,L|416:194,1,90,2|0,0:0|0:0,0:0:0:0:
335,250,8904,2,0,L|323:158,1,90
259,85,9622,6,0,P|195:61|135:85,1,135,2|2,0:0|0:0,0:0:0:0:
111,231,10700,1,2,0:0:0:0:
111,231,10880,2,0,B|155:227|155:227|203:235|203:235|247:231,1,135,2|0,0:0|0:0,0:0:0:0:
277,193,11598,2,0,L|265:329,1,135,2|2,0:0|0:0,0:0:0:0:
363,343,12497,6,0,P|392:307|400:262,1,90,2|0,0:0|0:0,0:0:0:0:
391,216,13035,2,0,L|399:124,1,90,2|2,0:0|0:0,0:0:0:0:
373,83,13574,1,0,0:0:0:0:
373,83,13754,1,2,0:0:0:0:
286,130,14113,2,0,B|242:126|242:126|198:134|198:134|150:130,1,135,0|0,0:0|1:0,0:0:0:0:
98,122,14832,1,0,1:0:0:0:
85,270,15371,6,0,P|129:278|173:270,1,90,12|0,0:0|1:0,0:0:0:0:
264,230,16089,2,0,L|308:234,2,45,8|8|0,0:0|0:0|1:0,0:0:0:0:
200,156,16808,1,8,0:0:0:0:
248,72,17167,2,0,P|292:64|336:72,1,90,0|8,1:0|0:0,0:0:0:0:
376,100,17706,1,8,0:0:0:0:
376,100,17886,1,0,1:0:0:0:
436,180,18245,6,0,L|428:272,1,90,12|0,0:0|1:0,0:0:0:0:
336,304,18964,2,0,L|344:348,2,45,8|8|0,0:0|0:0|1:0,0:0:0:0:
260,240,19682,2,0,B|216:236|216:236|168:244,1,90,8|0,0:0|1:0,0:0:0:0:
80,208,20401,2,0,L|36:204,2,45,8|8|0,0:0|0:0|1:0,0:0:0:0:
160,148,21119,5,12,0:0:0:0:
68,108,21479,1,0,1:0:0:0:
148,50,21838,2,0,L|144:4,2,45,8|8|0,0:0|0:0|1:0,0:0:0:0:
184,144,22556,1,8,0:0:0:0:
264,84,22916,2,0,L|356:88,1,90,0|8,1:0|0:0,0:0:0:0:
396,64,23455,1,8,0:0:0:0:
396,64,23634,1,0,1:0:0:0:
480,116,23994,6,0,P|492:160|484:204,1,90,12|0,0:0|1:0,0:0:0:0:
444,232,24532,2,0,L|352:228,1,90,8|8,0:0|0:0,0:0:0:0:
312,204,25071,1,0,1:0:0:0:
312,204,25251,1,12,0:0:0:0:
256,192,25431,12,2,26868,0:0:0:0:
312,204,27946,5,8,0:0:0:0:
248,280,28305,2,0,L|156:276,1,90,8|8,0:0|0:0,0:0:0:0:
72,228,29023,2,0,P|64:184|76:140,1,90,8|8,0:0|0:0,0:0:0:0:
164,96,29742,6,0,L|152:4,2,90,8|8|8,0:0|0:0|0:0,0:0:0:0:
248,148,30820,1,8,0:0:0:0:
308,72,31179,2,0,P|352:64|396:72,1,90,8|8,0:0|0:0,0:0:0:0:
468,140,31898,1,8,0:0:0:0:
388,200,32257,1,8,0:0:0:0:
468,260,32616,6,0,L|456:352,1,90,8|8,0:0|0:0,0:0:0:0:
360,320,33335,2,0,B|316:316|316:316|268:324,1,90,8|8,0:0|0:0,0:0:0:0:
172,312,34053,2,0,P|160:268|156:224,1,90,8|8,0:0|0:0,0:0:0:0:
232,160,34772,2,0,L|324:168,1,90,8|8,0:0|0:0,0:0:0:0:
408,120,35491,6,0,P|424:76|428:32,2,90,10|8|8,0:0|0:0|0:0,0:0:0:0:
412,220,36568,1,8,0:0:0:0:
348,296,36928,1,8,0:0:0:0:
248,308,37287,2,0,L|156:300,1,90,8|0,0:0|1:0,0:0:0:0:
108,296,37826,1,0,1:0:0:0:
12,184,38365,6,0,P|4:140|4:92,1,90,12|0,0:0|1:0,0:0:0:0:
92,52,39083,2,0,L|96:8,2,45,8|8|0,0:0|0:0|1:0,0:0:0:0:
168,116,39802,2,0,P|216:116|256:100,1,90,8|0,0:0|1:0,0:0:0:0:
296,72,40341,2,0,L|284:208,1,135,2|0,0:0|1:0,0:0:0:0:
360,288,41239,6,0,P|404:292|448:284,1,90,8|0,0:0|1:0,0:0:0:0:
480,240,41778,2,0,L|484:148,1,90,2|8,0:0|0:0,0:0:0:0:
448,108,42317,1,0,1:0:0:0:
360,60,42676,2,0,B|316:52|316:52|224:64,2,135,8|2|0,0:0|0:0|1:0,0:0:0:0:
424,136,44113,6,0,L|412:272,1,135,12|8,0:0|0:0,0:0:0:0:
376,304,44832,2,0,P|332:312|288:300,1,90,0|0,1:0|0:0,0:0:0:0:
216,232,45550,2,0,B|128:216|128:216|84:224,1,135,2|8,0:0|0:0,0:0:0:0:
36,236,46269,2,0,L|44:144,1,90,0|0,1:0|0:0,0:0:0:0:
112,72,46988,6,0,P|188:92|232:64,1,135,12|8,0:0|0:0,0:0:0:0:
272,36,47706,2,0,P|280:80|284:128,1,90,0|8,1:0|0:0,0:0:0:0:
256,192,48245,12,4,49862,0:0:0:0:
283,125,52017,5,0,1:0:0:0:
283,125,52197,1,0,1:0:0:0:
216,196,52556,6,0,L|80:184,1,135,4|0,0:0|1:0,0:0:0:0:
12,112,53455,2,0,P|20:68|40:24,1,90,8|0,0:0|1:0,0:0:0:0:
136,64,54173,1,8,0:0:0:0:
228,28,54532,1,0,1:0:0:0:
312,84,54892,2,0,L|356:88,2,45,8|8|0,0:0|0:0|1:0,0:0:0:0:
280,120,55431,6,0,P|272:164|272:212,1,90,12|8,0:0|0:0,0:0:0:0:
284,256,55970,1,0,1:0:0:0:
356,324,56329,2,0,L|448:312,1,90,8|0,0:0|1:0,0:0:0:0:
500,232,57047,2,0,P|508:188|508:140,1,90,8|0,0:0|1:0,0:0:0:0:
484,100,57586,2,0,L|392:108,1,90,0|8,0:0|0:0,0:0:0:0:
348,88,58125,1,0,1:0:0:0:
348,88,58305,6,0,P|339:135|344:184,1,90,12|8,0:0|0:0,0:0:0:0:
354,225,58844,1,0,1:0:0:0:
284,296,59203,2,0,P|240:304|192:304,1,90,8|0,0:0|1:0,0:0:0:0:
148,292,59742,2,0,L|132:204,1,90,12|8,0:0|0:0,0:0:0:0:
100,164,60281,1,0,1:0:0:0:
100,164,60461,2,0,P|144:160|188:140,1,90,0|8,0:0|0:0,0:0:0:0:
204,96,60999,1,0,1:0:0:0:
304,88,61359,6,0,P|316:132|316:176,1,90,8|0,0:0|1:0,0:0:0:0:
248,248,62077,2,0,L|200:252,2,45,8|8|0,0:0|0:0|1:0,0:0:0:0:
288,276,62616,2,0,L|384:288,1,90,12|8,0:0|3:0,0:0:0:0:
420,312,63155,1,0,1:0:0:0:
420,312,63335,2,0,P|416:272|420:220,1,90,12|12,0:0|0:0,0:0:0:0:
492,156,64053,6,0,P|424:172|372:140,1,135,12|0,0:0|1:0,0:0:0:0:
276,116,64952,2,0,P|268:160|268:208,1,90,8|0,0:0|1:0,0:0:0:0:
220,292,65670,1,8,0:0:0:0:
122,305,66029,1,0,1:0:0:0:
48,240,66389,2,0,L|4:244,2,45,8|8|0,0:0|0:0|1:0,0:0:0:0:
92,216,66928,6,0,P|104:172|108:128,1,90,12|8,0:0|0:0,0:0:0:0:
92,80,67467,1,0,1:0:0:0:
172,24,67826,2,0,L|264:32,1,90,8|0,0:0|1:0,0:0:0:0:
344,88,68544,2,0,P|352:132|356:180,1,90,8|0,0:0|1:0,0:0:0:0:
360,228,69083,2,0,P|316:216|272:224,1,90,0|8,0:0|0:0,0:0:0:0:
232,252,69622,1,0,1:0:0:0:
232,252,69802,6,0,P|188:248|144:232,1,90,12|8,0:0|0:0,0:0:0:0:
112,196,70341,1,0,1:0:0:0:
144,100,70700,2,0,L|236:104,1,90,8|0,0:0|1:0,0:0:0:0:
280,80,71239,2,0,P|288:124|288:172,1,90,12|8,0:0|0:0,0:0:0:0:
280,216,71778,1,0,1:0:0:0:
200,276,72137,2,0,L|156:284,2,45,8|8|0,0:0|0:0|1:0,0:0:0:0:
240,304,72676,1,0,0:0:0:0:
240,304,72856,6,0,L|332:312,1,90,8|0,0:0|1:0,0:0:0:0:
424,340,73574,2,0,P|428:296|448:256,1,90,8|0,0:0|1:0,0:0:0:0:
480,216,74113,2,0,P|412:228|360:192,1,135,12|0,0:0|1:0,0:0:0:0:
308,108,75011,1,0,1:0:0:0:
216,72,75371,1,0,1:0:0:0:
124,112,75730,6,0,L|128:204,1,90,12|0,0:0|1:0,0:0:0:0:
208,260,76449,1,0,0:0:0:0:
272,184,76808,1,0,1:0:0:0:
360,228,77167,2,0,P|368:272|368:320,1,90,8|0,0:0|1:0,0:0:0:0:
328,348,77706,1,0,0:0:0:0:
328,348,77886,2,0,L|236:352,1,90,0|0,0:0|1:0,0:0:0:0:
152,304,78604,6,0,L|60:300,1,90,12|0,0:0|1:0,0:0:0:0:
16,312,79143,2,0,P|28:268|32:224,1,90,12|12,0:0|0:0,0:0:0:0:
16,176,79682,1,0,1:0:0:0:
16,176,79862,2,0,P|80:196|136:164,1,135,12|0,0:0|1:0,0:0:0:0:
220,108,80760,2,0,P|236:156|240:196,1,90,8|0,0:0|1:0,0:0:0:0:
304,272,81479,6,0,P|348:284|392:280,1,90,4|8,1:2|0:0,0:0:0:0:
436,260,82017,2,0,L|448:168,1,90,4|8,1:2|0:0,0:0:0:0:
436,124,82556,2,0,B|392:128|392:128|344:120,1,90,4|8,1:2|0:0,0:0:0:0:
298,107,83095,2,0,L|302:203,1,90,4|8,1:2|0:0,0:0:0:0:
304,246,83634,1,4,1:2:0:0:
210,280,83994,1,8,0:0:0:0:
128,224,84353,6,0,P|116:180|112:136,1,90,4|8,1:2|0:0,0:0:0:0:
128,88,84892,2,0,L|216:68,1,90,4|8,1:2|0:0,0:0:0:0:
260,48,85431,2,0,P|256:92|260:140,1,90,4|8,1:2|0:0,0:0:0:0:
300,168,85970,2,0,L|392:180,1,90,4|8,1:2|0:0,0:0:0:0:
436,172,86508,1,0,1:0:0:0:
448,272,86868,1,8,0:0:0:0:
364,324,87227,6,0,L|272:328,1,90,4|0,1:2|1:0,0:0:0:0:
176,340,87946,2,0,P|160:296|156:252,1,90,0|0,1:0|1:0,0:0:0:0:
169,205,88485,2,0,P|125:197|79:197,1,90,12|12,0:0|0:0,0:0:0:0:
37,222,89023,1,0,1:0:0:0:
4,128,89383,2,0,P|8:84|20:40,1,90,8|8,0:0|0:0,0:0:0:0:
120,32,90101,6,0,L|132:124,1,90,4|0,1:2|1:0,0:0:0:0:
212,180,90820,2,0,P|256:184|300:176,1,90,0|0,1:0|1:0,0:0:0:0:
344,156,91359,1,12,0:0:0:0:
256,192,91538,12,0,97287,0:0:0:0:
