osu file format v14

[General]
AudioFilename: Mirai e no Tobira (OVA EDIT).mp3
AudioLeadIn: 0
PreviewTime: 52017
Countdown: 0
SampleSet: Soft
StackLeniency: 0.7
Mode: 0
LetterboxInBreaks: 0
WidescreenStoryboard: 1

[Editor]
DistanceSpacing: 0.8
BeatDivisor: 4
GridSize: 4
TimelineZoom: 1.9

[Metadata]
Title:Mirai e no Tobira (OVA EDIT)
TitleUnicode:未来への扉(OVA EDIT)
Artist:eyelis
ArtistUnicode:eyelis
Creator:Bearizm
Version:Megami
Source:神のみぞ知るセカイ 天理篇
Tags:Kami nomi zo Shiru Sekai Tenri-hen The World God Only Knows Tenri Arc TWGOK KamiNomi
BeatmapID:784240
BeatmapSetID:356039

[Difficulty]
HPDrainRate:6.9
CircleSize:4
OverallDifficulty:8.5
ApproachRate:9
SliderMultiplier:1.6
SliderTickRate:1

[Events]
//Background and Video events
0,0,"bg.jpg",0,0
//Break Periods
//Storyboard Layer 0 (Background)
//Storyboard Layer 1 (Fail)
//Storyboard Layer 2 (Pass)
//Storyboard Layer 3 (Foreground)
//Storyboard Sound Samples

[TimingPoints]
1000,359.281437125748,4,2,1,40,1,0
1000,-133.333333333333,4,2,1,40,0,0
14652,-100,4,2,1,70,0,0
15371,-100,4,2,1,80,0,0
26868,-100,4,2,1,70,0,0
44113,-133.333333333333,4,2,1,70,0,0
48065,-100,4,2,1,70,0,0
51299,-100,4,2,1,5,0,0
52017,-100,4,2,1,70,0,0
52556,-100,4,2,1,80,0,1
91359,-100,4,2,1,80,0,0
91538,-100,4,2,1,40,0,0
97287,-100,4,2,1,5,0,0

[Colours]
Combo1 : 255,255,0
Combo2 : 128,255,255
Combo3 : 18,124,255
Combo4 : 0,234,0

[HitObjects]
144,96,1000,6,0,L|155:154,1,60.0000022888184,2|0,0:0|0:0,0:0:0:0:
144,294,1359,2,0,L|155:235,1,60.0000022888184,0|2,0:0|0:0,0:0:0:0:
224,96,1718,2,0,L|235:154,1,60.0000022888184
224,296,2077,2,0,L|235:237,1,60.0000022888184,2|0,0:0|0:0,0:0:0:0:
312,200,2437,6,0,L|432:224,1,120.000004577637,0|2,0:0|0:0,0:0:0:0:
488,164,2976,1,2,0:0:0:0:
420,304,3155,1,2,0:0:0:0:
488,136,3335,1,0,0:0:0:0:
500,272,3514,1,2,0:0:0:0:
488,108,3694,1,0,0:0:0:0:
371,192,3874,6,0,L|311:200,1,60.0000022888184,2|0,0:0|0:0,0:0:0:0:
184,244,4233,2,0,L|244:252,1,60.0000022888184,0|2,0:0|0:0,0:0:0:0:
380,268,4592,2,0,L|320:276,1,60.0000022888184
192,324,4952,2,0,L|252:332,1,60.0000022888184,2|0,0:0|0:0,0:0:0:0:
96,248,5311,6,0,L|108:368,1,120.000004577637,2|2,0:0|0:0,0:0:0:0:
192,324,5850,1,0,0:0:0:0:
28,308,6029,1,2,0:0:0:0:
204,308,6209,1,2,0:0:0:0:
88,232,6389,1,2,0:0:0:0:
94,208,6568,1,2,0:0:0:0:
100,184,6748,6,0,L|92:124,1,60.0000022888184,2|0,0:0|0:0,0:0:0:0:
164,248,7107,2,0,L|148:308,1,60.0000022888184,0|2,0:0|0:0,0:0:0:0:
180,164,7467,2,0,L|172:104,1,60.0000022888184
248,236,7826,2,0,L|232:296,1,60.0000022888184,0|2,0:0|0:0,0:0:0:0:
332,360,8185,6,0,L|392:356,1,60.0000022888184
472,304,8544,2,0,P|484:276|488:244,1,60.0000022888184,2|0,0:0|0:0,0:0:0:0:
340,168,8904,2,0,P|344:200|352:228,1,60.0000022888184,2|0,0:0|0:0,0:0:0:0:
440,176,9263,1,0,0:0:0:0:
439,85,9443,1,0,0:0:0:0:
356,52,9622,6,0,L|236:64,1,120.000004577637,2|0,0:0|0:0,0:0:0:0:
88,124,10161,2,0,P|148:108|196:140,1,120.000004577637,2|0,0:0|0:0,0:0:0:0:
236,208,10700,1,2,0:0:0:0:
44,184,10880,6,0,L|40:64,1,120.000004577637,2|0,0:0|0:0,0:0:0:0:
144,232,11419,1,2,0:0:0:0:
144,232,11598,2,0,L|128:352,1,120.000004577637,2|0,0:0|0:0,0:0:0:0:
212,312,12137,1,2,0:0:0:0:
56,324,12317,1,2,0:0:0:0:
280,364,12497,6,0,P|288:336|292:304,1,60.0000022888184,2|0,0:0|0:0,0:0:0:0:
232,224,12856,1,0,0:0:0:0:
356,384,13035,2,0,P|368:324|364:264,1,120.000004577637,2|2,0:0|0:0,0:0:0:0:
291,305,13574,1,0,0:0:0:0:
424,208,13754,6,0,P|364:224|320:192,1,120.000004577637,2|0,0:0|0:0,0:0:0:0:
320,192,14652,5,0,1:0:0:0:
100,220,14832,1,0,1:0:0:0:
232,64,15011,1,0,0:0:0:0:
236,83,15100,1,0,0:0:0:0:
239,103,15190,1,0,0:0:0:0:
242,123,15280,1,0,0:0:0:0:
243,142,15371,6,0,L|228:220,1,80,12|0,0:0|0:0,0:0:0:0:
88,300,15730,1,0,1:0:0:0:
156,156,15910,1,0,0:0:0:0:
176,280,16089,1,8,0:0:0:0:
176,280,16269,1,8,0:0:0:0:
24,224,16449,2,0,P|16:184|16:144,1,80,0|0,1:0|0:0,0:0:0:0:
228,212,16808,6,0,L|208:372,1,160,8|0,0:0|1:0,0:0:0:0:
136,296,17347,1,0,0:0:0:0:
136,296,17437,1,0,0:0:0:0:
136,296,17526,1,8,0:0:0:0:
264,320,17706,1,8,0:0:0:0:
216,188,17886,1,0,1:0:0:0:
208,265,18065,1,0,0:0:0:0:
156,132,18245,6,0,P|236:148|284:96,2,160,12|0|8,0:0|1:0|0:0,0:0:0:0:
156,32,19143,1,8,0:0:0:0:
292,72,19323,2,0,L|284:152,1,80,0|0,1:0|0:0,0:0:0:0:
166,276,19682,6,0,L|154:116,1,160,8|0,0:0|1:0,0:0:0:0:
280,176,20221,1,0,0:0:0:0:
280,176,20311,1,0,0:0:0:0:
280,176,20401,1,8,0:0:0:0:
120,208,20580,1,8,0:0:0:0:
268,280,20760,2,0,L|352:272,1,80,0|0,1:0|0:0,0:0:0:0:
440,160,21119,6,0,L|424:320,1,160,12|0,0:0|1:0,0:0:0:0:
336,360,21658,1,0,0:0:0:0:
508,320,21838,1,8,0:0:0:0:
392,252,22017,1,8,0:0:0:0:
444,372,22197,1,0,1:0:0:0:
488,228,22377,1,0,0:0:0:0:
328,336,22556,6,0,L|168:324,1,160,8|0,0:0|1:0,0:0:0:0:
92,248,23095,1,2,0:0:0:0:
92,248,23185,1,0,0:0:0:0:
92,248,23275,1,8,0:0:0:0:
8,328,23455,1,10,0:0:0:0:
172,332,23634,1,0,1:0:0:0:
0,304,23814,1,0,0:0:0:0:
204,248,23994,6,0,P|212:208|216:168,1,80,12|0,0:0|0:0,0:0:0:0:
84,224,24353,1,0,1:0:0:0:
188,344,24532,2,0,L|268:336,1,80,10|0,0:0|0:0,0:0:0:0:
421,286,24892,2,0,P|421:322|409:366,1,80,10|0,0:0|1:0,0:0:0:0:
204,248,25251,1,12,0:0:0:0:
256,192,25431,12,0,26508,1:0:0:0:
204,248,26868,6,0,L|124:240,1,80,8|0,0:0|0:0,0:0:0:0:
32,188,27227,2,0,L|44:268,1,80,8|0,0:0|0:0,0:0:0:0:
176,168,27586,2,0,L|184:88,1,80,8|0,0:0|0:0,0:0:0:0:
104,32,27946,1,8,0:0:0:0:
104,32,28125,1,0,0:0:0:0:
112,216,28305,6,0,L|272:200,1,160,8|8,0:0|0:0,0:0:0:0:
376,144,28844,1,0,0:0:0:0:
368,239,29023,1,8,0:0:0:0:
361,334,29203,1,0,0:0:0:0:
464,240,29383,1,8,0:0:0:0:
264,296,29562,1,0,0:0:0:0:
460,344,29742,6,0,P|468:304|472:264,1,80,8|0,0:0|0:0,0:0:0:0:
376,144,30101,1,8,0:0:0:0:
376,144,30281,1,0,0:0:0:0:
284,280,30461,2,0,L|364:272,1,80,8|0,0:0|0:0,0:0:0:0:
508,224,30820,2,0,L|428:216,1,80,8|0,0:0|0:0,0:0:0:0:
336,36,31179,6,0,L|352:196,1,160,8|8,0:0|0:0,0:0:0:0:
368,292,31718,1,0,0:0:0:0:
452,340,31898,1,8,0:0:0:0:
360,312,32077,1,0,0:0:0:0:
344,216,32257,1,8,0:0:0:0:
276,360,32437,1,0,0:0:0:0:
161,250,32616,6,0,P|121:234|31:296,2,160,8|8|8,0:0|0:0|0:0,0:0:0:0:
212,352,33514,1,0,0:0:0:0:
284,264,33694,2,0,P|288:224|280:184,1,80,8|0,0:0|0:0,0:0:0:0:
96,160,34053,6,0,L|112:320,1,160,8|8,0:0|0:0,0:0:0:0:
212,352,34592,1,0,0:0:0:0:
284,264,34772,1,8,0:0:0:0:
144,248,34952,1,0,0:0:0:0:
316,256,35131,2,0,L|308:336,1,80,8|0,0:0|0:0,0:0:0:0:
216,212,35491,6,0,P|296:232|348:184,2,160,10|8|8,0:0|0:0|0:0,0:0:0:0:
180,124,36389,1,0,0:0:0:0:
272,152,36568,1,8,0:0:0:0:
132,216,36748,1,0,0:0:0:0:
284,264,36928,5,8,0:0:0:0:
176,104,37107,1,0,0:0:0:0:
176,288,37287,1,8,0:0:0:0:
176,288,37467,1,0,0:0:0:0:
296,244,37646,5,0,1:0:0:0:
52,204,37826,1,0,1:0:0:0:
52,204,38365,6,0,L|44:124,1,80,12|0,0:0|0:0,0:0:0:0:
184,208,38724,2,0,L|176:288,1,80,0|0,1:0|0:0,0:0:0:0:
268,352,39083,1,8,0:0:0:0:
268,352,39263,1,8,0:0:0:0:
384,260,39443,2,0,B|344:256|344:256|304:260,1,80,0|0,1:0|0:0,0:0:0:0:
184,208,39802,6,0,P|228:212|280:120,1,160,8|0,0:0|1:0,0:0:0:0:
140,140,40341,2,0,L|152:300,1,160,2|8,0:0|0:0,0:0:0:0:
270,260,40880,2,0,L|274:180,1,80,0|0,1:0|0:0,0:0:0:0:
400,80,41239,5,8,0:0:0:0:
360,204,41419,1,0,0:0:0:0:
304,44,41598,1,0,1:0:0:0:
448,176,41778,2,0,L|436:256,1,80,0|8,0:0|0:0,0:0:0:0:
340,328,42137,1,8,0:0:0:0:
508,280,42317,1,0,1:0:0:0:
284,236,42497,1,0,0:0:0:0:
468,160,42676,6,0,P|476:120|472:80,1,80,8|0,0:0|0:0,0:0:0:0:
376,8,43035,1,0,1:0:0:0:
324,168,43215,2,0,L|340:328,1,160,2|8,0:0|0:0,0:0:0:0:
232,364,43754,1,0,1:0:0:0:
132,296,43934,1,0,0:0:0:0:
140,176,44113,6,0,P|148:144|160:120,1,60.0000022888184,4|0,0:0|0:0,0:0:0:0:
248,80,44473,1,0,0:0:0:0:
248,80,44652,1,8,0:0:0:0:
336,224,44832,2,0,L|216:232,1,120.000004577637,0|0,1:0|0:0,0:0:0:0:
140,176,45371,1,8,0:0:0:0:
56,264,45550,6,0,P|60:296|72:324,1,60.0000022888184,0|8,0:0|0:0,0:0:0:0:
192,324,45910,1,0,0:0:0:0:
192,324,46089,1,8,0:0:0:0:
80,352,46269,2,0,L|20:344,1,60.0000022888184,0|0,1:0|0:0,0:0:0:0:
16,248,46628,1,2,0:0:0:0:
92,188,46808,1,2,0:0:0:0:
204,304,46988,6,0,L|264:296,1,60.0000022888184,12|0,0:0|0:0,0:0:0:0:
324,224,47347,1,0,0:0:0:0:
364,312,47526,1,8,0:0:0:0:
228,212,47706,2,0,L|236:152,1,60.0000022888184,0|0,1:0|0:0,0:0:0:0:
348,88,48065,1,8,0:0:0:0:
404,280,48245,5,0,1:0:0:0:
373,271,48335,1,0,1:0:0:0:
340,270,48425,1,0,1:0:0:0:
309,278,48514,1,0,1:0:0:0:
281,293,48604,1,0,1:0:0:0:
257,314,48694,1,0,1:0:0:0:
229,329,48784,5,0,1:0:0:0:
197,336,48874,1,0,1:0:0:0:
164,335,48964,1,8,0:3:0:0:
134,323,49053,1,8,0:3:0:0:
112,300,49143,2,0,L|118:259,1,40,8|8,0:3|0:3,0:0:0:0:
44,140,49323,2,0,L|48:180,1,40,8|8,0:3|0:3,0:0:0:0:
188,184,49502,5,8,0:0:0:0:
199,156,49591,1,8,0:0:0:0:
206,127,49681,1,8,0:0:0:0:
208,97,49771,1,8,0:0:0:0:
203,67,49861,1,4,0:0:0:0:
256,192,49952,12,0,51299,0:0:0:0:
203,67,52017,5,0,1:0:0:0:
371,133,52197,1,0,1:0:0:0:
132,236,52377,1,0,0:0:0:0:
132,236,52467,1,0,0:0:0:0:
132,236,52556,6,0,L|120:76,1,160,4|0,0:0|0:0,0:0:0:0:
256,224,53095,2,0,L|248:304,1,80,0|0,1:0|0:0,0:0:0:0:
400,356,53455,1,8,0:0:0:0:
340,260,53634,1,8,0:0:0:0:
468,288,53814,1,0,1:0:0:0:
296,344,53994,1,0,0:0:0:0:
368,180,54173,5,8,0:0:0:0:
480,304,54353,2,0,P|472:344|456:380,1,80,8|0,0:0|1:0,0:0:0:0:
360,160,54712,2,0,P|352:120|352:80,1,80,0|8,0:0|0:0,0:0:0:0:
448,24,55071,1,8,0:0:0:0:
448,24,55161,1,0,0:0:0:0:
448,24,55251,1,0,1:0:0:0:
456,204,55431,6,0,L|296:196,1,160,12|8,0:0|0:0,0:0:0:0:
144,244,55970,1,0,1:0:0:0:
224,136,56149,1,0,0:0:0:0:
228,296,56329,1,8,0:0:0:0:
132,228,56508,1,8,0:0:0:0:
296,196,56688,1,0,1:0:0:0:
144,244,56868,1,0,0:0:0:0:
232,112,57047,5,8,0:0:0:0:
232,112,57227,1,8,0:0:0:0:
216,320,57407,1,0,1:0:0:0:
372,244,57586,2,0,P|380:204|380:164,1,80,0|8,0:0|0:0,0:0:0:0:
272,216,57946,1,8,0:0:0:0:
488,168,58125,1,0,1:0:0:0:
224,144,58305,6,0,L|236:304,1,160,12|8,0:0|0:0,0:0:0:0:
112,232,58844,2,0,L|192:240,1,80,0|0,1:0|0:0,0:0:0:0:
340,260,59203,1,8,0:0:0:0:
224,144,59383,1,8,0:0:0:0:
236,304,59562,1,0,1:0:0:0:
348,136,59742,6,0,L|336:56,1,80,12|0,0:0|0:0,0:0:0:0:
228,24,60101,1,8,0:0:0:0:
424,64,60281,1,0,1:0:0:0:
236,120,60461,1,0,0:0:0:0:
348,136,60640,1,8,0:0:0:0:
248,8,60820,1,8,0:0:0:0:
192,208,60999,2,0,L|272:200,1,80,0|0,1:0|0:0,0:0:0:0:
468,304,61359,6,0,L|308:292,1,160,8|0,0:0|1:0,0:0:0:0:
271,200,61898,1,0,0:0:0:0:
364,340,62077,1,8,0:0:0:0:
364,340,62257,1,8,0:0:0:0:
428,212,62437,1,0,1:0:0:0:
208,324,62616,6,0,P|196:284|192:244,1,80,12|0,0:0|0:0,0:0:0:0:
340,264,62976,1,8,0:3:0:0:
224,340,63155,1,0,1:0:0:0:
432,360,63335,2,0,P|444:320|448:280,1,80,12|0,0:0|0:0,0:0:0:0:
271,200,63694,2,0,P|272:240|284:280,1,80,12|0,0:0|1:0,0:0:0:0:
504,332,64053,6,0,L|488:172,1,160,12|8,0:0|0:0,0:0:0:0:
404,36,64592,2,0,P|400:76|388:116,1,80,0|0,1:0|0:0,0:0:0:0:
236,168,64952,1,8,0:0:0:0:
308,56,65131,1,8,0:0:0:0:
360,208,65311,1,0,1:0:0:0:
224,144,65491,1,0,0:0:0:0:
388,114,65670,5,8,0:0:0:0:
336,280,65850,2,0,L|254:274,1,80,0|0,0:0|1:0,0:0:0:0:
388,114,66209,2,0,L|470:108,1,80,0|8,0:0|0:0,0:0:0:0:
512,212,66568,1,8,0:0:0:0:
512,212,66658,1,0,0:0:0:0:
512,212,66748,1,0,1:0:0:0:
336,280,66928,6,0,L|172:268,1,160,12|8,0:0|0:0,0:0:0:0:
20,220,67467,2,0,L|32:300,1,80,0|0,1:0|0:0,0:0:0:0:
136,352,67826,1,8,0:0:0:0:
136,352,68005,1,8,0:0:0:0:
256,232,68185,1,0,1:0:0:0:
104,264,68365,1,0,0:0:0:0:
288,344,68544,5,8,0:0:0:0:
160,188,68724,1,0,0:0:0:0:
152,332,68904,1,0,1:0:0:0:
276,216,69083,2,0,P|272:176|256:136,1,80,0|8,0:0|0:0,0:0:0:0:
160,188,69443,1,8,0:0:0:0:
379,95,69622,1,0,1:0:0:0:
148,28,69802,6,0,L|160:188,1,160,12|8,0:0|0:0,0:0:0:0:
236,304,70341,2,0,P|276:312|316:304,1,80,0|0,1:0|0:0,0:0:0:0:
404,172,70700,1,8,0:0:0:0:
248,212,70880,1,8,0:0:0:0:
396,272,71059,1,0,1:0:0:0:
292,124,71239,6,0,L|300:44,1,80,12|0,0:0|0:0,0:0:0:0:
424,16,71598,1,8,0:0:0:0:
500,196,71778,2,0,L|420:188,1,80,0|0,1:0|0:0,0:0:0:0:
320,240,72137,1,8,0:0:0:0:
408,108,72317,1,8,0:0:0:0:
292,124,72497,1,0,1:0:0:0:
500,196,72676,1,0,0:0:0:0:
364,332,72856,5,8,0:0:0:0:
364,332,73035,1,8,0:0:0:0:
284,203,73215,2,0,L|292:119,1,80,0|0,1:0|0:0,0:0:0:0:
192,44,73574,1,8,0:0:0:0:
376,164,73754,1,8,0:0:0:0:
200,188,73934,1,0,1:0:0:0:
340,44,74113,6,0,L|500:68,1,160,12|8,0:0|0:0,0:0:0:0:
392,248,74652,2,0,P|352:264|316:268,1,80,0|0,1:0|0:0,0:0:0:0:
452,148,75011,1,0,1:0:0:0:
478,170,75100,1,0,1:0:0:0:
496,200,75190,1,0,1:0:0:0:
506,233,75280,1,0,1:0:0:0:
504,268,75370,1,0,1:0:0:0:
493,301,75460,1,0,1:0:0:0:
473,330,75549,1,0,1:0:0:0:
445,351,75639,1,0,1:0:0:0:
413,363,75730,6,0,L|332:356,1,80,12|0,0:0|0:0,0:0:0:0:
236,220,76089,1,0,1:0:0:0:
333,356,76269,1,0,0:0:0:0:
333,356,76359,1,8,0:0:0:0:
333,356,76449,1,0,0:0:0:0:
360,184,76628,1,8,0:0:0:0:
216,240,76807,1,0,1:0:0:0:
400,296,76987,1,0,0:0:0:0:
208,360,77167,6,0,L|128:352,1,80,8|0,0:0|0:0,0:0:0:0:
36,240,77526,1,0,1:0:0:0:
236,220,77706,1,0,0:0:0:0:
236,220,77796,1,8,0:0:0:0:
236,220,77886,1,0,0:0:0:0:
128,352,78065,1,8,0:0:0:0:
256,196,78245,1,0,1:0:0:0:
133,91,78425,1,0,0:0:0:0:
224,312,78604,6,0,L|304:304,1,80,12|0,0:0|0:0,0:0:0:0:
384,244,78964,1,0,1:0:0:0:
128,192,79143,2,0,P|120:232|120:272,1,80,12|0,0:0|0:0,0:0:0:0:
337,168,79502,2,0,P|333:128|321:88,1,80,12|0,0:0|1:0,0:0:0:0:
224,312,79862,6,0,B|264:308|264:308|344:328|344:328|384:324,1,160,12|8,0:0|0:0,0:0:0:0:
480,200,80401,2,0,P|484:160|476:120,1,80,0|0,1:0|0:0,0:0:0:0:
476,121,80670,1,0,0:0:0:0:
476,121,80760,1,8,0:0:0:0:
324,164,80940,1,8,0:0:0:0:
404,248,81119,1,0,1:0:0:0:
416,56,81299,1,0,0:0:0:0:
400,280,81479,5,4,1:2:0:0:
188,220,81658,1,8,0:0:0:0:
340,144,81838,1,8,0:0:0:0:
272,312,82017,5,4,1:2:0:0:
404,248,82197,1,8,0:0:0:0:
168,204,82377,1,8,0:0:0:0:
276,336,82556,5,4,1:2:0:0:
356,124,82736,1,8,0:0:0:0:
400,280,82916,1,8,0:0:0:0:
148,188,83095,5,4,1:2:0:0:
372,104,83275,1,8,0:0:0:0:
280,360,83455,1,8,0:0:0:0:
212,80,83634,5,0,1:2:0:0:
388,172,83814,1,8,0:0:0:0:
240,284,83994,2,0,P|230:245|226:205,1,80,8|0,0:0|0:0,0:0:0:0:
336,28,84353,5,4,1:2:0:0:
400,280,84532,1,8,0:0:0:0:
396,304,84622,1,8,0:0:0:0:
392,328,84712,1,8,0:0:0:0:
192,272,84892,5,4,1:2:0:0:
452,172,85071,1,8,0:0:0:0:
449,148,85161,1,8,0:0:0:0:
447,124,85251,1,8,0:0:0:0:
264,28,85431,5,4,1:2:0:0:
184,316,85610,1,8,0:0:0:0:
207,312,85700,1,8,0:0:0:0:
230,308,85790,1,8,0:0:0:0:
436,268,85970,5,4,1:2:0:0:
300,112,86149,1,8,0:0:0:0:
230,308,86329,1,8,0:0:0:0:
436,268,86508,5,0,1:0:0:0:
445,250,86597,1,0,0:0:0:0:
452,231,86687,1,8,0:0:0:0:
457,212,86777,1,0,0:0:0:0:
459,192,86867,1,8,0:0:0:0:
459,172,86957,1,0,0:0:0:0:
456,152,87046,1,0,0:0:0:0:
451,133,87136,1,0,0:0:0:0:
443,115,87226,5,4,1:2:0:0:
108,188,87407,1,0,1:0:0:0:
436,268,87586,5,0,1:0:0:0:
84,168,87766,1,0,1:0:0:0:
456,88,87946,5,0,1:0:0:0:
316,284,88125,1,8,0:0:0:0:
212,68,88305,1,0,1:0:0:0:
328,146,88485,1,12,0:0:0:0:
328,146,88844,5,12,0:0:0:0:
127,216,89023,1,0,1:0:0:0:
304,330,89203,1,8,0:0:0:0:
310,307,89293,1,8,0:0:0:0:
316,284,89383,2,0,L|312:244,1,40,8|8,0:0|0:0,0:0:0:0:
208,200,89562,2,0,L|248:192,1,40,8|8,0:0|0:0,0:0:0:0:
366,154,89742,2,0,L|327:145,1,40,8|8,0:0|0:0,0:0:0:0:
200,116,89922,2,0,L|240:108,1,40,8|8,0:0|0:0,0:0:0:0:
392,72,90101,5,4,1:2:0:0:
75,199,90281,1,0,1:0:0:0:
408,276,90461,5,0,1:0:0:0:
44,176,90640,1,0,1:0:0:0:
416,44,90820,5,0,1:0:0:0:
416,44,91179,5,0,1:0:0:0:
256,322,91359,1,12,0:0:0:0:
256,192,91538,12,0,97287,0:0:0:0:
