osu file format v14

[General]
AudioFilename: Mirai e no Tobira (OVA EDIT).mp3
AudioLeadIn: 0
PreviewTime: 52017
Countdown: 0
SampleSet: Soft
StackLeniency: 0.7
Mode: 0
LetterboxInBreaks: 0
WidescreenStoryboard: 0

[Editor]
DistanceSpacing: 1.6
BeatDivisor: 4
GridSize: 4
TimelineZoom: 1.9

[Metadata]
Title:Mirai e no Tobira (OVA EDIT)
TitleUnicode:未来への扉(OVA EDIT)
Artist:eyelis
ArtistUnicode:eyelis
Creator:Bearizm
Version:Insane
Source:神のみぞ知るセカイ 天理篇
Tags:Kami nomi zo Shiru Sekai Tenri-hen The World God Only Knows Tenri Arc TWGOK KamiNomi
BeatmapID:783667
BeatmapSetID:356039

[Difficulty]
HPDrainRate:6.9
CircleSize:4
OverallDifficulty:7.3
ApproachRate:8.8
SliderMultiplier:1.45
SliderTickRate:1

[Events]
//Background and Video events
0,0,"bg.jpg",0,0
//Break Periods
//Storyboard Layer 0 (Background)
//Storyboard Layer 1 (Fail)
//Storyboard Layer 2 (Pass)
//Storyboard Layer 3 (Foreground)
//Storyboard Sound Samples

[TimingPoints]
1000,359.281437125748,4,2,1,40,1,0
1000,-133.333333333333,4,2,1,40,0,0
14652,-100,4,2,1,70,0,0
15371,-100,4,2,1,80,0,0
26868,-100,4,2,1,70,0,0
44113,-133.333333333333,4,2,1,70,0,0
48065,-100,4,2,1,70,0,0
51299,-100,4,2,1,5,0,0
52017,-100,4,2,1,70,0,0
52556,-100,4,2,1,80,0,1
91359,-100,4,2,1,80,0,0
91538,-100,4,2,1,40,0,0
97287,-100,4,2,1,5,0,0

[Colours]
Combo1 : 255,255,0
Combo2 : 128,255,255
Combo3 : 18,124,255
Combo4 : 0,234,0

[HitObjects]
120,20,1000,6,0,L|124:76,1,54.3750020742417,2|0,0:0|0:0,0:0:0:0:
164,196,1359,2,0,L|160:140,1,54.3750020742417,0|2,0:0|0:0,0:0:0:0:
208,32,1718,2,0,L|212:88,1,54.3750020742417,0|0,0:0|0:0,0:0:0:0:
252,208,2077,2,0,L|248:152,1,54.3750020742417,2|0,0:0|0:0,0:0:0:0:
292,80,2437,6,0,P|340:56|396:68,1,108.750004148483,0|2,0:0|0:0,0:0:0:0:
460,120,2976,1,2,0:0:0:0:
344,193,3155,2,0,L|352:140,1,54.3750020742417,2|0,0:0|0:0,0:0:0:0:
452,216,3514,2,0,L|460:272,1,54.3750020742417,2|0,0:0|0:0,0:0:0:0:
332,320,3874,6,0,L|276:316,1,54.3750020742417,2|0,0:0|0:0,0:0:0:0:
152,276,4233,2,0,L|208:268,1,54.3750020742417,0|2,0:0|0:0,0:0:0:0:
340,240,4592,2,0,L|284:236,1,54.3750020742417,0|0,0:0|0:0,0:0:0:0:
152,196,4952,2,0,L|208:188,1,54.3750020742417,2|0,0:0|0:0,0:0:0:0:
352,112,5311,6,0,P|296:124|248:108,1,108.750004148483,2|2,0:0|0:0,0:0:0:0:
304,28,5850,1,0,0:0:0:0:
368,100,6029,2,0,L|372:156,2,54.3750020742417,2|2|2,0:0|0:0|0:0,0:0:0:0:
456,60,6568,1,2,0:0:0:0:
508,204,6748,6,0,L|452:208,1,54.3750020742417,2|0,0:0|0:0,0:0:0:0:
384,256,7107,2,0,L|328:252,1,54.3750020742417,0|2,0:0|0:0,0:0:0:0:
244,228,7467,2,0,L|252:284,1,54.3750020742417,0|0,0:0|0:0,0:0:0:0:
176,324,7826,2,0,L|168:268,1,54.3750020742417,0|2,0:0|0:0,0:0:0:0:
72,176,8185,6,0,L|80:120,1,54.3750020742417,0|0,0:0|0:0,0:0:0:0:
136,56,8544,2,0,P|164:48|192:44,1,54.3750020742417,2|0,0:0|0:0,0:0:0:0:
276,44,8904,2,0,P|308:48|332:56,1,54.3750020742417,2|0,0:0|0:0,0:0:0:0:
392,112,9263,2,0,L|399:165,1,54.3750020742417,0|0,0:0|0:0,0:0:0:0:
456,232,9622,6,0,P|404:216|352:232,1,108.750004148483,2|0,0:0|0:0,0:0:0:0:
296,296,10161,2,0,B|304:240|304:240|296:188,1,108.750004148483,2|0,0:0|0:0,0:0:0:0:
224,136,10700,1,2,0:0:0:0:
116,256,10880,6,0,L|224:244,1,108.750004148483,2|0,0:0|0:0,0:0:0:0:
296,188,11419,1,2,0:0:0:0:
372,232,11598,2,0,L|368:340,1,108.750004148483,2|0,0:0|0:0,0:0:0:0:
284,364,12137,1,2,0:0:0:0:
284,364,12317,1,2,0:0:0:0:
176,304,12497,6,0,L|172:248,1,54.3750020742417,2|0,0:0|0:0,0:0:0:0:
232,188,12856,1,0,0:0:0:0:
96,336,13035,2,0,L|86:227,1,108.750004148483,2|2,0:0|0:0,0:0:0:0:
148,164,13574,1,0,0:0:0:0:
264,276,13754,6,0,B|292:272|292:272|344:280|344:280|372:276,1,108.750004148483,2|0,0:0|0:0,0:0:0:0:
371,276,14652,5,0,1:0:0:0:
456,136,14832,1,0,1:0:0:0:
456,136,15371,6,0,P|452:96|440:64,1,72.5,12|0,0:0|0:0,0:0:0:0:
304,120,15730,2,0,P|296:160|296:196,1,72.5,0|0,1:0|0:0,0:0:0:0:
376,304,16089,1,8,0:0:0:0:
376,304,16269,1,8,0:0:0:0:
260,344,16449,2,0,L|188:340,1,72.5,0|0,1:0|0:0,0:0:0:0:
48,272,16808,6,0,P|100:216|164:216,1,145,8|0,0:0|1:0,0:0:0:0:
168,328,17347,1,0,0:0:0:0:
68,192,17526,2,0,L|72:120,1,72.5,8|8,0:0|0:0,0:0:0:0:
224,172,17886,2,0,L|232:244,1,72.5,0|0,1:0|0:0,0:0:0:0:
336,344,18245,6,0,P|372:356|444:288,1,145,12|0,0:0|1:0,0:0:0:0:
384,184,18784,1,0,0:0:0:0:
280,280,18964,2,0,P|244:288|208:292,1,72.5,8|8,0:0|0:0,0:0:0:0:
368,208,19323,2,0,P|408:212|440:220,1,72.5,0|0,1:0|0:0,0:0:0:0:
284,252,19682,6,0,L|296:108,1,145,8|0,0:0|1:0,0:0:0:0:
396,100,20221,1,0,0:0:0:0:
256,176,20401,2,0,P|220:180|184:180,1,72.5,8|8,0:0|0:0,0:0:0:0:
52,124,20760,2,0,P|44:88|44:48,1,72.5,0|0,1:0|0:0,0:0:0:0:
164,156,21119,6,0,L|152:300,1,145,12|0,0:0|1:0,0:0:0:0:
260,360,21658,1,0,0:0:0:0:
344,268,21838,1,8,0:0:0:0:
232,264,22017,1,8,0:0:0:0:
368,360,22197,2,0,L|440:352,1,72.5,0|0,1:0|0:0,0:0:0:0:
512,224,22556,6,0,P|460:170|393:182,1,145,8|0,0:0|1:0,0:0:0:0:
296,164,23095,2,0,P|292:128|292:92,1,72.5,2|8,0:0|0:0,0:0:0:0:
440,240,23455,2,0,P|440:276|432:312,1,72.5,10|0,0:0|1:0,0:0:0:0:
340,356,23814,1,0,0:0:0:0:
240,352,23994,6,0,L|168:344,1,72.5,12|0,0:0|0:0,0:0:0:0:
96,272,24353,1,0,1:0:0:0:
232,192,24532,2,0,P|232:228|224:264,1,72.5,10|0,0:0|0:0,0:0:0:0:
80,184,24892,2,0,P|68:148|68:112,1,72.5,10|0,0:0|1:0,0:0:0:0:
168,40,25251,1,12,0:0:0:0:
256,192,25431,12,0,26508,1:0:0:0:
168,40,26868,6,0,P|160:76|144:112,1,72.5,8|0,0:0|0:0,0:0:0:0:
72,176,27227,2,0,L|96:244,1,72.5,8|0,0:0|0:0,0:0:0:0:
196,260,27586,2,0,P|208:224|208:188,1,72.5,8|0,0:0|0:0,0:0:0:0:
272,112,27946,2,0,P|304:120|344:124,1,72.5,8|0,0:0|0:0,0:0:0:0:
500,196,28305,6,0,P|428:180|376:224,1,145,8|8,0:0|0:0,0:0:0:0:
360,324,28844,1,0,0:0:0:0:
460,344,29023,2,0,P|472:308|476:272,1,72.5,8|0,0:0|0:0,0:0:0:0:
412,148,29383,2,0,L|340:156,1,72.5,8|0,0:0|0:0,0:0:0:0:
208,120,29742,6,0,P|216:156|220:196,1,72.5,8|0,0:0|0:0,0:0:0:0:
132,244,30101,1,8,0:0:0:0:
36,212,30281,1,0,0:0:0:0:
100,336,30461,2,0,L|172:328,1,72.5,8|0,0:0|0:0,0:0:0:0:
312,288,30820,2,0,L|240:280,1,72.5,8|0,0:0|0:0,0:0:0:0:
152,164,31179,6,0,P|222:149|265:202,1,145,8|8,0:0|0:0,0:0:0:0:
216,284,31718,1,0,0:0:0:0:
52,240,31898,1,8,0:0:0:0:
160,188,32077,1,0,0:0:0:0:
96,348,32257,1,8,0:0:0:0:
200,296,32437,1,0,0:0:0:0:
32,224,32616,6,0,L|44:80,2,145,8|8|8,0:0|0:0|0:0,0:0:0:0:
92,308,33514,1,0,0:0:0:0:
216,224,33694,2,0,P|212:188|200:152,1,72.5,8|0,0:0|0:0,0:0:0:0:
128,84,34053,6,0,P|200:108|240:60,1,145,8|8,0:0|0:0,0:0:0:0:
328,16,34592,1,0,0:0:0:0:
408,76,34772,2,0,P|404:112|392:148,1,72.5,8|0,0:0|0:0,0:0:0:0:
324,220,35131,2,0,P|336:256|356:288,1,72.5,8|0,0:0|0:0,0:0:0:0:
388,160,35491,6,0,P|320:188|256:160,2,145,10|8|8,0:0|0:0|0:0,0:0:0:0:
416,64,36389,1,0,0:0:0:0:
320,28,36568,2,0,L|248:40,1,72.5,8|0,0:0|0:0,0:0:0:0:
104,144,36928,5,8,0:0:0:0:
148,32,37107,1,0,0:0:0:0:
188,160,37287,1,8,0:0:0:0:
128,40,37467,1,0,0:0:0:0:
232,84,37646,5,0,1:0:0:0:
72,160,37826,1,0,1:0:0:0:
72,160,38365,6,0,P|68:196|68:232,1,72.5,12|0,0:0|0:0,0:0:0:0:
156,308,38724,2,0,L|228:296,1,72.5,0|0,1:0|0:0,0:0:0:0:
324,228,39083,1,8,0:0:0:0:
212,192,39263,1,8,0:0:0:0:
312,332,39443,2,0,L|384:344,1,72.5,0|0,1:0|0:0,0:0:0:0:
484,284,39802,6,0,P|508:216|480:152,1,145,8|0,0:0|1:0,0:0:0:0:
372,192,40341,2,0,P|300:208|244:168,1,145,2|8,0:0|0:0,0:0:0:0:
330,50,40880,2,0,P|326:86|318:122,1,72.5,0|0,1:0|0:0,0:0:0:0:
168,208,41239,6,0,P|160:172|160:136,1,72.5,8|0,0:0|0:0,0:0:0:0:
240,72,41598,1,0,1:0:0:0:
280,216,41778,2,0,L|268:288,1,72.5,0|8,0:0|0:0,0:0:0:0:
152,332,42137,1,8,0:0:0:0:
272,312,42317,2,0,P|310:316|344:324,1,72.5,0|0,1:0|0:0,0:0:0:0:
488,236,42676,6,0,P|424:204|364:236,1,145,8|0,0:0|1:0,0:0:0:0:
426,285,43215,2,0,P|442:249|446:141,1,145,2|8,0:0|0:0,0:0:0:0:
296,192,43754,2,0,P|332:200|372:204,1,72.5,0|0,1:0|0:0,0:0:0:0:
240,140,44113,6,0,L|248:248,1,108.750004148483,4|0,0:0|0:0,0:0:0:0:
192,312,44652,1,8,0:0:0:0:
320,348,44832,2,0,P|376:340|432:340,1,108.750004148483,0|0,1:0|0:0,0:0:0:0:
480,276,45371,1,8,0:0:0:0:
428,208,45550,6,0,P|432:176|440:152,2,54.3750020742417,0|8|0,0:0|0:0|0:0,0:0:0:0:
348,240,46089,1,8,0:0:0:0:
276,188,46269,2,0,L|272:132,1,54.3750020742417,0|0,1:0|0:0,0:0:0:0:
320,60,46628,1,2,0:0:0:0:
320,60,46808,1,2,0:0:0:0:
196,112,46988,6,0,B|140:120|140:120|88:112,1,108.750004148483,12|0,0:0|0:0,0:0:0:0:
8,76,47526,1,8,0:0:0:0:
0,212,47706,2,0,L|8:268,1,54.3750020742417,0|0,1:0|0:0,0:0:0:0:
76,341,48065,1,8,0:0:0:0:
204,288,48245,1,0,1:0:0:0:
215,266,48334,1,0,1:0:0:0:
223,243,48424,1,0,1:0:0:0:
227,220,48514,1,0,1:0:0:0:
228,195,48604,1,0,1:0:0:0:
226,171,48694,1,0,1:0:0:0:
220,148,48784,6,0,L|208:112,3,36.25,0|0|8|8,1:0|1:0|0:3|0:3,0:0:0:0:
112,100,49143,2,0,L|116:64,1,36.25,8|8,0:3|0:3,0:0:0:0:
96,208,49323,2,0,L|108:248,1,36.25,8|8,0:3|0:3,0:0:0:0:
148,340,49502,5,8,0:0:0:0:
181,325,49591,1,8,0:0:0:0:
216,321,49681,1,8,0:0:0:0:
252,330,49771,1,8,0:0:0:0:
282,348,49861,1,4,0:0:0:0:
256,192,49952,12,0,51299,0:0:0:0:
282,348,52017,5,0,1:0:0:0:
400,252,52197,1,0,1:0:0:0:
204,156,52377,1,0,0:0:0:0:
204,156,52467,1,0,0:0:0:0:
204,156,52556,6,0,B|200:200|200:200|212:256|212:256|208:300,1,145,4|0,0:0|0:0,0:0:0:0:
56,312,53095,2,0,P|36:280|24:248,1,72.5,0|0,1:0|0:0,0:0:0:0:
184,136,53455,1,8,0:0:0:0:
128,264,53634,1,8,0:0:0:0:
8,168,53814,1,0,1:0:0:0:
204,156,53994,1,0,0:0:0:0:
40,252,54173,5,8,0:0:0:0:
0,140,54353,2,0,P|4:104|16:68,1,72.5,8|0,0:0|1:0,0:0:0:0:
136,240,54712,2,0,P|144:280|144:312,1,72.5,0|8,0:0|0:0,0:0:0:0:
32,232,55071,1,8,0:0:0:0:
32,232,55161,1,0,0:0:0:0:
32,232,55251,1,0,1:0:0:0:
92,80,55431,6,0,L|236:96,1,145,12|8,0:0|0:0,0:0:0:0:
336,200,55970,1,0,1:0:0:0:
376,60,56149,1,0,0:0:0:0:
244,120,56329,1,8,0:0:0:0:
424,172,56508,1,8,0:0:0:0:
312,216,56688,1,0,1:0:0:0:
380,84,56868,1,0,0:0:0:0:
456,264,57047,6,0,L|384:260,1,72.5,8|8,0:0|0:0,0:0:0:0:
428,152,57407,1,0,1:0:0:0:
480,344,57586,2,0,L|332:336,1,145,0|8,0:0|0:0,0:0:0:0:
220,356,58125,1,0,1:0:0:0:
264,188,58305,6,0,P|336:176|380:232,1,145,12|8,0:0|0:0,0:0:0:0:
184,232,58844,2,0,P|176:196|176:160,1,72.5,0|0,1:0|0:0,0:0:0:0:
248,96,59203,1,8,0:0:0:0:
96,188,59383,1,8,0:0:0:0:
160,52,59562,1,0,1:0:0:0:
272,252,59742,6,0,L|200:248,1,72.5,12|0,0:0|0:0,0:0:0:0:
80,168,60101,2,0,P|68:132|64:96,1,72.5,8|0,0:0|1:0,0:0:0:0:
204,164,60461,2,0,P|201:200|192:236,1,72.5,0|8,0:0|0:0,0:0:0:0:
52,276,60820,1,8,0:0:0:0:
168,320,60999,1,0,1:0:0:0:
80,168,61179,1,0,0:0:0:0:
96,360,61359,6,0,L|240:348,1,145,8|0,0:0|1:0,0:0:0:0:
336,280,61898,1,0,0:0:0:0:
232,168,62077,1,8,0:0:0:0:
232,168,62257,1,8,0:0:0:0:
168,320,62437,1,0,1:0:0:0:
248,144,62616,6,0,P|244:104|232:72,1,72.5,12|0,0:0|0:0,0:0:0:0:
116,80,62976,1,8,0:3:0:0:
116,80,63155,1,0,1:0:0:0:
184,240,63335,2,0,L|256:232,1,72.5,12|0,0:0|0:0,0:0:0:0:
85,171,63694,2,0,L|13:167,1,72.5,12|0,0:0|1:0,0:0:0:0:
168,320,64053,6,0,L|311:303,1,145,12|8,0:0|0:0,0:0:0:0:
404,232,64592,2,0,P|412:196|412:160,1,72.5,0|0,1:0|0:0,0:0:0:0:
280,96,64952,1,8,0:0:0:0:
424,72,65131,1,8,0:0:0:0:
324,176,65311,1,0,1:0:0:0:
344,32,65491,1,0,0:0:0:0:
412,160,65670,5,8,0:0:0:0:
304,256,65850,2,0,L|232:252,1,72.5,0|0,0:0|1:0,0:0:0:0:
92,212,66209,2,0,L|100:284,1,72.5,0|8,0:0|0:0,0:0:0:0:
232,168,66568,1,8,0:0:0:0:
232,168,66658,1,0,0:0:0:0:
232,168,66748,1,0,1:0:0:0:
184,344,66928,6,0,P|116:320|56:356,1,145,12|8,0:0|0:0,0:0:0:0:
92,212,67467,2,0,P|96:176|96:140,1,72.5,0|0,1:0|0:0,0:0:0:0:
216,56,67826,1,8,0:0:0:0:
88,120,68005,1,8,0:0:0:0:
124,16,68185,1,0,1:0:0:0:
204,152,68365,1,0,0:0:0:0:
68,104,68544,5,8,0:0:0:0:
236,36,68724,2,0,P|260:68|276:104,1,72.5,0|0,0:0|1:0,0:0:0:0:
348,224,69083,2,0,B|312:220|312:220|240:236|240:236|204:232,1,145,0|8,0:0|0:0,0:0:0:0:
124,148,69622,1,0,1:0:0:0:
116,344,69802,6,0,P|188:360|232:308,1,145,12|8,0:0|0:0,0:0:0:0:
56,220,70341,2,0,P|48:256|44:296,1,72.5,0|0,1:0|0:0,0:0:0:0:
156,264,70700,1,8,0:0:0:0:
64,204,70880,1,8,0:0:0:0:
192,76,71059,1,0,1:0:0:0:
248,288,71239,6,0,P|213:283|176:284,1,72.5,12|0,0:0|0:0,0:0:0:0:
344,336,71598,2,0,P|360:304|368:268,1,72.5,8|0,0:0|1:0,0:0:0:0:
248,128,71958,2,0,P|252:164|264:200,1,72.5,0|8,0:0|0:0,0:0:0:0:
368,248,72317,2,0,L|440:244,1,72.5,8|0,0:0|1:0,0:0:0:0:
496,160,72676,1,0,0:0:0:0:
452,328,72856,5,8,0:0:0:0:
452,328,73035,1,8,0:0:0:0:
344,240,73215,2,0,P|308:244|272:256,1,72.5,0|0,1:0|0:0,0:0:0:0:
200,328,73574,1,8,0:0:0:0:
280,172,73754,1,8,0:0:0:0:
332,324,73934,1,0,1:0:0:0:
156,224,74113,6,0,P|140:152|140:80,1,145,12|8,0:0|0:0,0:0:0:0:
280,16,74652,2,0,P|276:52|268:88,1,72.5,0|0,1:0|0:0,0:0:0:0:
280,232,75011,1,0,1:0:0:0:
299,213,75100,1,0,1:0:0:0:
324,201,75190,1,0,1:0:0:0:
350,196,75280,1,0,1:0:0:0:
377,198,75370,1,0,1:0:0:0:
403,207,75460,1,0,1:0:0:0:
424,223,75549,1,0,1:0:0:0:
441,245,75639,1,0,1:0:0:0:
451,270,75730,6,0,L|440:344,1,72.5,12|0,0:0|0:0,0:0:0:0:
280,232,76089,2,0,L|272:160,1,72.5,0|0,1:0|0:0,0:0:0:0:
271,159,76359,1,8,0:0:0:0:
271,159,76449,1,0,0:0:0:0:
392,120,76628,1,8,0:0:0:0:
356,300,76808,2,0,P|320:305|286:318,1,72.5,0|0,1:0|0:0,0:0:0:0:
116,296,77167,6,0,P|104:260|96:224,1,72.5,8|0,0:0|0:0,0:0:0:0:
232,112,77526,2,0,P|232:148|228:184,1,72.5,0|0,1:0|0:0,0:0:0:0:
227,184,77796,1,8,0:0:0:0:
227,184,77886,1,0,0:0:0:0:
104,196,78065,1,8,0:0:0:0:
108,36,78245,2,0,P|148:44|180:48,1,72.5,0|0,1:0|0:0,0:0:0:0:
376,48,78604,6,0,P|312:36|260:88,1,145,12|0,0:0|1:0,0:0:0:0:
476,96,79143,2,0,L|468:24,1,72.5,12|0,0:0|0:0,0:0:0:0:
332,108,79502,2,0,L|328:180,1,72.5,12|0,0:0|1:0,0:0:0:0:
472,280,79862,6,0,P|484:244|420:172,1,145,12|8,0:0|0:0,0:0:0:0:
320,292,80401,2,0,P|284:300|248:304,1,72.5,0|0,1:0|0:0,0:0:0:0:
248,303,80670,1,0,0:0:0:0:
248,303,80760,1,8,0:0:0:0:
112,244,80940,1,8,0:0:0:0:
256,212,81119,1,0,1:0:0:0:
160,344,81299,1,0,0:0:0:0:
96,224,81479,5,4,1:2:0:0:
248,303,81658,1,8,0:0:0:0:
200,128,81838,1,8,0:0:0:0:
156,296,82017,1,4,1:2:0:0:
296,200,82197,1,8,0:0:0:0:
108,136,82377,1,8,0:0:0:0:
200,220,82556,5,4,1:2:0:0:
288,108,82736,2,0,P|296:72|292:28,1,72.5,8|8,0:0|0:0,0:0:0:0:
200,128,83095,1,4,1:2:0:0:
304,220,83275,2,0,L|376:212,1,72.5,8|8,0:0|0:0,0:0:0:0:
492,200,83634,5,0,1:2:0:0:
396,308,83814,1,8,0:0:0:0:
344,132,83994,2,0,P|348:92|356:60,1,72.5,8|0,0:0|0:0,0:0:0:0:
448,52,84353,5,4,1:2:0:0:
256,96,84532,2,0,L|220:92,2,36.25,8|8|8,0:0|0:0|0:0,0:0:0:0:
492,200,84892,5,4,1:2:0:0:
300,244,85071,2,0,L|264:240,2,36.25,8|8|8,0:0|0:0|0:0,0:0:0:0:
355,60,85431,5,4,1:2:0:0:
440,253,85610,1,8,0:0:0:0:
436,274,85700,1,8,0:0:0:0:
432,295,85790,1,8,0:0:0:0:
304,206,85970,5,4,1:2:0:0:
488,172,86149,1,8,0:0:0:0:
336,320,86329,1,8,0:0:0:0:
384,136,86508,5,0,1:0:0:0:
404,216,86688,1,8,0:0:0:0:
432,295,86868,1,8,0:0:0:0:
432,295,87227,5,4,1:2:0:0:
160,272,87407,1,0,1:0:0:0:
384,136,87586,5,0,1:0:0:0:
148,248,87766,1,0,1:0:0:0:
336,356,87946,5,0,1:0:0:0:
276,256,88125,1,8,0:0:0:0:
220,356,88305,1,0,1:0:0:0:
360,248,88485,2,0,P|372:212|376:176,1,72.5,12|0,0:0|0:0,0:0:0:0:
208,72,88844,2,0,P|212:108|220:144,1,72.5,12|0,0:0|1:0,0:0:0:0:
328,80,89203,5,8,0:0:0:0:
350,71,89292,1,8,0:0:0:0:
374,67,89382,1,8,0:0:0:0:
398,69,89472,1,8,0:0:0:0:
421,77,89562,1,8,0:0:0:0:
441,89,89652,1,8,0:0:0:0:
460,108,89742,2,0,L|448:180,1,72.5,8|8,0:0|0:0,0:0:0:0:
340,320,90101,5,4,1:2:0:0:
108,272,90281,1,0,1:0:0:0:
344,180,90461,5,0,1:0:0:0:
96,248,90640,1,0,1:0:0:0:
352,340,90820,5,0,1:0:0:0:
352,340,91179,5,0,1:0:0:0:
256,104,91359,1,12,0:0:0:0:
256,192,91538,12,0,97287,0:0:0:0:
