osu file format v14

[General]
AudioFilename: Mirai e no Tobira (OVA EDIT).mp3
AudioLeadIn: 0
PreviewTime: 52017
Countdown: 0
SampleSet: Soft
StackLeniency: 0.7
Mode: 0
LetterboxInBreaks: 0
WidescreenStoryboard: 0

[Editor]
DistanceSpacing: 1.5
BeatDivisor: 4
GridSize: 4
TimelineZoom: 1.9

[Metadata]
Title:Mirai e no Tobira (OVA EDIT)
TitleUnicode:未来への扉(OVA EDIT)
Artist:eyelis
ArtistUnicode:eyelis
Creator:Bearizm
Version:Hard
Source:神のみぞ知るセカイ 天理篇
Tags:Kami nomi zo Shiru Sekai Tenri-hen The World God Only Knows Tenri Arc TWGOK KamiNomi
BeatmapID:783666
BeatmapSetID:356039

[Difficulty]
HPDrainRate:6
CircleSize:4
OverallDifficulty:6
ApproachRate:7.5
SliderMultiplier:1.2
SliderTickRate:1

[Events]
//Background and Video events
0,0,"bg.jpg",0,0
//Break Periods
//Storyboard Layer 0 (Background)
//Storyboard Layer 1 (Fail)
//Storyboard Layer 2 (Pass)
//Storyboard Layer 3 (Foreground)
//Storyboard Sound Samples

[TimingPoints]
1000,359.281437125748,4,2,1,40,1,0
1000,-133.333333333333,4,2,1,40,0,0
14652,-100,4,2,1,70,0,0
15371,-100,4,2,1,80,0,0
26868,-100,4,2,1,70,0,0
44113,-133.333333333333,4,2,1,70,0,0
48065,-100,4,2,1,70,0,0
51299,-100,4,2,1,5,0,0
52017,-100,4,2,1,70,0,0
52556,-100,4,2,1,80,0,1
91359,-100,4,2,1,80,0,0
91538,-100,4,2,1,40,0,0
97287,-100,4,2,1,5,0,0

[Colours]
Combo1 : 255,255,0
Combo2 : 128,255,255
Combo3 : 18,124,255
Combo4 : 0,234,0

[HitObjects]
408,24,1000,6,0,L|318:32|318:32,1,90.0000034332276,2|0,0:0|0:0,0:0:0:0:
277,101,1538,1,2,0:0:0:0:
326,166,1718,2,0,B|330:210|330:210|322:258,1,90.0000034332277,0|2,0:0|0:0,0:0:0:0:
323,255,2437,6,0,P|366:266|414:262,1,90.0000034332277,0|2,0:0|0:0,0:0:0:0:
454,194,2976,1,2,0:0:0:0:
410,126,3155,2,0,L|362:130,1,45.0000017166138,2|0,0:0|0:0,0:0:0:0:
293,167,3514,2,0,L|245:163,1,45.0000017166138,2|0,0:0|0:0,0:0:0:0:
162,118,3874,6,0,B|166:142|166:142|158:186|158:186|162:206,1,90.0000034332277,2|0,0:0|0:0,0:0:0:0:
224,258,4413,1,2,0:0:0:0:
192,332,4592,2,0,L|100:324,1,90.0000034332277,0|2,0:0|0:0,0:0:0:0:
102,324,5311,6,0,P|92:280|100:236,1,90.0000034332277,2|2,0:0|0:0,0:0:0:0:
146,170,5850,1,0,0:0:0:0:
88,113,6029,2,0,L|40:117,2,45.0000017166138,2|2|2,0:0|0:0|0:0,0:0:0:0:
158,152,6568,1,2,0:0:0:0:
220,99,6748,6,0,L|266:97,1,45.0000017166138,2|0,0:0|0:0,0:0:0:0:
245,175,7107,2,0,L|291:173,1,45.0000017166138,0|2,0:0|0:0,0:0:0:0:
388,244,7467,2,0,L|342:242,1,45.0000017166138,0|0,0:0|0:0,0:0:0:0:
364,320,7826,2,0,L|318:318,1,45.0000017166138,0|2,0:0|0:0,0:0:0:0:
240,300,8185,6,0,L|148:312,2,90.0000034332277,0|2|2,0:0|0:0|0:0,0:0:0:0:
312,263,9083,1,0,0:0:0:0:
340,187,9263,2,0,P|336:163|328:143,1,45.0000017166138,0|0,0:0|0:0,0:0:0:0:
248,136,9622,6,0,P|204:144|160:132,1,90.0000034332277,2|0,0:0|0:0,0:0:0:0:
85,102,10161,2,0,L|93:194,1,90.0000034332277,2|0,0:0|0:0,0:0:0:0:
55,263,10700,1,2,0:0:0:0:
121,310,10880,6,0,L|217:302,1,90.0000034332277,2|0,0:0|0:0,0:0:0:0:
264,240,11419,1,2,0:0:0:0:
340,265,11598,2,0,P|352:309|348:353,1,90.0000034332277,2|0,0:0|0:0,0:0:0:0:
267,361,12137,2,0,L|259:317,1,45.0000017166138,2|2,0:0|0:0,0:0:0:0:
268,224,12497,6,0,L|276:132,1,90.0000034332277,2|0,0:0|0:0,0:0:0:0:
324,72,13035,2,0,P|280:80|236:68,1,90.0000034332277,2|2,0:0|0:0,0:0:0:0:
172,20,13574,1,0,0:0:0:0:
76,80,13754,2,0,L|84:172,1,90.0000034332277,2|0,0:0|0:0,0:0:0:0:
83,169,14652,5,0,1:0:0:0:
44,284,14832,1,0,1:0:0:0:
120,332,15011,2,0,L|124:364,3,30,0|0|0|0,0:0|0:0|0:0|0:0,0:0:0:0:
132,300,15371,6,0,P|184:272|244:284,1,120,12|0,0:0|1:0,0:0:0:0:
301,349,15910,1,0,0:0:0:0:
376,300,16089,2,0,P|380:268|380:240,1,60,8|8,0:0|0:0,0:0:0:0:
316,176,16449,2,0,L|256:180,1,60,0|0,1:0|0:0,0:0:0:0:
172,216,16808,6,0,L|180:96,1,120,8|0,0:0|1:0,0:0:0:0:
248,36,17347,1,0,0:0:0:0:
316,96,17526,1,8,0:0:0:0:
316,96,17706,1,8,0:0:0:0:
392,44,17886,2,0,L|452:48,1,60,0|0,1:0|0:0,0:0:0:0:
504,120,18245,6,0,B|508:152|508:152|500:212|500:212|504:240,1,120,12|0,0:0|1:0,0:0:0:0:
448,308,18784,1,0,0:0:0:0:
372,260,18964,2,0,L|312:256,1,60,8|8,0:0|0:0,0:0:0:0:
232,296,19323,2,0,P|200:304|172:308,1,60,0|0,1:0|0:0,0:0:0:0:
92,268,19682,6,0,L|112:148,1,120,8|0,0:0|1:0,0:0:0:0:
56,80,20221,1,0,0:0:0:0:
124,136,20401,2,0,P|156:136|184:132,1,60,8|8,0:0|0:0,0:0:0:0:
244,64,20760,1,0,1:0:0:0:
244,64,20940,1,0,0:0:0:0:
320,112,21119,6,0,B|332:196|332:196|324:236,1,120,12|0,0:0|1:0,0:0:0:0:
260,292,21658,1,0,0:0:0:0:
184,240,21838,2,0,L|180:180,2,60,8|8|0,0:0|0:0|1:0,0:0:0:0:
132,316,22377,1,0,0:0:0:0:
52,276,22556,6,0,P|32:220|52:164,1,120,8|0,0:0|1:0,0:0:0:0:
128,120,23095,2,0,L|188:128,1,60,2|8,0:0|0:0,0:0:0:0:
256,184,23455,1,10,0:0:0:0:
256,184,23634,2,0,L|316:176,1,60,0|0,1:0|0:0,0:0:0:0:
376,108,23994,6,0,B|364:192|364:192|372:232,1,120,12|0,0:0|1:0,0:0:0:0:
436,288,24532,2,0,P|416:312|396:332,1,60,8|0,0:0|0:0,0:0:0:0:
308,356,24892,2,0,L|248:348,1,60,8|0,0:0|1:0,0:0:0:0:
264,260,25251,1,12,0:0:0:0:
256,192,25431,12,0,26508,1:0:0:0:
264,260,26868,6,0,L|324:256,1,60,8|0,0:0|0:0,0:0:0:0:
392,196,27227,2,0,P|400:164|400:136,1,60,8|0,0:0|0:0,0:0:0:0:
356,60,27586,2,0,B|324:64|324:64|296:60,1,60,8|0,0:0|0:0,0:0:0:0:
208,76,27946,2,0,P|192:104|184:132,1,60,8|0,0:0|0:0,0:0:0:0:
236,204,28305,6,0,P|180:180|124:200,2,120,8|8|8,0:0|0:0|0:0,0:0:0:0:
260,292,29203,1,0,0:0:0:0:
180,332,29383,2,0,L|120:324,1,60,8|0,0:0|0:0,0:0:0:0:
52,268,29742,6,0,P|44:240|40:208,1,60,8|0,0:0|0:0,0:0:0:0:
108,152,30101,2,0,L|112:92,1,60,8|0,0:0|0:0,0:0:0:0:
180,32,30461,2,0,P|212:33|239:38,1,60,8|0,0:0|0:0,0:0:0:0:
308,96,30820,2,0,L|368:88,1,60,8|0,0:0|0:0,0:0:0:0:
448,44,31179,6,0,B|444:76|444:76|456:132|456:132|456:164,1,120,8|8,0:0|0:0,0:0:0:0:
436,252,31718,1,0,0:0:0:0:
372,188,31898,1,8,0:0:0:0:
420,264,32077,1,0,0:0:0:0:
348,320,32257,2,0,L|288:324,1,60,8|0,0:0|0:0,0:0:0:0:
196,324,32616,6,0,P|184:296|180:264,1,60,8|0,0:0|0:0,0:0:0:0:
91,248,32976,2,0,P|102:219|122:194,1,60,8|0,0:0|0:0,0:0:0:0:
71,120,33335,2,0,P|99:108|131:104,1,60,8|0,0:0|0:0,0:0:0:0:
146,15,33694,2,0,P|174:26|199:46,1,60,8|0,0:0|0:0,0:0:0:0:
260,108,34053,6,0,P|320:116|372:88,2,120,8|8|8,0:0|0:0|0:0,0:0:0:0:
176,144,34952,1,0,0:0:0:0:
160,232,35131,2,0,L|168:292,1,60,8|0,0:0|0:0,0:0:0:0:
244,340,35491,6,0,B|276:336|276:336|336:344|336:344|364:340,2,120,10|8|8,0:0|0:0|0:0,0:0:0:0:
76,280,36568,1,8,0:0:0:0:
216,168,36928,6,0,P|224:140|228:108,1,60,8|0,0:0|0:0,0:0:0:0:
124,168,37287,2,0,P|128:200|136:228,1,60,8|0,0:0|0:0,0:0:0:0:
220,260,37646,1,0,1:0:0:0:
308,176,37826,1,0,1:0:0:0:
308,176,38365,6,0,L|304:236,1,60,12|0,0:0|0:0,0:0:0:0:
364,300,38724,2,0,P|396:304|424:300,1,60,0|0,1:0|0:0,0:0:0:0:
480,232,39083,1,8,0:0:0:0:
480,232,39263,1,8,0:0:0:0:
412,172,39443,2,0,P|412:140|420:112,1,60,0|0,1:0|0:0,0:0:0:0:
488,56,39802,6,0,P|428:68|380:36,1,120,8|0,0:0|1:0,0:0:0:0:
292,28,40341,2,0,P|280:88|280:148,1,120,2|8,0:0|0:0,0:0:0:0:
300,236,40880,2,0,P|284:264|264:288,1,60,0|0,1:0|0:0,0:0:0:0:
180,312,41239,6,0,L|120:308,1,60,8|0,0:0|0:0,0:0:0:0:
44,264,41598,1,0,1:0:0:0:
44,264,41778,2,0,B|40:232|40:232|52:176|52:176|48:144,1,120,0|8,0:0|0:0,0:0:0:0:
100,72,42317,1,0,1:0:0:0:
100,72,42497,1,0,0:0:0:0:
168,132,42676,6,0,P|228:148|276:120,1,120,8|0,0:0|1:0,0:0:0:0:
336,56,43215,2,0,B|328:116|328:116|336:176,1,120,2|8,0:0|0:0,0:0:0:0:
376,256,43754,2,0,P|368:284|352:312,1,60,0|0,1:0|0:0,0:0:0:0:
276,336,44113,6,0,L|184:328,1,90.0000034332277,4|0,0:0|0:0,0:0:0:0:
112,356,44652,1,8,0:0:0:0:
56,296,44832,2,0,L|48:204,1,90.0000034332277,0|0,1:0|0:0,0:0:0:0:
4,136,45371,1,8,0:0:0:0:
72,92,45550,6,0,L|68:48,2,45.0000017166138,0|8|0,0:0|0:0|0:0,0:0:0:0:
144,128,46089,1,8,0:0:0:0:
144,128,46269,2,0,P|168:132|188:132,1,45.0000017166138,0|0,1:0|0:0,0:0:0:0:
268,112,46628,1,2,0:0:0:0:
308,40,46808,1,2,0:0:0:0:
292,120,46988,6,0,L|304:212,1,90.0000034332277,12|0,0:0|0:0,0:0:0:0:
272,284,47526,1,8,0:0:0:0:
340,328,47706,2,0,L|432:320,1,90.0000034332277,0|8,1:0|0:0,0:0:0:0:
492,232,48245,1,0,1:0:0:0:
489,214,48335,1,0,1:0:0:0:
486,196,48425,6,0,L|492:164,3,30,0|0|0|0,1:0|1:0|1:0|1:0,0:0:0:0:
412,176,48784,2,0,L|418:144,3,30,0|0|8|8,1:0|1:0|0:3|0:3,0:0:0:0:
340,152,49143,2,0,L|346:120,3,30,8|8|8|8,0:3|0:3|0:3|0:3,0:0:0:0:
268,128,49502,2,0,L|274:96,3,30,8|8|8|8,0:0|0:0|0:0|0:0,0:0:0:0:
248,204,49862,1,4,0:0:0:0:
256,192,49952,12,0,51299,0:0:0:0:
248,204,52017,5,0,1:0:0:0:
352,144,52197,1,0,1:0:0:0:
352,144,52556,6,0,B|348:176|348:176|360:232|360:232|356:264,1,120,4|0,0:0|0:0,0:0:0:0:
288,320,53095,2,0,P|256:324|224:320,1,60,0|0,1:0|0:0,0:0:0:0:
148,284,53455,1,8,0:0:0:0:
68,324,53634,1,8,0:0:0:0:
136,264,53814,2,0,L|140:204,1,60,0|0,1:0|0:0,0:0:0:0:
92,128,54173,6,0,L|88:68,2,60,8|8|0,0:0|0:0|1:0,0:0:0:0:
156,188,54712,2,0,P|216:200|264:168,1,120,0|8,0:0|0:0,0:0:0:0:
308,92,55251,1,0,1:0:0:0:
368,182,55431,6,0,L|360:302,1,120,12|8,0:0|0:0,0:0:0:0:
276,332,55970,2,0,P|246:328|217:320,1,60,0|0,1:0|0:0,0:0:0:0:
128,300,56329,2,0,P|100:308|72:324,1,60,8|8,0:0|0:0,0:0:0:0:
4,264,56688,2,0,L|12:204,1,60,0|0,1:0|0:0,0:0:0:0:
72,140,57047,5,8,0:0:0:0:
148,188,57227,2,0,P|156:220|160:252,1,60,8|0,0:0|1:0,0:0:0:0:
112,324,57586,2,0,P|168:300|224:312,1,120,0|8,0:0|0:0,0:0:0:0:
304,356,58125,1,0,1:0:0:0:
380,280,58305,6,0,B|392:220|392:220|380:160,1,120,12|8,0:0|0:0,0:0:0:0:
312,104,58844,2,0,P|280:100|252:100,1,60,0|0,1:0|0:0,0:0:0:0:
171,139,59203,2,0,L|111:143,2,60,8|8|0,0:0|0:0|1:0,0:0:0:0:
256,204,59742,6,0,B|260:236|260:236|248:292|248:292|252:324,1,120,12|8,0:0|0:0,0:0:0:0:
332,360,60281,2,0,P|392:364|436:328,1,120,0|8,1:0|0:0,0:0:0:0:
460,240,60820,1,8,0:0:0:0:
373,219,60999,2,0,P|365:248|365:278,1,60,0|0,1:0|0:0,0:0:0:0:
472,216,61359,6,0,L|460:96,2,120,8|0|8,0:0|1:0|0:0,0:0:0:0:
424,292,62257,1,8,0:0:0:0:
373,219,62437,1,0,1:0:0:0:
296,296,62616,6,0,L|236:292,1,60,12|0,0:0|0:0,0:0:0:0:
160,340,62976,1,8,0:3:0:0:
92,280,63155,1,0,1:0:0:0:
144,208,63335,2,0,L|204:204,1,60,12|0,0:0|0:0,0:0:0:0:
80,140,63694,2,0,L|20:136,1,60,12|0,0:0|1:0,0:0:0:0:
144,72,64053,6,0,L|264:64,1,120,12|8,0:0|0:0,0:0:0:0:
344,104,64592,2,0,P|344:136|340:168,1,60,0|0,1:0|0:0,0:0:0:0:
288,236,64952,2,0,L|296:296,2,60,8|8|0,0:0|0:0|1:0,0:0:0:0:
216,184,65491,1,0,0:0:0:0:
144,236,65670,6,0,P|112:240|84:236,1,60,8|0,0:0|0:0,0:0:0:0:
16,176,66029,2,0,L|12:116,1,60,0|0,1:0|0:0,0:0:0:0:
88,64,66389,2,0,L|96:4,2,60,8|8|0,0:0|0:0|1:0,0:0:0:0:
139,159,66928,6,0,P|199:143|247:171,1,120,12|8,0:0|0:0,0:0:0:0:
336,172,67467,2,0,P|354:148|366:118,1,60,0|0,1:0|0:0,0:0:0:0:
444,72,67826,2,0,L|460:132,1,60,8|8,0:0|0:0,0:0:0:0:
424,212,68185,1,0,1:0:0:0:
488,272,68365,1,0,0:0:0:0:
412,320,68544,6,0,L|352:312,1,60,8|0,0:0|0:0,0:0:0:0:
268,348,68904,1,0,1:0:0:0:
200,288,69083,2,0,L|192:168,1,120,0|8,0:0|0:0,0:0:0:0:
140,92,69622,1,0,1:0:0:0:
221,163,69802,6,0,P|281:175|329:147,1,120,12|8,0:0|0:0,0:0:0:0:
416,124,70341,2,0,P|424:156|428:192,1,60,0|0,1:0|0:0,0:0:0:0:
432,272,70700,2,0,L|492:268,2,60,8|8|0,0:0|0:0|1:0,0:0:0:0:
348,340,71239,6,0,L|228:324,1,120,12|8,0:0|0:0,0:0:0:0:
172,256,71778,2,0,P|164:224|160:196,1,60,0|0,1:0|0:0,0:0:0:0:
220,128,72137,1,8,0:0:0:0:
220,128,72317,1,8,0:0:0:0:
152,68,72497,1,0,1:0:0:0:
232,112,72676,1,0,0:0:0:0:
312,72,72856,6,0,P|328:40|332:16,1,60,8|8,0:0|0:0,0:0:0:0:
232,112,73215,2,0,L|254:232,1,120,0|8,1:0|0:0,0:0:0:0:
328,284,73754,1,8,0:0:0:0:
256,336,73934,1,0,1:0:0:0:
360,304,74113,6,0,B|392:304|420:316|420:316|448:308|472:288,1,120,12|8,0:0|0:0,0:0:0:0:
480,200,74652,2,0,L|472:140,1,60,0|0,1:0|0:0,0:0:0:0:
420,68,75011,2,0,L|424:36,3,30,0|0|0|0,1:0|1:0|1:0|1:0,0:0:0:0:
360,120,75371,2,0,L|364:152,3,30,0|0|0|0,1:0|1:0|1:0|1:0,0:0:0:0:
304,64,75730,6,0,P|248:44|192:60,1,120,12|0,0:0|1:0,0:0:0:0:
148,140,76269,1,0,0:0:0:0:
216,196,76449,2,0,L|276:188,1,60,0|8,0:0|0:0,0:0:0:0:
360,216,76808,2,0,P|356:248|348:276,1,60,0|0,1:0|0:0,0:0:0:0:
288,344,77167,6,0,P|344:324|400:348,1,120,8|0,0:0|1:0,0:0:0:0:
488,348,77706,1,0,0:0:0:0:
448,268,77886,2,0,P|452:236|460:208,1,60,0|8,0:0|0:0,0:0:0:0:
500,128,78245,2,0,L|476:72,1,60,0|0,1:0|0:0,0:0:0:0:
376,32,78604,6,0,P|320:52|268:24,1,120,12|0,0:0|1:0,0:0:0:0:
169,68,79143,2,0,P|161:96|157:128,1,60,12|0,0:0|0:0,0:0:0:0:
257,167,79502,2,0,P|257:135|249:103,1,60,12|0,0:0|1:0,0:0:0:0:
212,228,79862,6,0,P|268:212|324:232,1,120,12|8,0:0|0:0,0:0:0:0:
404,276,80401,2,0,L|412:216,1,60,0|0,1:0|0:0,0:0:0:0:
476,156,80760,1,8,0:0:0:0:
476,156,80940,1,8,0:0:0:0:
420,88,81119,2,0,P|388:80|360:80,1,60,0|0,1:0|0:0,0:0:0:0:
262,126,81479,6,0,L|202:118,2,60,4|8|8,1:2|0:0|0:0,0:0:0:0:
332,182,82017,2,0,L|392:178,2,60,4|8|8,1:2|0:0|0:0,0:0:0:0:
248,216,82556,1,4,1:2:0:0:
296,292,82736,2,0,P|288:324|276:348,1,60,8|8,0:0|0:0,0:0:0:0:
184,356,83095,2,0,L|120:352,1,60,4|8,1:2|0:0,0:0:0:0:
56,292,83455,1,8,0:0:0:0:
104,216,83634,5,0,1:2:0:0:
24,172,83814,1,8,0:0:0:0:
24,172,83994,2,0,L|16:112,1,60,8|0,0:0|0:0,0:0:0:0:
80,25,84353,5,4,1:2:0:0:
148,84,84532,2,0,P|180:84|208:80,1,60,8|8,0:0|0:0,0:0:0:0:
284,32,84892,1,4,1:2:0:0:
348,96,85071,1,8,0:0:0:0:
348,96,85251,1,8,0:0:0:0:
304,176,85431,2,0,L|244:168,2,60,4|8|8,1:2|0:0|0:0,0:0:0:0:
376,228,85970,2,0,L|436:220,2,60,4|8|8,1:2|0:0|0:0,0:0:0:0:
304,284,86508,5,0,1:0:0:0:
224,244,86688,1,8,0:0:0:0:
229,334,86868,1,8,0:0:0:0:
229,334,87227,6,0,L|168:328,1,60,4|0,1:2|1:0,0:0:0:0:
96,276,87586,1,0,1:0:0:0:
144,200,87766,1,0,1:0:0:0:
40,164,87946,2,0,P|32:136|28:104,1,60,0|8,1:0|0:0,0:0:0:0:
92,40,88305,1,0,1:0:0:0:
180,104,88485,6,0,L|244:108,1,60,12|0,0:0|0:0,0:0:0:0:
316,32,88844,2,0,L|376:28,1,60,12|0,0:0|1:0,0:0:0:0:
432,100,89203,1,8,0:0:0:0:
434,117,89293,1,8,0:0:0:0:
436,136,89383,2,0,L|429:197,1,60,8|8,0:0|0:0,0:0:0:0:
360,252,89742,2,0,P|328:260|300:264,1,60,8|8,0:0|0:0,0:0:0:0:
216,228,90101,5,4,1:2:0:0:
160,160,90281,1,0,1:0:0:0:
76,196,90461,1,0,1:0:0:0:
80,284,90640,1,0,1:0:0:0:
168,304,90820,1,0,1:0:0:0:
168,304,91179,5,0,1:0:0:0:
227,213,91359,1,12,0:0:0:0:
256,192,91538,12,0,97287,0:0:0:0:
