osu file format v14

[General]
AudioFilename: Kizuna ni Nosetetv.mp3
AudioLeadIn: 0
PreviewTime: 62514
Countdown: 0
SampleSet: Soft
StackLeniency: 0.7
Mode: 0
LetterboxInBreaks: 0
WidescreenStoryboard: 0

[Editor]
Bookmarks: 34279,48396
DistanceSpacing: 1.1
BeatDivisor: 4
GridSize: 4
TimelineZoom: 1

[Metadata]
Title:Kizuna ni Nosete (TV EDIT)
TitleUnicode:絆にのせて(TV EDIT)
Artist:eyelis
ArtistUnicode:eyelis
Creator:Rizia
Version:SnowWhite
Source:赤髪の白雪姫
Tags:Akagami no Shirayukihime Snow White with the Red Hair ending kawaiwkyik flask - e n j u - enju enjoy -_E_n_j_u_-
BeatmapID:741840
BeatmapSetID:335107

[Difficulty]
HPDrainRate:6
CircleSize:4
OverallDifficulty:8
ApproachRate:8
SliderMultiplier:1.8
SliderTickRate:1

[Events]
//Background and Video events
0,0,"Akagami.no.Shirayukihime.full.1728265.jpg",0,0
Video,0,"[Ohys-Raws] Akagami no Shirayukihime - ED (MX 1280x720 x264 AAC).avi"
//Break Periods
//Storyboard Layer 0 (Background)
//Storyboard Layer 1 (Fail)
//Storyboard Layer 2 (Pass)
//Storyboard Layer 3 (Foreground)
//Storyboard Sound Samples

[TimingPoints]
750,441.176470588235,3,2,1,60,1,0
3397,-100,3,2,1,40,0,0
3617,-100,3,2,1,60,0,0
4499,-100,3,2,1,50,0,0
4720,-200,3,2,1,60,0,0
6044,441.176470588235,4,2,1,40,1,0
6154,-100,4,2,1,60,0,0
13543,-100,4,2,1,30,0,0
13985,-100,4,2,1,40,0,0
14426,-100,4,2,1,60,0,0
14867,-100,4,2,1,30,0,0
16191,-100,4,2,19,50,0,0
16632,-100,4,2,1,50,0,0
16852,-100,4,2,1,60,0,0
55455,-133.333333333333,4,2,1,60,0,0
58985,-200,4,2,1,60,0,0
60749,-100,4,2,1,30,0,0
61632,-100,4,2,1,40,0,0
61852,-100,4,2,1,50,0,0
62073,-100,4,2,1,60,0,0
62514,-100,4,2,1,70,0,1
84132,-100,4,2,1,40,0,1
84573,-100,4,2,1,50,0,1
84793,-100,4,2,1,60,0,1
85014,-100,4,2,1,70,0,1
85566,-100,4,2,1,20,0,0

[Colours]
Combo1 : 0,0,255
Combo2 : 255,0,0
Combo3 : 0,128,0
Combo4 : 255,128,0

[HitObjects]
108,92,750,5,2,0:0:0:0:
224,212,970,1,0,0:0:0:0:
96,260,1191,1,2,0:0:0:0:
212,116,1411,1,0,0:0:0:0:
380,200,1632,1,2,0:0:0:0:
288,276,1852,1,0,0:0:0:0:
312,140,2073,5,2,0:0:0:0:
244,344,2294,1,0,0:0:0:0:
192,216,2514,1,2,0:0:0:0:
328,368,2735,1,0,0:0:0:0:
140,300,2955,1,2,0:0:0:0:
372,232,3176,5,2,0:0:0:0:
372,232,3286,1,2,0:0:0:0:
372,232,3397,1,4,0:0:0:0:
356,328,3617,1,0,0:0:0:0:
464,196,3838,1,2,0:0:0:0:
448,100,4058,1,0,0:0:0:0:
320,172,4279,5,0,0:0:0:0:
208,84,4499,1,8,0:0:0:0:
84,156,4720,6,0,B|52:184|48:236|48:236|88:216|140:220|172:272,1,225,8|0,0:0|0:0,0:0:0:0:
260,260,6044,6,0,P|272:176|232:116,1,135,4|0,0:0|0:0,0:0:0:0:
200,152,6485,2,0,P|155:151|111:140,1,90,2|0,0:0|0:0,0:0:0:0:
40,72,6926,1,0,0:0:0:0:
136,44,7146,1,0,0:0:0:0:
20,168,7367,1,2,0:0:0:0:
84,328,7588,5,0,0:0:0:0:
84,328,7698,1,0,0:0:0:0:
84,328,7808,2,0,P|128:312|212:344,1,135
240,376,8249,2,0,L|252:280,1,90,2|0,0:0|0:0,0:0:0:0:
336,216,8691,2,0,L|347:305,1,90,2|0,0:0|0:0,0:0:0:0:
152,204,9132,2,0,L|163:114,1,90,2|0,0:0|0:0,0:0:0:0:
376,68,9573,6,0,P|396:108|368:200,1,135
336,216,10014,2,0,L|246:204,1,90,2|0,0:0|0:0,0:0:0:0:
84,264,10455,2,0,P|60:202|83:139,1,135
120,112,10896,2,0,L|209:100,1,90,2|0,0:0|0:0,0:0:0:0:
436,80,11338,5,0,0:0:0:0:
304,48,11558,1,0,0:0:0:0:
272,180,11779,1,2,0:0:0:0:
404,212,11999,1,0,0:0:0:0:
320,124,12220,1,0,0:0:0:0:
200,252,12441,1,0,0:0:0:0:
304,356,12661,2,0,L|320:264,1,90,2|0,0:0|0:0,0:0:0:0:
168,168,13102,6,0,P|132:192|132:316,1,180,8|8,0:0|0:0,0:0:0:0:
304,356,13764,1,8,0:0:0:0:
200,252,13985,1,8,0:0:0:0:
396,216,14205,1,8,0:0:0:0:
224,276,14426,1,8,0:0:0:0:
292,96,14646,2,0,L|300:156,1,45,8|8,0:0|0:0,0:0:0:0:
424,300,14867,1,4,0:0:0:0:
424,300,16191,6,0,P|448:256|384:288,1,180,8|4,0:0|0:0,0:0:0:0:
308,352,16852,1,0,0:0:0:0:
220,304,17073,2,0,P|212:256|224:208,1,90,8|0,0:0|0:0,0:0:0:0:
360,80,17514,1,0,0:0:0:0:
360,80,17624,1,8,0:0:0:0:
360,80,17735,1,0,0:0:0:0:
284,144,17955,2,0,L|192:128,1,90,8|0,0:0|0:0,0:0:0:0:
316,260,18396,5,0,0:0:0:0:
316,260,18507,1,8,0:0:0:0:
316,260,18617,1,8,0:0:0:0:
376,112,18838,1,8,0:0:0:0:
232,220,19058,1,0,0:0:0:0:
396,308,19279,1,0,0:0:0:0:
412,304,19389,1,8,0:0:0:0:
428,300,19499,1,8,0:0:0:0:
232,220,19720,1,8,0:0:0:0:
176,368,19941,1,0,0:0:0:0:
48,284,20161,6,0,P|40:236|32:100,1,180,4|0,0:0|0:0,0:0:0:0:
104,36,20823,1,2,0:0:0:0:
180,96,21043,2,0,P|224:108|280:96,1,90,0|2,0:0|0:0,0:0:0:0:
360,60,21485,2,0,P|404:53|447:65,1,90,0|2,0:0|0:0,0:0:0:0:
420,248,21926,5,0,0:0:0:0:
396,152,22146,1,0,0:0:0:0:
488,188,22367,1,0,0:0:0:0:
428,340,22588,2,0,L|248:324,1,180,2|2,0:0|0:0,0:0:0:0:
144,276,23249,1,0,0:0:0:0:
144,276,23470,1,0,0:0:0:0:
44,336,23691,6,0,P|32:288|36:244,1,90,0|2,0:0|0:0,0:0:0:0:
228,136,24132,2,0,P|240:184|236:228,1,90,0|2,0:0|0:0,0:0:0:0:
132,100,24573,1,0,0:0:0:0:
76,8,24793,1,2,0:0:0:0:
232,40,25014,1,0,0:0:0:0:
80,164,25235,1,2,0:0:0:0:
220,295,25455,6,0,P|259:217|228:136,1,180
44,72,26117,2,0,L|68:268,1,180,2|2,0:0|0:0,0:0:0:0:
116,340,26779,1,0,0:0:0:0:
116,340,27220,6,0,P|168:328|240:344,2,90,4|2|0,0:0|0:0|0:0,0:0:0:0:
296,304,27882,2,0,P|340:328|480:328,1,180,2|2,0:0|0:0,0:0:0:0:
448,124,28543,1,0,0:0:0:0:
404,232,28764,1,2,0:0:0:0:
328,144,28985,6,0,P|245:109|156:115,1,180,2|2,0:0|0:0,0:0:0:0:
72,36,29646,2,0,L|96:240,1,180,2|2,0:0|0:0,0:0:0:0:
32,292,30308,1,2,0:0:0:0:
144,352,30529,1,2,0:0:0:0:
236,268,30749,6,0,P|284:252|388:336,1,180,2|0,0:0|0:0,0:0:0:0:
460,212,31411,2,0,L|448:112,1,90,2|0,0:0|0:0,0:0:0:0:
292,40,31852,1,2,0:0:0:0:
264,136,32073,1,2,0:0:0:0:
292,40,32293,1,2,0:0:0:0:
164,108,32514,5,2,0:0:0:0:
336,196,32735,1,0,0:0:0:0:
136,224,32955,1,2,0:0:0:0:
296,132,33176,1,0,0:0:0:0:
128,256,33396,5,0,0:0:0:0:
216,56,33617,1,2,0:0:0:0:
60,164,33838,1,0,0:0:0:0:
224,316,34058,1,2,0:0:0:0:
80,92,34279,6,0,L|104:296,1,180,4|8,0:0|0:0,0:0:0:0:
184,188,34941,1,2,0:0:0:0:
284,248,35161,1,0,0:0:0:0:
136,340,35382,1,2,0:0:0:0:
352,188,35602,2,0,P|364:240|372:292,1,90,8|2,0:0|0:0,0:0:0:0:
244,128,36043,6,0,P|251:83|261:39,1,90
396,100,36485,1,8,0:0:0:0:
396,100,36705,1,2,0:0:0:0:
436,212,36926,1,0,0:0:0:0:
284,136,37146,1,2,0:0:0:0:
472,200,37367,1,8,0:0:0:0:
332,320,37588,1,2,0:0:0:0:
426,122,37808,6,0,L|436:212,1,90
240,352,38249,2,0,P|243:307|254:263,1,90,8|2,0:0|0:0,0:0:0:0:
328,208,38691,1,0,0:0:0:0:
420,304,38911,1,2,0:0:0:0:
192,212,39132,1,8,0:0:0:0:
304,108,39352,1,2,0:0:0:0:
144,48,39573,5,0,0:0:0:0:
200,284,39793,1,2,0:0:0:0:
24,196,40014,2,0,P|68:180|120:188,1,90,8|2,0:0|0:0,0:0:0:0:
228,104,40455,1,0,0:0:0:0:
228,104,40566,1,8,0:0:0:0:
228,104,40676,1,0,0:0:0:0:
296,300,40896,2,0,P|340:303|382:288,1,90,8|0,0:0|0:0,0:0:0:0:
408,252,41227,5,0,0:0:0:0:
408,252,41338,2,0,P|392:300|488:376,1,180,4|8,0:0|0:0,0:0:0:0:
432,152,41999,2,0,L|336:168,1,90,2|0,0:0|0:0,0:0:0:0:
256,228,42441,1,0,0:0:0:0:
240,120,42661,1,8,0:0:0:0:
408,252,42882,1,2,0:0:0:0:
264,368,43102,6,0,P|220:340|100:368,1,180,4|8,0:0|0:0,0:0:0:0:
8,188,43764,2,0,P|52:216|172:188,1,180,6|0,0:0|0:0,0:0:0:0:
80,24,44426,2,0,L|92:140,1,90,8|0,0:0|0:0,0:0:0:0:
256,228,44867,5,4,0:0:0:0:
328,104,45088,1,0,0:0:0:0:
200,132,45308,1,8,0:0:0:0:
360,240,45529,1,2,0:0:0:0:
200,328,45749,2,0,L|108:316,2,90,0|2|8,0:0|0:0|0:0,0:0:0:0:
320,348,46411,1,2,0:0:0:0:
256,228,46632,5,0,0:0:0:0:
408,324,46852,1,2,0:0:0:0:
408,324,46963,1,0,0:0:0:0:
408,324,47073,1,8,0:0:0:0:
372,160,47293,1,2,0:0:0:0:
376,136,47404,1,0,0:0:0:0:
380,112,47514,1,0,0:0:0:0:
384,88,47624,1,8,0:0:0:0:
388,64,47735,1,8,0:0:0:0:
468,200,47955,1,8,0:0:0:0:
264,136,48176,5,8,0:0:0:0:
264,136,48286,1,8,0:0:0:0:
264,136,48396,2,0,P|216:116|104:176,1,180,12|8,0:0|0:0,0:0:0:0:
188,304,49058,1,0,0:0:0:0:
188,304,49279,2,0,P|196:252|200:208,1,90,8|2,0:0|0:0,0:0:0:0:
24,140,49720,2,0,P|28:184|35:229,1,90,8|2,0:0|0:0,0:0:0:0:
248,368,50161,6,0,P|312:360|436:352,1,180,8|8,0:0|0:0,0:0:0:0:
464,220,50823,1,2,0:0:0:0:
352,320,51043,1,8,0:0:0:0:
372,156,51264,1,2,0:0:0:0:
344,356,51485,1,8,0:0:0:0:
240,264,51705,1,2,0:0:0:0:
464,360,51926,6,0,P|476:312|496:176,1,180,4|8,0:0|0:0,0:0:0:0:
354,67,52588,2,0,P|364:110|371:155,1,90,4|0,0:0|0:0,0:0:0:0:
240,264,53029,1,0,0:0:0:0:
248,148,53249,1,8,0:0:0:0:
412,236,53470,1,0,0:0:0:0:
212,296,53691,5,4,0:0:0:0:
340,188,53911,1,0,0:0:0:0:
292,360,54132,1,8,0:0:0:0:
136,276,54352,2,0,P|92:256|4:340,1,180,4|0,0:0|0:0,0:0:0:0:
124,180,55014,1,8,0:0:0:0:
128,152,55124,1,0,0:0:0:0:
132,124,55235,1,0,0:0:0:0:
152,16,55455,5,4,0:0:0:0:
152,16,55896,2,0,P|160:64|152:108,1,67.5000025749208,2|0,0:0|0:0,0:0:0:0:
124,180,56338,1,8,0:0:0:0:
32,152,56558,1,0,0:0:0:0:
124,180,56779,1,2,0:0:0:0:
52,240,56999,2,0,L|64:328,1,67.5000025749208
144,356,57441,6,0,P|176:340|272:344,1,135.000005149842,8|0,0:0|0:0,0:0:0:0:
360,224,58102,2,0,L|352:304,1,67.5000025749208,8|0,0:0|0:0,0:0:0:0:
353,291,58433,1,0,0:0:0:0:
353,291,58543,1,8,0:0:0:0:
412,364,58764,1,0,0:0:0:0:
468,160,58985,6,0,P|404:180|316:96,1,180,4|0,0:0|0:0,0:0:0:0:
320,116,60308,1,0,0:0:0:0:
320,116,60749,6,0,L|312:208,1,90,4|8,0:0|0:0,0:0:0:0:
304,296,61191,1,8,0:0:0:0:
304,296,61411,1,8,0:0:0:0:
208,252,61632,1,8,0:0:0:0:
408,212,61852,1,8,0:0:0:0:
184,108,62073,1,8,0:0:0:0:
184,108,62514,6,0,P|232:120|304:68,1,135,4|0,0:0|0:0,0:0:0:0:
324,36,62955,2,0,L|312:136,1,90,8|0,0:0|0:0,0:0:0:0:
296,252,63396,1,0,0:0:0:0:
296,252,63507,1,8,0:0:0:0:
296,252,63617,1,0,0:0:0:0:
416,216,63838,1,8,0:0:0:0:
472,352,64058,1,0,0:0:0:0:
472,352,64168,1,0,0:0:0:0:
472,352,64279,6,0,L|332:332,1,135,2|0,0:0|0:0,0:0:0:0:
316,292,64720,1,8,0:0:0:0:
196,364,64941,1,0,0:0:0:0:
120,200,65161,2,0,L|62:212,2,45,2|8|0,0:0|0:0|0:0,0:0:0:0:
268,76,65602,2,0,P|276:128|252:176,1,90,8|0,0:0|0:0,0:0:0:0:
40,148,66043,6,0,P|84:112|180:128,1,135,2|0,0:0|0:0,0:0:0:0:
192,136,66485,1,8,0:0:0:0:
304,260,66705,1,0,0:0:0:0:
464,180,66926,6,0,P|420:144|324:160,1,135,2|0,0:0|0:0,0:0:0:0:
312,168,67368,1,8,0:0:0:0:
200,292,67588,5,0,0:0:0:0:
200,292,67698,1,0,0:0:0:0:
200,292,67808,1,2,0:0:0:0:
340,344,68029,1,0,0:0:0:0:
192,208,68249,1,8,0:0:0:0:
356,96,68470,1,0,0:0:0:0:
316,316,68691,1,0,0:0:0:0:
316,316,68801,1,8,0:0:0:0:
316,316,68911,1,0,0:0:0:0:
212,144,69132,2,0,L|224:244,1,90,8|0,0:0|0:0,0:0:0:0:
222,233,69463,1,0,0:0:0:0:
222,233,69573,6,0,P|172:224|60:304,1,180,4|8,0:0|0:0,0:0:0:0:
316,316,70235,1,0,0:0:0:0:
316,316,70455,2,0,P|366:325|478:245,1,180,0|8,0:0|0:0,0:0:0:0:
400,144,71117,1,0,0:0:0:0:
348,228,71338,6,0,P|316:192|332:68,1,180,2|8,0:0|0:0,0:0:0:0:
400,144,71999,1,0,0:0:0:0:
252,248,72220,1,0,0:0:0:0:
252,248,72330,1,8,0:0:0:0:
252,248,72441,1,0,0:0:0:0:
308,88,72661,1,8,0:0:0:0:
396,304,72882,1,0,0:0:0:0:
168,268,73102,6,0,P|120:248|16:316,1,180,4|8,0:0|0:0,0:0:0:0:
112,108,73764,1,0,0:0:0:0:
180,168,73985,2,0,L|232:160,2,45,0|8|0,0:0|0:0|0:0,0:0:0:0:
44,204,74426,1,8,0:0:0:0:
84,32,74646,1,0,0:0:0:0:
300,104,74867,6,0,P|316:152|300:216,1,90,2|0,0:0|0:0,0:0:0:0:
311,190,75198,1,0,0:0:0:0:
311,190,75308,1,8,0:0:0:0:
112,296,75529,1,0,0:0:0:0:
91,272,75639,1,0,0:0:0:0:
80,242,75749,1,8,0:0:0:0:
78,211,75859,1,8,0:0:0:0:
86,181,75970,1,8,0:0:0:0:
216,96,76191,1,8,0:0:0:0:
216,96,76301,1,0,0:0:0:0:
216,96,76411,1,0,0:0:0:0:
312,268,76632,6,0,P|360:280|448:224,1,135,4|0,0:0|0:0,0:0:0:0:
452,216,77073,1,8,0:0:0:0:
360,184,77293,1,0,0:0:0:0:
236,332,77514,1,0,0:0:0:0:
236,332,77624,1,8,0:0:0:0:
236,332,77735,1,0,0:0:0:0:
172,240,77955,1,8,0:0:0:0:
56,272,78176,5,0,0:0:0:0:
56,272,78286,1,0,0:0:0:0:
56,272,78396,2,0,P|47:206|81:150,1,135,2|0,0:0|0:0,0:0:0:0:
112,136,78838,1,10,0:0:0:0:
252,196,79058,1,0,0:0:0:0:
236,44,79279,1,2,0:0:0:0:
236,44,79389,1,8,0:0:0:0:
236,44,79499,1,0,0:0:0:0:
344,224,79720,1,8,0:0:0:0:
192,128,79941,1,0,0:0:0:0:
408,28,80161,6,0,P|432:76|412:164,1,135,2|0,0:0|0:0,0:0:0:0:
392,180,80602,2,0,L|296:168,1,90,8|0,0:0|0:0,0:0:0:0:
128,212,81043,1,0,0:0:0:0:
128,212,81154,1,8,0:0:0:0:
128,212,81264,1,0,0:0:0:0:
192,128,81485,1,8,0:0:0:0:
216,296,81705,1,0,0:0:0:0:
44,232,81926,5,2,0:0:0:0:
232,200,82146,1,0,0:0:0:0:
264,376,82367,1,8,0:0:0:0:
232,200,82588,1,0,0:0:0:0:
128,320,82808,2,0,L|76:332,2,45,0|8|0,0:0|0:0|0:0,0:0:0:0:
308,144,83249,2,0,P|324:185|310:252,1,90,8|0,0:0|0:0,0:0:0:0:
320,229,83580,1,0,0:0:0:0:
320,229,83691,6,0,P|292:184|296:56,1,180,4|8,0:0|0:0,0:0:0:0:
364,12,84352,1,8,0:0:0:0:
192,88,84573,1,8,0:0:0:0:
392,136,84793,1,8,0:0:0:0:
104,64,85014,1,8,0:0:0:0:
104,64,85124,1,8,0:0:0:0:
104,64,85235,1,0,0:0:0:0:
208,308,85455,5,4,0:0:0:0:
256,192,85566,12,0,88543,0:0:0:0:
