osu file format v14

[General]
AudioFilename: Audio Nyanko.mp3
AudioLeadIn: 0
PreviewTime: 17806
Countdown: 0
SampleSet: Normal
StackLeniency: 0.2
Mode: 1
LetterboxInBreaks: 0
WidescreenStoryboard: 0

[Editor]
DistanceSpacing: 2.9
BeatDivisor: 4
GridSize: 32
TimelineZoom: 1.5

[Metadata]
Title:Nyanko is LOVE!
TitleUnicode:にゃんこ is L♥VE!
Artist:every-ing!
ArtistUnicode:every❤ing!
Creator:xtrem3x
Version:Futsuu
Source:にゃんこデイズ
Tags:Nyanko Days super short anime Opening Maa まー Shii しー Ro ろー Yuuko Konagai 小長井 友子
BeatmapID:1176736
BeatmapSetID:556030

[Difficulty]
HPDrainRate:8
CircleSize:5
OverallDifficulty:4
ApproachRate:6
SliderMultiplier:1.4
SliderTickRate:1

[Events]
//Background and Video events
0,0,"BG2.jpg",0,0
//Break Periods
//Storyboard Layer 0 (Background)
//Storyboard Layer 1 (Fail)
//Storyboard Layer 2 (Pass)
//Storyboard Layer 3 (Foreground)
//Storyboard Sound Samples

[TimingPoints]
1480,408.163265306122,4,1,0,80,1,0
4745,-100,4,1,0,80,0,1
17806,-100,4,1,0,80,0,0
31684,-100,4,1,0,70,0,0
32092,-100,4,1,0,60,0,0
32500,-100,4,1,0,50,0,0
32908,-100,4,1,0,40,0,0
33316,-100,4,1,0,20,0,0
33724,-100,4,1,0,10,0,0
34133,-100,4,1,0,5,0,0

[HitObjects]
256,192,1480,5,12,0:0:0:0:
256,192,2296,1,12,0:0:0:0:
256,192,3112,1,12,0:0:0:0:
256,192,3520,1,12,0:0:0:0:
256,192,3928,1,12,0:0:0:0:
256,192,4745,1,8,0:0:0:0:
256,192,4949,1,8,0:0:0:0:
256,192,5153,1,8,0:0:0:0:
256,192,5561,1,0,0:0:0:0:
256,192,5969,1,8,0:0:0:0:
256,192,6377,1,0,0:0:0:0:
256,192,6581,1,0,0:0:0:0:
256,192,6785,1,0,0:0:0:0:
256,192,7193,1,8,0:0:0:0:
256,192,7602,1,0,0:0:0:0:
256,192,8010,1,8,0:0:0:0:
256,192,8214,1,8,0:0:0:0:
256,192,8418,1,8,0:0:0:0:
256,192,8826,1,8,0:0:0:0:
256,192,9234,1,0,0:0:0:0:
256,192,9438,1,0,0:0:0:0:
256,192,9642,1,8,0:0:0:0:
256,192,10051,1,8,0:0:0:0:
256,192,10459,1,0,0:0:0:0:
256,192,11275,1,8,0:0:0:0:
256,192,11479,1,8,0:0:0:0:
256,192,11683,1,8,0:0:0:0:
256,192,12091,1,8,0:0:0:0:
256,192,12500,1,0,0:0:0:0:
256,192,12704,1,0,0:0:0:0:
256,192,12908,1,8,0:0:0:0:
256,192,13316,1,8,0:0:0:0:
256,192,13724,1,0,0:0:0:0:
256,192,14132,1,8,0:0:0:0:
256,192,14336,1,0,0:0:0:0:
256,192,14540,1,8,0:0:0:0:
256,192,15357,1,0,0:0:0:0:
256,192,15765,1,0,0:0:0:0:
256,192,15969,1,0,0:0:0:0:
256,192,16173,1,8,0:0:0:0:
256,192,16582,1,8,0:0:0:0:
256,192,16989,1,0,0:0:0:0:
256,192,17398,1,0,0:0:0:0:
256,192,17806,1,12,0:0:0:0:
256,192,18214,1,12,0:0:0:0:
256,192,19438,1,12,0:0:0:0:
256,192,19847,1,12,0:0:0:0:
256,192,21071,1,12,0:0:0:0:
256,192,21479,1,12,0:0:0:0:
256,192,22296,1,8,0:0:0:0:
256,192,22704,1,0,0:0:0:0:
256,192,23010,1,0,0:0:0:0:
256,192,23520,1,8,0:0:0:0:
256,192,24336,1,0,0:0:0:0:
256,192,24744,1,8,0:0:0:0:
256,192,24949,1,8,0:0:0:0:
256,192,25357,1,0,0:0:0:0:
256,192,25561,1,8,0:0:0:0:
256,192,25969,1,8,0:0:0:0:
256,192,26377,1,0,0:0:0:0:
256,192,26785,1,8,0:0:0:0:
256,192,27602,1,0,0:0:0:0:
256,192,28010,1,8,0:0:0:0:
256,192,28214,1,8,0:0:0:0:
256,192,28622,1,0,0:0:0:0:
256,192,28826,1,8,0:0:0:0:
256,192,29234,1,8,0:0:0:0:
256,192,29643,1,8,0:0:0:0:
256,192,30051,1,0,0:0:0:0:
256,192,30459,1,0,0:0:0:0:
256,192,30867,1,8,0:0:0:0:
256,192,31275,1,0,0:0:0:0:
256,192,31684,1,8,0:0:0:0:
256,192,32092,1,8,0:0:0:0:
256,192,32500,1,8,0:0:0:0:
256,192,32908,12,0,34541,0:0:0:0:
