osu file format v14

[General]
AudioFilename: ED.mp3
AudioLeadIn: 0
PreviewTime: 49887
Countdown: 0
SampleSet: Soft
StackLeniency: 0.6
Mode: 0
LetterboxInBreaks: 0
WidescreenStoryboard: 0

[Editor]
DistanceSpacing: 1
BeatDivisor: 4
GridSize: 4
TimelineZoom: 1.2

[Metadata]
Title:Kesaran Pasaran TV size
TitleUnicode:ケサランパサラン TV size
Artist:every-ing!
ArtistUnicode:every♥ing!
Creator:imoutosan
Version:Hard
Source:レーカン!
Tags:RE-KAN! Storia Ts8zs ending
BeatmapID:838488
BeatmapSetID:303324

[Difficulty]
HPDrainRate:5.5
CircleSize:4
OverallDifficulty:6
ApproachRate:7.5
SliderMultiplier:1.4
SliderTickRate:1

[Events]
//Background and Video events
0,0,"bg.jpg",0,0
Video,240,"video.flv"
//Break Periods
//Storyboard Layer 0 (Background)
//Storyboard Layer 1 (Fail)
//Storyboard Layer 2 (Pass)
//Storyboard Layer 3 (Foreground)
//Storyboard Sound Samples

[TimingPoints]
3280,357.142857142857,4,2,1,60,1,0
4708,-100,4,2,1,60,0,1
4797,-100,4,2,1,60,0,0
14708,-133.333333333333,4,2,1,40,0,0
18458,-133.333333333333,4,2,1,30,0,0
18637,-100,4,2,1,40,0,0
30422,-133.333333333333,4,2,1,50,0,0
50422,-100,4,2,1,60,0,1
60422,-100,4,2,1,60,0,0
62208,-100,4,2,1,60,0,1
67565,-100,4,2,1,60,0,0
67922,-100,4,2,1,60,0,1
75779,-100,4,2,1,60,0,0
76137,-100,4,2,1,60,0,1
78637,-100,4,2,1,60,0,0
78994,-100,4,2,1,60,0,1
81494,-100,4,2,1,50,0,0
84708,-100,4,2,1,60,0,1
84797,-100,4,2,1,60,0,0
87565,-100,4,2,1,60,0,0

[Colours]
Combo1 : 255,223,128
Combo2 : 255,128,128
Combo3 : 128,128,255
Combo4 : 255,128,255

[HitObjects]
80,124,3280,6,0,L|4:96,2,70,0|0|0,1:0|0:0|0:0,0:0:0:0:
152,152,3815,1,2,0:0:0:0:
212,104,3994,5,0,0:0:0:0:
140,76,4172,1,2,0:0:0:0:
152,152,4351,1,0,1:0:0:0:
164,228,4530,1,0,0:2:0:0:
120,292,4708,6,0,P|188:252|256:256,2,140,4|8|0,0:0|0:0|0:0,0:0:0:0:
68,348,5601,1,0,0:0:0:0:
44,276,5780,1,8,0:0:0:0:
68,348,5958,5,2,0:0:0:0:
120,292,6137,2,0,P|160:272|188:268,2,70,2|0|8,0:0|0:0|0:0,0:0:0:0:
140,364,6672,5,2,0:0:0:0:
214,346,6851,2,0,P|251:321|268:299,1,70,2|0,0:0|0:0,0:0:0:0:
240,160,7208,2,0,P|242:204|253:230,1,70,8|0,0:0|0:0,0:0:0:0:
420,336,7565,6,0,P|387:275|323:250,2,140,4|8|0,0:0|0:0|0:0,0:0:0:0:
492,304,8458,1,0,0:0:0:0:
484,380,8637,1,8,0:0:0:0:
492,304,8815,5,2,0:0:0:0:
420,336,8994,2,0,P|376:344|348:341,2,70,2|0|8,0:0|0:0|0:0,0:0:0:0:
428,260,9529,5,2,0:0:0:0:
352,264,9708,2,0,P|309:249|286:232,1,70,2|0,0:0|0:0,0:0:0:0:
380,128,10065,2,0,P|388:171|385:199,1,70,8|0,0:0|0:0,0:0:0:0:
212,224,10422,6,0,P|243:162|303:128,2,140,4|8|0,0:0|0:0|0:0,0:0:0:0:
204,304,11315,1,0,0:0:0:0:
140,248,11494,1,8,0:0:0:0:
204,304,11672,6,0,P|245:323|273:328,1,70
343,324,12029,2,0,P|376:313|406:294,1,70,2|10,0:0|0:0,0:0:0:0:
456,238,12387,2,0,P|475:196|480:168,1,70,0|2,0:0|0:0,0:0:0:0:
479,173,12922,5,8,0:0:0:0:
416,108,13279,5,0,1:0:0:0:
479,173,13458,1,0,1:0:0:0:
400,240,13815,5,0,1:0:0:0:
479,173,13994,1,0,1:0:0:0:
360,168,14351,5,0,1:0:0:0:
479,173,14529,1,0,1:0:0:0:
479,173,14887,6,0,L|510:214,2,52.5000020027161,2|0|0,0:0|0:0|0:0,0:0:0:0:
496,96,15422,2,0,L|464:54,2,52.5000020027161,2|0|2,0:0|0:0|0:0,0:0:0:0:
496,96,16137,5,4,0:0:0:0:
496,96,17565,5,0,0:0:0:0:
488,104,17922,1,0,0:0:0:0:
480,112,18279,5,0,0:0:0:0:
512,40,18458,1,0,0:0:0:0:
464,128,18637,2,0,B|397:152|397:152|352:144,1,105,0|0,1:0|0:0,0:0:0:0:
312,132,18994,6,0,L|329:64,2,70,4|0|0,0:0|0:0|1:0,0:0:0:0:
292,204,19529,1,0,0:0:0:0:
292,204,19708,1,0,0:0:0:0:
176,104,20065,1,0,1:0:0:0:
132,235,20422,6,0,L|64:216,2,70,2|0|0,0:0|0:0|1:0,0:0:0:0:
204,254,20957,1,0,0:0:0:0:
204,254,21136,1,0,0:0:0:0:
176,104,21493,1,0,1:0:0:0:
276,280,21851,6,0,L|317:353,2,70,2|0|0,0:0|0:0|1:0,0:0:0:0:
240,212,22387,1,0,0:0:0:0:
240,212,22476,1,0,0:0:0:0:
240,212,22565,2,0,P|285:219|313:217,1,70,2|0,0:0|0:0,0:0:0:0:
384,194,22922,2,0,P|421:167|439:146,1,70,2|0,1:2|0:0,0:0:0:0:
473,79,23279,6,0,P|480:33|478:5,2,70,4|0|0,0:1|0:0|0:0,0:0:0:0:
437,149,23815,1,0,0:0:0:0:
437,149,23994,1,0,1:2:0:0:
428,224,24172,1,8,1:2:0:0:
500,196,24351,1,8,0:0:0:0:
356,252,24708,5,4,0:0:0:0:
284,276,24887,1,0,0:0:0:0:
300,200,25065,2,0,L|314:102,2,70,0|0|0,1:0|0:0|0:0,0:0:0:0:
268,352,25779,1,0,1:0:0:0:
140,308,26136,5,2,0:0:0:0:
216,294,26315,1,0,0:0:0:0:
164,236,26494,2,0,L|120:181,2,70,0|0|0,1:0|0:0|0:0,0:0:0:0:
268,352,27208,1,0,1:0:0:0:
300,200,27565,6,0,L|319:61,1,140,0|0,0:0|1:0,0:0:0:0:
75,123,28279,2,0,L|135:198,1,70,2|0,0:0|0:0,0:0:0:0:
168,236,28637,2,0,L|212:291,1,70,2|0,1:2|0:0,0:0:0:0:
260,348,28994,5,4,1:2:0:0:
336,216,29351,1,0,1:0:0:0:
416,348,29708,1,0,1:0:0:0:
416,348,30065,2,0,P|453:321|471:300,1,70,2|0,0:0|0:0,0:0:0:0:
508,236,30422,6,0,L|428:92,1,157.500006008148,0|2,0:0|0:0,0:0:0:0:
431,98,31315,1,0,0:0:0:0:
431,98,31494,2,0,L|391:164,1,52.5000020027161,2|0,0:0|0:0,0:0:0:0:
372,208,31851,6,0,L|216:236,1,157.500006008148,0|2,0:0|0:0,0:0:0:0:
216,235,32744,1,0,0:0:0:0:
216,235,32922,2,0,L|230:184,1,52.5000020027161,2|0,0:0|0:0,0:0:0:0:
216,112,33279,6,0,P|268:71|288:136,1,157.500006008148
316,204,33994,6,0,B|340:192|360:168|368:136|368:136|398:163|404:212,1,157.500006008148,2|0,0:0|0:0,0:0:0:0:
368,260,34708,6,0,P|338:293|416:320,1,157.500006008148,0|2,0:0|0:0,0:0:0:0:
444,256,35422,5,0,0:0:0:0:
264,308,35779,1,2,0:0:0:0:
116,291,36137,5,0,1:0:0:0:
44,276,36315,2,0,B|48:332|48:332|92:364,1,105.000004005432
116,291,36851,2,0,L|112:220,2,52.5000020027161,0|0|0,1:0|0:0|1:0,0:0:0:0:
108,144,37565,5,0,0:0:0:0:
64,84,37744,2,0,B|108:64|108:64|159:88,1,105.000004005432,0|0,1:0|0:0,0:0:0:0:
224,120,38279,2,0,B|274:144|274:144|319:124,1,105.000004005432,0|0,1:0|0:0,0:0:0:0:
440,69,38994,5,0,1:0:0:0:
512,84,39172,2,0,B|508:28|508:28|464:-4,1,105.000004005432
440,69,39708,2,0,L|444:140,2,52.5000020027161,0|0|0,1:0|0:0|1:0,0:0:0:0:
240,212,40422,6,0,B|285:192|285:192|335:216,1,105.000004005432,0|0,1:0|0:0,0:0:0:0:
396,176,40958,1,0,0:0:0:0:
400,248,41137,2,0,B|451:272|451:272|495:252,1,105.000004005432,0|0,1:0|0:0,0:0:0:0:
284,272,41851,5,0,1:0:0:0:
237,326,42029,2,0,B|264:372|264:372|305:340,1,105.000004005432,0|0,1:0|0:0,0:0:0:0:
284,272,42565,2,0,L|319:233,2,52.5000020027161,0|0|0,1:0|0:0|1:0,0:0:0:0:
120,332,43279,5,0,0:0:0:0:
100,262,43458,2,0,B|141:230|141:230|168:276,1,105.000004005432,0|0,1:0|0:0,0:0:0:0:
120,332,43994,2,0,B|84:372|84:372|20:384,1,105.000004005432,0|0,1:0|0:0,0:0:0:0:
60,236,44708,6,0,P|104:160|220:156,1,210.000008010865,4|8,1:0|0:0,0:0:0:0:
104,76,46137,6,0,P|104:163|202:225,1,210.000008010865,4|8,1:0|0:0,0:0:0:0:
444,164,47565,5,0,1:0:0:0:
283,217,47922,1,0,1:0:0:0:
444,269,48279,1,8,0:0:0:0:
345,132,48637,1,0,1:0:0:0:
345,302,48994,1,0,1:0:0:0:
196,384,49351,1,0,1:0:0:0:
200,220,49708,1,8,1:2:0:0:
200,220,50065,5,2,0:0:0:0:
125,261,50244,1,0,0:0:0:0:
127,179,50422,2,0,P|107:102|56:57,2,140,4|8|0,0:0|0:0|0:0,0:0:0:0:
125,261,51315,1,2,0:0:0:0:
56,216,51494,5,8,0:0:0:0:
127,179,51672,1,2,0:0:0:0:
200,220,51851,2,0,P|276:241|341:219,2,140,0|8|0,0:0|0:0|0:0,0:0:0:0:
127,179,52744,1,2,0:0:0:0:
203,140,52922,5,8,0:0:0:0:
200,220,53101,1,2,0:0:0:0:
125,261,53279,2,0,P|68:316|54:383,1,140,0|8,0:0|0:0,0:0:0:0:
160,340,53815,2,0,P|201:321|229:316,1,70,2|0,0:0|0:0,0:0:0:0:
308,332,54172,1,2,0:0:0:0:
308,332,54351,2,0,P|342:324|373:308,1,70,8|0,0:0|0:0,0:0:0:0:
436,252,54708,5,0,1:0:0:0:
408,384,55065,1,8,0:0:0:0:
312,244,55422,1,0,1:0:0:0:
340,112,55779,1,8,0:0:0:0:
376,188,55958,1,8,0:0:0:0:
276,168,56137,6,0,L|112:136,2,140,4|8|2,0:0|0:0|0:0,0:0:0:0:
312,244,57029,1,0,0:0:0:0:
348,320,57208,2,0,L|512:352,2,140,10|0|8,0:0|0:0|0:0,0:0:0:0:
312,244,58101,1,0,0:0:0:0:
240,288,58279,6,0,P|163:268|118:216,2,140,2|10|0,0:0|0:0|0:0,0:0:0:0:
240,288,59351,1,8,0:0:0:0:
204,364,59529,1,0,0:0:0:0:
240,288,59708,1,0,0:0:0:0:
312,244,59886,1,2,0:0:0:0:
396,252,60065,2,0,P|421:228|440:198,1,70,8|2,0:0|0:0,0:0:0:0:
464,116,60422,5,4,1:2:0:0:
312,244,60779,1,8,0:0:0:0:
148,212,61137,1,0,1:0:0:0:
300,84,61494,1,8,0:0:0:0:
312,244,61851,5,2,0:0:0:0:
230,228,62029,1,0,0:0:0:0:
306,164,62208,2,0,P|339:154|374:152,1,70,4|0,0:0|0:0,0:0:0:0:
317,323,62565,5,2,0:0:0:0:
236,308,62743,1,0,0:0:0:0:
312,244,62922,2,0,P|345:234|380:232,1,70,8|0,0:0|0:0,0:0:0:0:
386,312,63279,6,0,P|352:322|318:324,1,70,2|0,0:0|0:0,0:0:0:0:
236,308,63637,2,0,P|205:291|179:267,1,70,8|0,0:0|0:0,0:0:0:0:
133,198,63994,1,2,0:0:0:0:
133,198,64351,2,0,P|123:164|121:129,1,70,8|0,0:0|0:0,0:0:0:0:
260,141,64708,6,0,P|251:174|235:205,1,70
180,268,65066,2,0,P|150:286|116:296,1,70,8|0,0:0|0:0,0:0:0:0:
33,303,65422,1,0,0:0:0:0:
68,228,65601,1,2,0:0:0:0:
116,296,65779,1,8,0:0:0:0:
168,364,65958,1,2,0:0:0:0:
204,288,66137,5,4,0:0:0:0:
273,139,66494,1,8,0:0:0:0:
424,208,66851,1,0,1:0:0:0:
354,358,67208,1,8,0:0:0:0:
204,288,67565,5,0,0:0:0:0:
239,213,67744,1,2,0:0:0:0:
314,247,67922,1,4,0:0:0:0:
204,288,68279,5,2,0:0:0:0:
279,322,68458,1,0,0:0:0:0:
314,247,68637,1,8,0:0:0:0:
204,288,68994,5,0,0:0:0:0:
239,213,69172,1,2,0:0:0:0:
314,247,69351,1,8,0:0:0:0:
279,322,69529,1,2,0:0:0:0:
204,288,69708,1,0,0:0:0:0:
204,288,70065,2,0,P|174:306|140:316,1,70,8|0,0:0|0:0,0:0:0:0:
53,328,70422,6,0,P|60:293|59:259,1,70,0|2,0:0|0:0,0:0:0:0:
40,172,70779,2,0,P|23:140|0:114,1,70,8|2,0:0|0:0,0:0:0:0:
59,259,71137,6,0,P|84:282|115:299,1,70,0|2,0:0|0:0,0:0:0:0:
200,326,71494,2,0,P|234:327|269:320,1,70,10|0,0:0|0:0,0:0:0:0:
348,284,71851,1,4,1:2:0:0:
180,240,72208,1,8,0:0:0:0:
304,120,72565,1,0,1:0:0:0:
472,164,72922,1,8,0:0:0:0:
348,284,73279,6,0,P|271:264|226:212,1,140,4|8,0:0|0:0,0:0:0:0:
208,140,73815,1,0,0:0:0:0:
208,140,73994,2,0,P|228:216|206:281,1,140,2|8,0:0|0:0,0:0:0:0:
153,333,74529,1,0,0:0:0:0:
153,333,74708,6,0,P|208:276|275:263,2,140,0|8|0,0:0|0:0|0:0,0:0:0:0:
153,333,75779,1,0,0:0:0:0:
12,244,76137,5,0,0:0:0:0:
0,160,76315,1,2,0:0:0:0:
76,192,76494,1,8,0:0:0:0:
212,92,76851,5,2,0:0:0:0:
181,169,77029,1,0,0:0:0:0:
128,104,77208,1,8,0:0:0:0:
240,228,77565,6,0,P|306:211|372:232,2,140,0|8|0,0:0|0:0|0:0,0:0:0:0:
240,228,78637,1,0,0:0:0:0:
132,356,78994,6,0,P|65:372|0:351,1,140,4|8,0:0|0:0,0:0:0:0:
68,282,79529,1,0,0:0:0:0:
68,282,79708,2,0,P|86:215|138:169,1,140,2|8,0:0|0:0,0:0:0:0:
164,264,80244,1,0,0:0:0:0:
164,264,80422,6,0,P|212:313|225:381,1,140,0|8,0:0|0:0,0:0:0:0:
308,324,80958,1,0,0:0:0:0:
308,324,81137,2,0,P|365:362|434:363,1,140
434,363,81851,5,4,0:0:0:0:
336,224,82208,1,0,0:0:0:0:
413,76,82565,1,0,0:0:0:0:
512,216,82922,1,0,0:0:0:0:
385,293,83279,5,4,0:0:0:0:
385,293,83458,1,0,0:0:0:0:
336,224,83636,1,0,0:0:0:0:
336,224,83815,1,0,0:0:0:0:
380,144,83993,1,4,0:0:0:0:
380,144,84172,1,0,0:0:0:0:
424,219,84350,1,0,0:0:0:0:
424,219,84529,1,0,0:0:0:0:
336,224,84708,6,0,P|269:204|223:153,2,140,4|8|0,0:0|0:0|0:0,0:0:0:0:
424,219,85601,1,2,0:0:0:0:
380,144,85779,1,8,0:0:0:0:
336,224,85958,1,2,0:0:0:0:
384,303,86137,6,0,P|433:350|501:365,2,140,0|8|0,0:0|0:0|0:0,0:0:0:0:
336,224,87029,1,2,0:0:0:0:
424,219,87208,1,8,0:0:0:0:
384,303,87387,1,2,0:0:0:0:
304,348,87565,5,0,1:0:0:0:
384,303,87744,1,0,1:0:0:0:
284,272,88101,5,0,1:0:0:0:
384,303,88279,1,0,1:0:0:0:
320,204,88637,5,0,1:0:0:0:
384,303,88815,1,0,1:0:0:0:
