osu file format v9

[General]
AudioFilename: deepsea_plusv_test2.mp3
AudioLeadIn: 1500
PreviewTime: 43470
Countdown: 0
SampleSet: Normal
StackLeniency: 0.7
Mode: 1
LetterboxInBreaks: 0

[Editor]
DistanceSpacing: 0.8
BeatDivisor: 4
GridSize: 8

[Metadata]
Title:Deepsea Girl
Artist:eveless & qinche
Creator:Megurine Luka
Version:Taiko
Source:Yuuyu
Tags:deep sea girl vocaloid vocaloid2 Hatsune Miku Shinkai Shoujo Alace _Kiva Natteke Firce777 NanaDesu yongtw123 KDS Sprosive ignorethis climbb65588 hoLysoup NatsumeRin littlecar3370 y u c a KanaRin kioukiou wmfchris bakabaka loveFantasy Breeze LKs Pokie spboxer3 goodbye chonicle y_u_c_a yuca

[Difficulty]
HPDrainRate:5
CircleSize:5
OverallDifficulty:5
ApproachRate:5
SliderMultiplier:1.4
SliderTickRate:1

[Events]
//Background and Video events
0,0,"taiko.jpg"
//Break Periods
//Storyboard Layer 0 (Background)
//Storyboard Layer 1 (Fail)
//Storyboard Layer 2 (Pass)
//Storyboard Layer 3 (Foreground)
Sprite,Foreground,Centre,"SB\kiva.png",320,240 M,0,1476,,151,337 F,0,1476,2790,0,1 F,0,2790,14396,1 F,0,14396,15929,1,0
Sprite,Foreground,Centre,"SB\Firce777.png",320,240 S,0,15819,15929,0.1,1.00112 R,0,15819,15929,-3,0 M,0,15929,,151,337 F,0,15929,28630,1 F,0,28630,29944,1,0
Sprite,Foreground,Centre,"SB\KDS.png",320,240 M,0,29944,,151,337 F,0,29944,31257,0,1 F,0,31257,42644,1 F,0,42644,43958,1,0 F,0,43958,61476,0 F,0,61476,63666,0 F,0,63666,64980,0,1 F,0,64980,,0.5 F,0,64980,77681,1 F,0,77681,78995,1,0
Sprite,Foreground,Centre,"SB\climbb65588.png",320,240 M,0,43849,,151,337 S,0,43849,43958,0.1,1 R,0,43849,43958,-3,0 F,0,43849,60162,1 F,0,60162,61476,1,0
Sprite,Foreground,Centre,"SB\littlecar3370.png",320,240 M,0,78995,,151,337 F,0,78995,80308,0,1 F,0,80308,91695,1 F,0,91695,93009,1,0
Sprite,Foreground,Centre,"SB\KanaRin.png",320,240 M,0,93009,,151,337 S,0,93009,93119,0,1 R,0,93009,93119,-3,-6.286719 F,0,93009,108776,1 F,0,108776,110090,1,0 F,0,110090,154323,0 F,0,154323,155637,0,1 F,0,155637,170090,1 F,0,170090,171403,1,0
Sprite,Foreground,Centre,"SB\wmfchris.png",320,240 F,0,110527,,1 M,0,110527,138557,-108,337,719,337
Sprite,Foreground,Centre,"SB\Alace.png",320,240 M,0,138557,,151,337 F,0,138557,139871,0,1 F,0,139871,152571,1 F,0,152571,153885,1,0
Sprite,Foreground,Centre,"SB\spboxer3.png",320,240 M,0,171732,,151,337 S,0,171732,171841,0.1,1 R,0,171732,171841,-3,0 F,0,171841,209068,1 F,0,209068,210381,1,0
//Storyboard Sound Samples
//Background Colour Transformations
3,100,163,162,255

[TimingPoints]
163,437.956204379562,4,1,0,80,1,0
43958,-100,4,1,0,80,0,1
61476,-100,4,1,0,80,0,0
93009,-100,4,1,0,80,0,1
110090,-100,4,1,0,80,0,0
171841,-100,4,1,0,80,0,1
210162,-100,4,1,0,80,0,0

[Colours]
Combo1 : 128,255,255
Combo2 : 0,128,255
Combo3 : 5,5,240

[HitObjects]
168,136,1476,1,2
168,136,1695,1,2
168,136,1914,1,0
168,136,2571,1,2
168,136,2790,1,0
168,136,3228,1,2
168,136,3666,1,0
168,136,3885,1,2
168,136,4323,1,2
168,136,4542,1,2
168,136,4980,1,2
168,136,5418,1,0
168,136,5856,1,2
168,136,6075,1,2
168,136,6294,1,0
168,136,6732,1,2
168,136,7170,1,0
168,136,7389,1,2
168,136,7827,1,0
168,136,8046,1,2
168,136,8484,1,0
168,136,8922,1,0
168,136,9141,1,2
168,136,9579,1,2
168,136,9798,1,0
168,136,10235,1,2
168,136,10454,1,0
168,136,10673,1,2
168,136,11330,1,2
168,136,11549,1,0
168,136,11987,1,2
168,136,12206,1,2
168,136,12425,1,0
168,136,13082,1,2
168,136,13301,1,0
168,136,13739,1,2
168,136,14177,1,0
168,136,14834,1,0
168,136,15053,1,2
168,136,15272,1,2
168,136,15491,1,0
168,136,15929,1,4
272,192,16367,1,2
272,192,16805,1,0
272,192,16914,1,0
272,192,17024,1,0
272,192,17243,1,2
272,192,17681,1,0
272,192,17900,1,0
272,192,18119,1,2
272,192,18338,1,0
272,192,18447,1,0
272,192,18557,1,0
272,192,18776,1,2
272,192,18995,1,2
192,128,19214,1,2
272,192,19433,1,0
272,192,19871,1,2
272,192,20090,1,2
272,192,20308,1,0
272,192,20527,1,2
272,192,20637,1,2
272,192,20746,1,0
272,192,20965,1,2
272,192,21184,1,0
272,192,21403,1,0
272,192,21513,1,0
272,192,21622,1,2
272,192,21841,1,2
272,192,21951,1,0
272,192,22060,1,2
272,192,22498,1,2
272,192,22717,1,0
272,192,22936,1,4
272,192,23155,1,0
272,192,23374,1,2
272,192,23593,1,0
272,192,23703,1,0
272,192,23812,1,2
272,192,24250,1,2
272,192,24469,1,0
272,192,24688,1,0
272,192,24907,1,0
272,192,25126,1,2
272,192,25345,1,0
272,192,25454,1,0
272,192,25564,1,2
272,192,26002,1,2
272,192,26111,1,2
272,192,26221,1,0
272,192,26440,1,0
272,192,26659,1,0
272,192,26878,1,2
272,192,27097,1,0
272,192,27206,1,0
272,192,27316,1,0
272,192,27535,1,2
272,192,27754,1,2
272,192,27973,1,0
272,192,28192,1,4
272,192,28630,1,2
272,192,28739,1,2
272,192,28849,1,0
272,192,29068,1,4
272,192,29725,1,0
272,192,29944,1,0
272,192,30600,1,0
272,192,30819,1,8
272,192,31695,1,0
272,192,32024,1,0
272,192,32352,1,0
272,192,32790,1,0
272,192,33009,1,8
272,192,33447,1,0
272,192,33885,1,0
272,192,34104,1,0
272,192,34323,1,8
272,192,34761,1,0
272,192,34980,1,8
272,192,35199,1,0
272,192,35418,1,8
272,192,35527,1,8
272,192,35637,1,0
272,192,35856,1,0
256,184,36075,1,8
256,184,36184,1,0
256,184,36294,1,0
256,184,36513,1,8
256,184,36622,1,8
256,184,36732,1,8
256,184,36841,1,8
256,184,36951,1,0
272,192,37170,1,0
272,192,37279,1,0
272,192,37389,1,8
256,184,37608,1,0
256,184,37717,1,0
256,184,37827,1,0
256,184,38046,1,0
256,184,38155,1,8
256,184,38265,1,8
256,184,38484,1,0
272,192,38593,1,0
272,192,38703,1,0
272,192,38922,1,0
272,192,39031,1,0
256,184,39141,1,8
256,184,39360,1,0
256,184,39469,1,0
256,192,39579,1,8
256,192,39688,1,8
256,192,39798,1,0
256,192,40016,1,8
256,192,40126,1,8
256,192,40235,1,8
256,192,40454,1,4
256,192,40673,1,0
256,192,40783,1,0
256,192,40892,1,8
256,192,41111,1,0
256,192,41330,1,0
256,192,41549,1,8
256,192,41659,1,8
256,192,41768,1,0
256,192,41878,1,0
256,192,41987,1,8
256,192,42206,1,8
256,192,42425,1,0
256,192,42535,1,8
256,192,42644,1,0
256,192,42754,1,8
256,192,42863,5,0
256,192,43082,1,0
264,216,43958,5,4
264,216,44177,1,0
264,216,44287,1,0
264,216,44396,1,8
264,216,44615,1,0
264,216,44834,1,0
264,216,44944,1,0
264,216,45163,1,0
264,216,45272,1,8
264,216,45491,1,0
272,168,45600,1,8
264,216,45710,1,0
264,216,45929,1,0
264,216,46148,1,8
264,216,46367,1,0
272,168,46586,1,0
184,192,46695,1,0
184,192,46914,1,0
184,192,47024,1,8
144,152,47133,1,0
184,192,47243,1,8
184,192,47462,1,4
184,192,47900,1,8
184,192,48119,1,0
184,192,48338,1,0
184,192,48557,1,0
184,192,48666,1,0
184,192,48776,1,8
184,192,48995,1,0
184,192,49214,1,4
240,200,49433,1,0
240,200,49506,1,0
240,200,49579,1,0
240,200,49652,1,0
184,192,49871,1,0
184,192,49980,1,0
184,192,50090,1,8
184,192,50308,1,8
184,192,50381,1,8
184,192,50454,1,8
184,192,50527,1,8
256,171,50637,1,8
184,192,50746,1,8
216,160,50965,1,4
184,192,51294,1,0
184,192,51403,1,8
184,192,51622,1,0
184,192,51732,1,8
184,192,51841,1,0
184,192,51951,1,0
208,224,52170,1,0
208,224,52279,1,8
184,192,52498,1,0
184,192,52717,1,0
184,248,52936,1,0
184,192,53046,1,0
184,248,53155,1,8
184,248,53374,1,0
208,224,53593,1,4
184,248,54031,1,8
184,248,54250,1,0
184,248,54360,1,0
184,248,54469,1,0
184,248,54907,1,0
176,144,55345,1,8
200,208,55564,1,0
184,248,55783,1,8
200,208,56221,1,8
200,208,56440,1,0
184,248,56659,1,0
200,208,56878,1,0
200,208,57097,1,4
200,208,57535,1,8
168,208,57973,1,12
168,208,58301,1,8
168,208,58411,1,0
168,176,58630,1,8
168,208,58849,1,0
168,208,58958,1,8
200,208,59068,1,0
168,208,59287,1,8
168,208,59506,1,0
168,208,59615,1,8
168,176,59725,1,8
168,176,59944,1,8
168,176,60053,1,8
168,176,60162,1,0
144,144,60272,1,8
168,176,60381,1,0
184,104,60600,1,8
184,104,60819,1,0
184,104,61038,1,8
184,104,61148,1,8
208,144,61257,1,8
168,176,61476,1,4
256,192,64542,5,0
256,192,64761,1,8
256,192,64980,1,0
256,192,65418,1,8
256,192,65637,1,0
256,192,66075,1,0
256,192,66294,1,8
256,192,66732,1,0
256,192,67170,1,8
256,192,67389,1,0
256,192,67827,1,8
256,192,68046,1,0
256,192,68484,1,0
256,192,68922,1,8
256,192,69141,1,0
256,192,69579,1,8
256,192,69798,1,0
256,192,69907,1,0
256,192,70017,1,8
256,184,70235,1,0
256,184,70454,1,0
256,184,70673,1,8
256,184,70783,1,8
256,184,70892,1,8
256,192,71111,8,0,71549
256,192,71987,5,0
256,192,72206,1,0
256,192,72425,1,8
256,192,72644,1,0
256,192,72754,1,0
256,192,72863,1,8
256,192,73082,1,0
256,192,73301,1,8
256,192,73739,1,0
256,192,73849,1,0
256,192,73958,1,0
256,192,74177,1,8
256,192,74396,1,0
256,192,74615,1,8
256,192,74834,1,0
256,192,74944,1,0
256,192,75053,1,8
256,192,75491,1,0
256,192,75710,1,0
256,192,75819,1,0
256,192,75929,1,8
256,192,76148,1,0
256,192,76367,1,8
256,192,76586,1,0
256,192,76695,1,8
256,192,76805,1,0
256,192,77024,1,8
256,192,77243,1,0
256,192,77352,1,0
256,192,77462,1,8
256,192,77681,1,0
256,192,77790,1,0
256,192,77900,5,8
256,192,78119,1,0
256,192,78338,1,12
256,192,78557,1,12
256,192,78995,5,0
256,192,79323,1,0
256,192,79433,1,0
256,192,79652,1,0
256,192,79871,1,8
256,192,80090,1,8
256,192,80199,1,8
256,192,80308,1,0
256,192,80527,1,8
256,192,80746,1,0
256,192,81075,1,0
256,192,81184,1,0
256,192,81403,1,0
256,192,81622,1,8
256,192,81841,1,0
256,192,81951,1,8
256,192,82060,1,0
256,192,82279,1,8
256,192,82498,1,0
256,192,82827,1,0
256,192,82936,1,0
256,192,83155,1,0
256,192,83374,1,8
256,192,83593,1,8
256,192,83703,1,0
256,192,83812,1,0
256,192,84031,1,8
256,192,84250,1,0
256,192,84469,1,0
256,192,84579,1,0
256,192,84688,1,8
256,192,84907,1,0
256,192,85017,1,8
256,192,85235,1,8
256,192,85345,1,0
256,192,85564,1,8
256,192,86002,1,0
256,192,86221,1,8
256,192,86330,1,0
256,192,86440,1,0
256,192,86659,1,8
256,192,86878,1,0
256,192,86987,1,8
256,192,87206,1,8
256,192,87316,1,0
256,192,87425,1,0
256,192,87535,1,8
256,192,87754,1,0
256,192,87973,1,8
256,192,88082,1,0
256,192,88192,1,0
256,192,88411,1,8
256,192,88630,1,0
256,192,88739,1,8
256,192,88958,1,8
256,192,89068,1,0
256,192,89177,1,8
256,192,89287,1,8
256,192,89396,1,8
256,192,89506,1,0
256,192,89725,1,0
256,192,89834,1,0
256,192,89944,1,8
256,192,90162,1,0
256,192,90381,1,8
256,192,90491,1,0
256,192,90600,1,8
256,192,90819,1,0
256,192,91038,1,0
256,192,91257,1,8
256,192,91476,1,0
256,192,91586,1,8
256,192,91695,1,0
256,192,91805,1,0
256,192,91914,1,0
256,192,92133,1,0
264,256,93009,5,4
352,280,93228,1,0
352,280,93338,1,0
352,280,93447,1,8
344,312,93666,1,0
344,312,93776,1,8
344,312,93885,1,0
344,312,94104,1,0
344,312,94323,1,8
344,312,94542,1,8
352,280,94652,1,8
352,280,94761,1,0
352,280,94980,1,0
344,312,95090,1,0
344,312,95199,1,8
344,312,95418,1,0
344,312,95637,1,0
344,312,95965,1,0
344,312,96075,1,8
240,120,96294,1,0
272,144,96513,1,4
320,184,96732,1,0
344,312,96841,1,0
320,184,96951,1,8
320,184,97170,1,0
320,184,97389,1,0
344,312,97498,1,0
320,184,97608,1,8
344,312,97717,1,8
360,184,97827,1,8
360,184,98046,1,0
360,184,98265,1,4
360,184,98484,1,8
344,312,98593,1,8
360,184,98703,1,0
360,184,98922,1,0
256,80,99031,1,0
360,184,99141,1,8
240,56,99360,1,0
312,120,99579,1,8
352,272,99688,1,8
312,120,99798,1,0
352,272,99907,1,8
344,312,100017,1,0
344,312,100235,1,0
344,312,100345,1,0
344,312,100454,1,8
312,296,100673,1,8
312,296,100783,1,8
312,296,100892,1,0
344,312,101111,1,0
344,312,101330,1,8
344,312,101440,1,8
344,312,101549,1,0
344,312,101659,1,0
344,312,101768,1,0
344,312,101987,1,0
344,312,102097,1,0
344,312,102206,1,8
344,312,102425,1,0
344,312,102644,1,8
368,264,103082,1,0
368,264,103301,1,8
344,312,103520,1,0
344,312,103849,1,0
344,312,103958,1,8
344,312,104177,1,0
344,312,104396,1,8
344,312,104615,1,0
344,312,104725,1,0
344,312,104834,1,0
344,312,105053,1,0
344,312,105272,1,4
344,312,105491,1,4
344,312,105710,1,4
344,312,105929,1,4
344,312,106148,1,4
344,312,106367,1,4
344,312,106586,1,4
344,312,106805,1,4
320,288,107024,1,4
344,312,107243,1,0
256,120,107352,1,8
280,144,107571,1,0
280,144,107681,1,8
280,144,107900,1,8
280,144,108009,1,8
280,144,108228,1,0
296,168,108338,1,8
280,144,108557,1,8
320,264,108776,1,4
320,264,108995,1,0
320,264,109104,1,8
320,264,109323,1,0
320,264,109433,1,8
320,264,109652,1,0
256,104,109761,1,8
256,104,109871,1,0
480,80,110090,5,0
480,80,110199,1,0
480,80,110308,1,0
480,80,110418,1,0
480,80,110527,1,2
480,80,110746,1,2
480,80,110856,1,2
480,80,110965,1,2
480,80,111184,1,2
480,80,111403,1,0
480,80,111622,1,0
480,80,111841,1,2
480,80,112060,1,2
480,80,112170,1,2
480,80,112279,1,0
480,80,112498,1,2
480,80,112608,1,0
480,80,112717,1,0
480,80,112936,1,0
480,80,113155,1,2
480,80,113265,1,2
480,80,113374,1,0
480,80,113484,1,0
480,80,113593,1,2
480,80,113812,1,0
480,80,114031,1,2
480,80,114250,1,2
480,80,114360,1,2
480,80,114579,1,0
480,80,114688,1,2
480,80,114798,1,2
480,80,114907,1,2
480,80,115126,1,2
480,80,115345,1,0
480,80,115454,1,0
480,80,115564,1,0
480,80,115673,1,0
480,80,115783,1,2
480,80,116002,1,2
480,80,116111,1,2
480,80,116221,1,2
480,80,116440,1,0
480,80,116549,1,2
480,80,116768,1,0
480,80,116878,1,0
480,80,116987,1,0
480,80,117097,1,2
480,80,117316,1,0
480,80,117535,1,2
480,80,117754,1,0
480,80,117973,1,2
480,80,118192,1,2
480,80,118411,1,2
480,80,118520,1,2
480,80,118630,1,0
480,80,118739,1,0
480,80,118849,1,0
480,80,119068,1,0
480,80,119287,1,2
480,80,119506,1,0
480,80,119615,1,0
480,80,119725,1,0
480,80,119944,1,2
480,80,120162,1,0
480,80,120381,1,6
480,80,120600,1,6
480,80,120819,1,0
480,80,121038,1,2
256,192,121257,12,2,122133
480,80,122352,5,0
480,80,122462,1,0
480,80,122571,1,0
480,80,122790,1,4
480,80,123228,1,6
480,80,123447,1,6
480,80,123666,1,0
480,80,123885,1,6
480,80,124104,1,4
480,80,124323,1,6
480,80,124542,1,0
480,80,124761,1,0
480,80,124980,1,2
480,80,125199,1,0
480,80,125308,1,2
480,80,125418,1,0
480,80,125637,1,0
480,80,125856,1,2
480,80,126075,1,0
480,80,126294,1,2
480,80,126513,1,0
480,80,126732,1,0
480,80,126951,1,0
480,80,127170,1,2
480,80,127389,1,0
480,80,127498,1,2
480,80,127608,1,0
480,80,127827,1,0
480,80,128046,1,0
480,80,128265,1,2
480,80,128484,1,0
480,80,128703,1,2
480,80,128922,1,0
480,80,129141,1,2
480,80,129250,1,0
480,80,129360,1,0
480,80,129469,1,0
480,80,129579,1,2
480,80,129798,1,0
480,80,130017,1,2
480,80,130126,1,2
480,80,130235,1,0
480,80,130454,1,2
480,80,130673,1,0
480,80,130892,1,2
480,80,131111,1,0
480,80,131221,1,0
480,80,131330,1,2
480,80,131440,1,0
480,80,131549,1,2
480,80,131768,1,2
480,80,131987,1,0
480,80,132206,1,2
480,80,132425,1,0
480,80,132535,1,2
480,80,132644,1,0
480,80,132754,1,2
480,80,132863,1,0
480,80,133082,1,2
480,80,133301,1,0
480,80,133411,1,0
480,80,133520,1,2
480,80,133630,1,2
480,80,133739,1,0
480,80,133958,1,2
480,80,134177,1,0
480,80,134396,1,0
480,80,134615,1,2
480,80,134725,1,0
480,80,134834,1,2
480,80,135053,1,0
480,80,135272,1,2
480,80,135381,1,2
480,80,135491,1,0
480,80,135710,1,2
480,80,135819,1,0
480,80,135929,1,2
480,80,136148,1,2
480,80,136257,1,0
480,80,136367,1,2
480,80,136476,1,0
480,80,136586,1,0
480,80,136695,1,0
480,80,136805,1,2
480,80,137024,1,0
480,80,137133,1,0
480,80,137243,1,0
480,80,137462,1,2
480,80,137681,1,0
480,80,137827,1,2
480,80,137973,1,0
480,80,138119,1,0
480,80,138265,1,2
480,80,138411,1,2
480,80,138557,5,0
216,144,139214,1,2
216,144,139871,1,2
168,128,140090,1,0
168,128,140308,1,0
168,128,140746,1,2
128,184,141184,1,2
128,184,141622,1,2
216,80,141841,1,0
216,80,142060,1,0
264,184,142717,1,2
264,184,143374,1,2
192,96,143593,1,0
192,96,143812,1,0
368,112,144469,1,2
272,136,144907,1,2
208,48,145126,1,0
208,48,145235,1,0
152,120,145345,1,0
96,208,145564,5,0
208,48,146221,1,2
144,88,146878,1,2
144,88,147097,1,0
128,144,147316,1,0
200,208,147754,1,2
200,208,148192,1,2
200,208,148630,1,2
176,136,148849,1,0
200,72,149068,1,0
200,72,149506,1,2
200,72,149725,1,0
176,136,150163,1,0
176,136,150381,1,2
176,136,150600,1,2
256,192,150819,12,0,152571
360,336,154323,5,8
360,336,156075,1,8
360,336,157827,1,8
352,352,159579,1,8
352,232,160892,1,0
352,232,161002,1,0
352,232,161111,1,0
360,264,161330,1,0
352,232,161768,1,0
352,232,162206,1,0
352,232,162644,1,0
352,232,163082,1,0
352,232,163520,1,0
352,232,163958,1,4
344,272,164615,1,0
224,64,164834,1,0
344,272,165272,1,8
344,272,165710,1,8
344,336,165929,1,0
360,360,166148,1,0
344,336,166586,1,8
344,336,167024,1,8
344,336,167243,1,0
360,224,167681,1,0
360,224,167900,1,8
312,264,168119,1,0
344,336,168338,1,12
360,280,168557,1,8
360,280,168776,1,8
360,280,168995,1,8
360,280,169214,1,8
360,280,169433,1,8
360,280,169652,1,8
360,280,169871,1,8
360,280,170090,1,0
360,280,170199,1,0
360,280,170308,1,8
360,280,170527,1,0
360,280,170637,1,8
352,344,170746,1,0
352,344,170856,1,0
344,256,170965,1,8
336,304,171184,1,0
336,304,171294,1,8
336,304,171513,1,8
336,304,171622,1,0
256,192,171841,5,4
256,192,172060,5,8
256,192,172279,5,0
256,192,172389,1,0
256,192,172498,5,8
256,192,172717,5,0
256,192,172936,1,0
256,192,173155,5,8
256,192,173265,5,0
256,192,173374,1,0
256,192,173593,1,0
256,192,173703,5,8
256,192,173922,1,8
256,192,174031,5,0
256,192,174250,5,8
256,192,174469,5,0
256,192,174579,5,8
256,192,174798,1,8
256,192,174907,5,0
256,192,175017,1,0
256,192,175126,5,8
256,192,175345,1,4
256,192,175673,1,0
256,192,175783,1,0
256,192,176002,5,8
256,192,176221,5,0
256,192,176549,1,0
256,192,176659,1,0
256,192,176878,5,8
256,192,177097,1,8
256,192,177206,5,0
256,192,177316,1,0
256,192,177535,5,8
256,192,177644,5,0
256,192,177754,1,0
256,192,177973,5,8
256,192,178082,5,0
256,192,178192,1,0
256,192,178301,1,0
256,192,178411,5,8
256,192,178520,5,0
256,192,178630,1,0
256,192,178849,1,4
256,192,179068,1,0
256,192,179177,1,0
256,192,179287,5,8
256,192,179506,5,0
256,192,179725,1,0
256,192,179944,1,0
256,192,180053,1,0
256,192,180162,5,8
256,192,180381,5,0
256,192,180600,5,8
256,192,180710,5,0
256,192,180929,1,0
256,192,181038,5,8
256,192,181257,5,0
256,192,181476,5,8
256,192,181914,1,0
256,192,182133,1,0
256,192,182352,1,0
256,192,182571,1,0
256,192,182681,1,0
256,192,182790,5,8
256,192,183009,5,0
256,192,183228,1,0
256,192,183338,1,0
256,192,183447,1,0
256,192,183666,5,8
256,192,183776,5,0
256,192,183885,1,0
256,192,184104,5,8
256,192,184323,1,8
256,192,184542,5,0
256,192,184761,5,8
256,192,184980,5,0
256,192,185199,5,8
256,192,185418,5,0
256,192,185527,1,0
256,192,185637,5,8
256,192,185856,5,4
256,192,186184,1,0
256,192,186294,1,0
256,192,186513,5,8
256,192,186732,5,0
256,192,186841,1,0
256,192,186951,1,0
256,192,187170,5,8
256,192,187389,1,8
256,192,187608,5,8
256,192,187717,5,0
256,192,187827,5,8
256,192,188046,1,8
256,192,188155,1,8
256,192,188265,1,8
256,192,188484,1,8
256,192,188593,1,8
256,192,188703,5,0
256,192,188812,1,0
256,192,188922,5,8
256,192,189141,1,8
256,192,189360,5,4
256,192,189579,1,0
256,192,189688,1,0
256,192,189798,5,8
256,192,190017,5,0
256,192,190235,1,0
256,192,190564,1,0
256,192,190673,5,8
256,192,190892,1,8
256,192,191111,5,0
256,192,191330,1,0
256,192,191440,1,0
256,192,191549,5,8
256,192,191768,5,0
256,192,191987,5,8
256,192,192097,5,0
256,192,192316,1,0
256,192,192425,5,8
256,192,192644,1,8
256,192,192863,5,0
256,192,193082,1,0
256,192,193301,5,8
256,192,193630,5,0
256,192,193739,1,0
256,192,193958,1,0
256,192,194177,5,8
256,192,194396,5,0
256,192,194506,1,0
256,192,194615,1,0
256,192,194944,1,0
256,192,195053,5,8
256,192,195381,5,0
256,192,195491,5,8
256,192,195710,1,8
256,192,195929,5,0
256,192,196038,1,0
256,192,196148,5,8
256,192,196367,1,0
256,192,196586,1,0
256,192,196805,5,8
256,192,197024,5,0
256,192,197243,1,0
256,192,197352,1,0
256,192,197462,1,0
256,192,197681,5,8
256,192,197900,5,0
256,192,198119,1,0
256,192,198338,1,0
256,192,198447,1,0
256,192,198557,5,8
256,192,198776,5,0
256,192,198995,1,0
256,192,199214,1,0
256,192,199433,5,8
256,192,199542,5,0
256,192,199652,1,0
256,192,199871,1,0
256,192,200090,1,0
256,192,200308,1,0
256,192,200527,1,0
256,192,200746,1,0
256,192,200965,1,0
256,192,201184,1,0
256,192,201403,1,0
256,192,201622,1,4
256,192,201951,1,0
256,192,202060,1,0
256,192,202279,1,0
256,192,202498,5,8
256,192,202827,5,0
256,192,203155,1,0
256,192,203374,5,8
256,192,203484,5,0
256,192,203703,5,8
256,192,203812,5,0
256,192,204031,5,8
256,192,204141,5,0
256,192,204360,5,8
256,192,204469,5,0
256,192,204688,5,8
256,192,204798,5,0
256,192,204907,1,0
256,192,205126,5,8
256,192,205235,5,0
256,192,205454,5,8
256,192,205564,5,0
256,192,205783,5,8
256,192,205892,5,0
256,192,206111,5,8
256,192,206221,5,0
256,192,206878,5,8
256,192,206987,5,0
256,192,207206,5,8
256,192,207316,5,0
256,192,207535,5,8
256,192,207644,5,0
256,192,207863,5,8
256,192,207973,5,0
256,192,208192,5,8
256,192,208411,1,8
256,192,208630,5,0
256,192,208849,5,8
256,192,209068,1,8
256,192,209287,1,8
256,192,209506,5,12
256,192,209725,1,12
256,192,209944,1,8
256,192,210053,1,8
256,192,210162,5,0
256,192,210272,5,8
