osu file format v9

[General]
AudioFilename: deepsea_plusv_test2.mp3
AudioLeadIn: 1500
PreviewTime: 43470
Countdown: 0
SampleSet: Soft
StackLeniency: 0.5
Mode: 0
LetterboxInBreaks: 0

[Editor]
Bookmarks: 15859,29874,43888,61407,78925,92939,110020,138487,145494,153815,171334,195859
DistanceSpacing: 1.1
BeatDivisor: 4
GridSize: 4

[Metadata]
Title:Deepsea Girl
Artist:eveless & qinche
Creator:Megurine Luka
Version:Normal
Source:Yuuyu
Tags:deep sea girl vocaloid vocaloid2 Hatsune Miku Shinkai Shoujo Alace _Kiva Natteke Firce777 NanaDesu yongtw123 KDS Sprosive ignorethis climbb65588 hoLysoup NatsumeRin littlecar3370 y u c a KanaRin kioukiou wmfchris bakabaka loveFantasy Breeze LKs Pokie spboxer3 goodbye chonicle y_u_c_a yuca

[Difficulty]
HPDrainRate:4
CircleSize:3
OverallDifficulty:4
ApproachRate:5
SliderMultiplier:1.2
SliderTickRate:1

[Events]
//Background and Video events
0,0,"23672593.jpg"
//Break Periods
2,61676,63342
2,128246,136997
//Storyboard Layer 0 (Background)
//Storyboard Layer 1 (Fail)
//Storyboard Layer 2 (Pass)
//Storyboard Layer 3 (Foreground)
Sprite,Foreground,Centre,"SB\luka.png",320,240 M,0,1476,,440,385 F,0,1476,2790,0,1 F,0,2790,209068,1 F,0,209068,210162,1,0
//Storyboard Sound Samples
//Background Colour Transformations
3,100,163,162,255

[TimingPoints]
163,437.956204379562,4,2,0,40,1,0
1476,-100,4,2,1,40,0,0
29944,-100,4,2,2,40,0,0
43958,-100,4,2,1,60,0,1
59287,-100,4,2,1,10,0,1
61476,-100,4,2,1,40,0,0
93009,-100,4,2,1,60,0,1
110090,-100,4,2,1,60,0,0
128046,-100,4,2,1,50,0,0
169871,-100,4,2,1,5,0,0
170090,-100,4,2,1,50,0,0
171841,-100,4,2,1,60,0,1
206440,-100,4,2,1,10,0,1
210162,-100,4,2,1,50,0,0

[Colours]
Combo1 : 128,255,255
Combo2 : 0,128,255
Combo3 : 5,5,240
SliderBorder : 255,255,255

[HitObjects]
144,148,1476,2,0,B|144:80,1,60,2|0
204,60,1914,2,0,B|256:104|332:88,1,120,2|0
448,88,2790,1,0
448,220,3228,2,0,B|448:300,1,60
404,328,3666,2,0,B|360:272|288:268,2,120,2|0|0
404,328,4761,1,0
276,368,5199,5,0
276,368,5418,2,0,B|208:352|192:272,1,120,2|0
80,220,6294,2,0,B|136:188|128:100,1,120
252,72,7170,2,0,B|316:40|388:72,1,120,2|0
320,188,8046,1,0
220,276,8484,5,0
220,276,8703,1,0
220,276,8922,2,0,B|164:304|104:272,1,120,2|0
44,296,9579,2,0,B|112:236|88:108,1,180
208,68,10673,6,0,B|276:48|336:64,1,120,2|0
456,88,11549,1,0
456,88,11987,1,0
440,220,12425,6,0,B|496:224|520:196,2,60,2|0|0
328,148,13301,2,0,B|304:132|269:139,3,60
204,144,14177,2,0,B|144:164|76:128,1,120,2|0
64,264,15053,2,8,B|88:296|76:348,2,60,0|8|8
156,168,15929,6,0,B|200:108|280:108,1,120,2|8
384,140,16805,2,0,B|340:200|260:200,1,120,0|8
192,292,17681,2,0,B|168:328|180:368,2,60,2|0|8
320,328,18557,2,0,B|380:364|452:348,1,120,0|8
404,224,19433,6,0,B|456:184|444:96,1,120,2|8
316,84,20308,2,0,B|244:108,1,60
208,64,20746,2,0,B|152:40,1,60,8|0
92,68,21184,2,0,B|56:120|-24:120,2,120,4|8|0
92,200,22498,6,0,B|112:272,1,60,8|0
72,312,22936,2,0,B|104:328|156:312|172:272,1,120,4|8
304,260,23812,2,0,B|364:236|436:276,1,120,0|8
420,267,24469,1,0
420,267,24688,5,4
380,144,25126,1,8
272,68,25564,1,0
140,76,26002,5,8
140,76,26221,1,0
140,76,26440,2,0,B|120:164|16:200,1,180,4|0
40,136,27316,2,0,B|80:204|212:228,1,180,4|0
172,288,28192,2,0,B|204:208|328:180,1,180,4|0
364,224,29068,2,0,B|404:240|444:224,2,60,0|8|8
316,100,29944,6,0,B|280:44|200:44,2,120,4|0|4
316,100,31257,1,0
216,184,31695,2,0,B|200:252|260:292,1,120,4|0
280,348,32352,2,0,B|332:328,2,30,4|0|0
152,320,33009,1,4
44,244,33447,6,0,B|80:180|40:120,1,120,4|0
168,80,34323,2,0,B|224:52|300:72,1,120
285,68,34980,1,4
285,68,35199,5,0
328,192,35637,1,4
460,184,36075,1,0
428,312,36513,1,4
296,312,36951,6,0,B|232:336|156:288,1,120,4|0
60,244,37827,2,0,B|112:200|100:116,1,120,4|0
216,72,38703,2,0,B|280:60,1,60,4|0
284,128,39141,2,0,B|332:184,2,60,0|0|4
164,184,40017,1,4
204,308,40454,6,0,B|292:280|380:324,1,180,4|0
452,216,41549,1,0
452,216,41768,2,0,B|452:140,1,60
336,96,42425,2,0,B|264:112,2,60
336,96,43082,1,4
328,228,43520,5,0
328,228,43958,2,0,B|280:272|208:240,1,120,4|8
152,232,44615,2,0,B|100:232|80:252,1,60
64,112,45272,6,0,B|144:124,1,60,8|0
188,108,45710,2,0,B|264:88,1,60
308,76,46148,2,0,B|392:92,2,60,8|0|0
288,208,47024,5,8
312,268,47243,1,0
364,308,47462,1,4
424,192,47900,6,0,B|436:156|472:144,1,60,8|0
412,104,48338,2,0,B|408:64|392:36,1,60
332,60,48776,2,0,B|296:44|276:12,1,60,8|0
224,48,49214,2,0,B|168:80|92:56,1,120,4|4
108,60,50090,1,12
48,176,50527,6,0,B|40:256,1,60,8|0
36,300,50965,2,0,B|104:280|172:292,2,120,4|8|0
128,204,52279,5,8
128,204,52498,1,0
128,204,52717,2,0,B|184:164|192:92,1,120,4|0
320,72,53593,1,0
324,204,54031,6,0,B|328:284,2,60,8|0|4
200,252,54907,1,8
116,152,55345,1,0
236,92,55783,6,0,B|292:56|368:76,1,120,8|0
412,104,56440,1,0
364,148,56659,2,0,B|432:160|468:240,1,120,8|0
340,280,57535,1,8
256,192,57973,12,0,59287
256,192,59725,12,0,61476
144,272,64542,6,0,B|224:244,1,60,2|0
228,192,64980,2,0,B|272:240|356:232,1,120,4|8
468,236,65856,1,0
448,104,66294,2,0,B|432:32,1,60,8|0
368,36,66732,2,0,B|308:64|232:24,2,120,0|8|0
368,168,68046,1,8
244,216,68484,6,0,B|188:252|116:220,1,120,0|8
28,136,69360,2,0,B|108:116,1,60
124,68,69798,2,0,B|188:100,1,60,8|0
240,120,70235,1,4
356,56,70673,1,8
460,136,71111,1,0
348,204,71549,6,0,B|344:268,1,60,8|0
284,288,71987,2,0,B|236:252|168:272,1,120,0|8
44,228,72863,2,0,B|72:168|40:104,1,120,0|8
43,111,73520,1,0
43,111,73739,1,0
160,48,74177,1,8
280,104,74615,2,0,B|352:80,2,60,0|0|8
220,220,75491,6,0,B|296:292|408:256,1,180,4|0
360,324,76367,2,0,B|380:240|468:184,1,180,4|0
466,184,77243,1,4
376,88,77681,1,8
244,92,78119,2,0,B|164:96,2,60,0|0|8
184,208,78995,5,4
408,348,79871,1,0
404,84,80746,1,0
404,84,81184,2,0,B|468:56,2,60,8|0|0
272,60,82060,1,8
172,144,82498,6,0,B|108:168|52:124,1,120,4|8
58,128,83155,1,0
58,128,83374,1,0
108,252,83812,2,0,B|132:320|112:376,1,120,8|0
240,332,84688,2,0,B|304:304,2,60,8|0|0
368,364,85564,1,8
436,252,86002,6,0,B|492:220|476:132,1,120,4|8
348,168,86878,2,0,B|276:160|264:88,1,120,0|8
132,108,87754,2,0,B|80:100|40:124,2,90,4|0|0
132,108,88630,1,8
220,208,89068,1,0
220,340,89506,6,0,B|288:356|340:336|392:276,1,180,4|0
376,156,90600,2,0,B|412:88|468:72,1,120
332,228,91695,2,0,B|300:256|264:260,2,60,8|0|0
216,168,92571,1,8
92,124,93009,6,0,B|160:108|188:24,1,120,4|8
178,47,93885,1,0
308,76,94323,1,8
308,76,94542,1,0
308,76,94761,2,0,B|364:128,1,60
360,184,95199,2,0,B|408:136|492:156,1,120,8|0
436,280,96075,6,0,B|472:320|504:328,2,60,8|0|0
312,324,96951,2,0,B|244:348|188:316,1,120,8|0
80,256,97827,1,8
144,140,98265,2,0,B|212:140|276:100,1,120,4|8
144,140,99141,1,0
44,56,99579,5,8
44,56,100017,2,0,B|84:32|120:24,1,60,4|0
160,52,100454,2,0,B|220:60,1,60,8|0
280,88,100892,2,0,B|344:108|424:80,1,120,0|8
380,220,101768,2,0,B|420:272,2,60,0|0|8
380,220,102644,1,0
272,296,103082,6,0,B|220:336,2,60,8|0|4
272,164,103958,1,8
272,164,104396,1,0
272,164,104834,2,0,B|272:36,1,120,8|4
152,96,105710,5,8
92,216,106148,1,0
144,336,106586,1,8
276,360,107024,6,0,B|400:352|348:236|476:216,1,240,4|0
392,104,108338,1,8
316,212,108776,2,0,B|268:252|164:228|188:124|256:104,1,240,4|0
256,103,110090,1,8
128,68,110527,6,0,B|56:72|20:24,1,120,4|8
20,156,111403,2,0,B|54:202|126:198,1,120,0|8
168,324,112279,2,0,B|208:272|296:280,1,120,0|8
274,278,112936,1,0
380,204,113374,1,0
304,96,113812,5,0
304,96,114031,2,0,B|236:68,1,60,4|0
136,140,114688,1,0
136,140,114907,2,0,B|176:196,1,60
168,256,115345,2,0,B|136:312,1,60,8|0
188,352,115783,6,0,B|260:376|320:340,1,120,4|8
304,348,116440,1,0
432,308,116878,1,0
284,176,117535,6,0,B|352:156|356:80,1,120,4|8
355,89,118192,1,0
224,72,118630,1,0
224,72,118849,2,0,B|156:112,1,60,8|0
108,84,119287,2,0,B|116:160,1,60,0|0
84,200,119725,2,0,B|160:176,1,60,8|0
192,304,120381,5,0
192,304,120600,2,0,B|228:252|296:240,1,120,8|0
424,232,121476,1,8
444,100,121914,1,0
312,88,122352,1,8
208,168,122790,5,4
208,168,123228,2,0,B|104:176|68:76,1,180,8|0
68,78,124104,1,8
256,192,124323,12,4,128046
192,312,138557,5,2
192,312,139433,2,0,B|192:184,1,120
264,80,140308,2,0,B|328:36,2,60,2|0|0
320,200,141184,2,0,B|368:240|440:220,1,120
396,96,142060,5,2
216,180,142717,1,0
216,180,143155,2,0,B|216:100,1,60
320,36,143812,1,2
76,136,144688,1,0
256,328,145564,6,0,B|256:256,2,60,2|0|0
256,328,146440,1,0
388,328,146878,2,0,B|432:284,2,60,0|0|2
448,72,148192,1,0
200,160,149068,6,0,B|128:120|168:12|288:40|276:136,1,240,2|0
264,188,150163,2,0,B|304:240,2,60
256,192,150819,12,2,152571
88,304,153885,6,0,B|144:276|144:200,1,120,0|2
132,72,154761,1,0
132,72,155199,1,0
244,144,155637,6,0,B|312:152|356:88,1,120,0|2
408,216,156513,2,0,B|476:216|500:280,1,120
380,332,157389,6,0,B|320:364,2,60,0|0|2
264,268,158265,2,0,B|192:260|172:184,1,120
44,216,159141,2,0,B|88:152,1,60
68,100,159579,2,0,B|136:104|188:32,1,120,2|0
304,56,160454,1,0
320,188,160892,5,0
450,207,161330,1,2
473,336,161768,1,8
344,316,162206,1,0
320,188,162644,5,8
188,188,163082,2,0,B|112:204,1,60,2|0
64,188,163520,2,0,B|48:116,2,60,8|0|8
80,320,164396,6,0,B|152:300|204:356,1,120,2|8
312,284,165272,1,0
196,216,165710,1,8
272,108,166148,1,0
272,108,166586,6,0,B|348:120|296:-32|376:108|428:48,1,180,4|0
424,120,167462,2,0,B|448:184|528:196,1,120,0|8
512,193,168119,1,0
256,192,168338,12,0,169871
256,192,170090,12,0,170965
256,196,171403,6,0,B|256:120,1,60,2|0
192,128,171841,2,0,B|128:96,1,60,4|0
72,96,172279,2,0,B|32:40,2,60,8|0|0
92,228,173155,2,0,B|96:296|164:328,1,120,8|0
288,312,174031,1,8
288,312,174250,2,0,B|360:288,1,60
376,164,174907,6,0,B|436:136|436:48,1,120,8|4
376,164,175783,1,8
248,204,176221,2,0,B|200:148,1,60
144,148,176659,2,0,B|88:172,1,60,8|0
28,148,177097,2,0,B|72:112|64:16,1,120,4|4
65,38,177973,1,4
196,36,178411,5,8
336,192,178849,2,0,B|304:264,1,60,4|0
244,240,179287,2,0,B|272:312|356:320,1,120,8|0
456,268,180162,2,0,B|504:208,1,60,8|0
456,168,180600,2,0,B|388:120|408:68|456:80,1,120,0|8
437,78,181476,1,0
312,120,181914,6,0,B|248:152,1,60,8|0
258,146,182352,1,0
224,276,182790,1,8
96,308,183228,1,0
120,180,183666,1,8
120,48,184104,6,0,B|212:32|288:100,1,180,4|0
236,144,184980,2,0,B|296:76|416:84,1,180,4|0
444,36,185856,2,0,B|384:152|448:268,1,240,4|0
332,336,187170,1,8
332,336,187389,1,0
256,192,187608,12,4,189360
256,72,189798,5,8
256,72,190235,2,0,B|256:196,1,120,0|8
136,248,191111,2,0,B|172:312|244:328,1,120,0|8
347,267,191987,2,0,B|311:203|239:187,1,120,0|8
144,124,192863,5,0
144,124,193301,1,8
144,124,193739,1,0
264,68,194177,2,0,B|336:40,2,60,8|0|4
144,124,195053,1,12
260,188,195491,1,4
144,248,195929,5,8
144,248,196367,2,0,B|164:320|236:340,1,120,4|8
280,360,197024,2,0,B|292:292|380:264,1,120
355,273,197681,1,8
260,180,198119,6,0,B|300:120|372:132,1,120,0|8
420,100,198776,2,0,B|400:168|440:224,1,120
434,215,199433,1,8
320,284,199871,6,0,B|288:344|224:352,1,120,4|8
164,336,200527,2,0,B|176:256|128:196,1,120
144,219,201184,1,8
268,172,201622,6,0,B|312:92|368:160|404:68,1,180,4|0
380,8,202498,2,0,B|452:12|472:80,1,120,0|8
470,74,203155,1,0
256,192,203374,12,0,206440
256,192,206878,12,2,210162
