osu file format v9

[General]
AudioFilename: deepsea_plusv_test2.mp3
AudioLeadIn: 1500
PreviewTime: 43470
Countdown: 0
SampleSet: Soft
StackLeniency: 0.5
Mode: 0
LetterboxInBreaks: 0

[Editor]
Bookmarks: 15859,29874,43888,61407,78925,92939,110020,138487,145494,153815,171334,195859
DistanceSpacing: 1.5
BeatDivisor: 4
GridSize: 4

[Metadata]
Title:Deepsea Girl
Artist:eveless & qinche
Creator:Megurine Luka
Version:Bless
Source:Yuuyu
Tags:deep sea girl vocaloid vocaloid2 Hatsune Miku Shinkai Shoujo Alace _Kiva Natteke Firce777 NanaDesu yongtw123 KDS Sprosive ignorethis climbb65588 hoLysoup NatsumeRin littlecar3370 y u c a KanaRin kioukiou wmfchris bakabaka loveFantasy Breeze LKs Pokie spboxer3 goodbye chonicle y_u_c_a yuca

[Difficulty]
HPDrainRate:7
CircleSize:4
OverallDifficulty:7
ApproachRate:8
SliderMultiplier:1.8
SliderTickRate:1

[Events]
//Background and Video events
0,0,"23672593.jpg"
//Break Periods
2,61676,64230
2,128246,137807
//Storyboard Layer 0 (Background)
//Storyboard Layer 1 (Fail)
//Storyboard Layer 2 (Pass)
//Storyboard Layer 3 (Foreground)
Sprite,Foreground,Centre,"SB\luka.png",320,240 M,0,1476,,440,385 F,0,1476,2790,0,1 F,0,2790,14396,1 F,0,14396,15929,1,0
Sprite,Foreground,Centre,"SB\kiva.png",320,240 S,0,15819,15929,0.1,1.00112 R,0,15819,15929,-3,0 M,0,15929,,440,385 F,0,15929,28630,1 F,0,28630,29944,1,0
Sprite,Foreground,Centre,"SB\Nanadesu.png",320,240 M,0,29944,,440,385 F,0,29944,31257,0,1 F,0,31257,42644,1 F,0,42644,43958,1,0
Sprite,Foreground,Centre,"SB\littlecar3370.png",320,240 M,0,78995,,440,385 F,0,78995,80308,0,1 F,0,80308,91695,1 F,0,91695,93009,1,0
Sprite,Foreground,Centre,"SB\Sprosive.png",320,240 M,0,43849,,440,385 S,0,43849,43958,0.1,1 R,0,43849,43958,-3,0 F,0,43849,60162,1 F,0,60162,61476,1,0
Sprite,Foreground,Centre,"SB\KanaRin.png",320,240 M,0,93009,,440,385 S,0,93009,93119,0,1 R,0,93009,93119,-3,-6.286719 F,0,93009,108776,1 F,0,108776,110090,1,0
Sprite,Foreground,Centre,"SB\wmfchris.png",320,240 F,0,110527,,1 M,0,110527,138557,-108,337,719,337
Sprite,Foreground,Centre,"SB\loveFantasy.png",320,240 M,0,138557,,440,385 F,0,138557,139871,0,1 F,0,139871,152571,1 F,0,152571,153885,1,0
Sprite,Foreground,Centre,"SB\spboxer3.png",320,240 M,0,171732,,440,385 S,0,171732,171841,0.1,1 R,0,171732,171841,-3,0 F,0,171841,210162,1 F,0,210162,,0.83104
Sprite,Foreground,Centre,"SB\Breeze.png",320,240 M,0,153885,,439,385 F,0,153885,155199,0,1 F,0,155199,170090,1 F,0,170090,171403,1,0
Sprite,Foreground,Centre,"SB\hoLysoup.png",320,240 M,0,64980,,440,385 F,0,64980,66294,0,1 F,0,66294,77681,1 F,0,77681,78995,1,0
//Storyboard Sound Samples
//Background Colour Transformations
3,100,163,162,255

[TimingPoints]
163,437.956204379562,4,2,0,40,1,0
1476,-133.333333333333,4,2,1,40,0,0
15929,-100,4,1,0,40,0,0
15929,-100,4,2,1,40,0,0
16148,-100,4,2,1,40,0,0
17681,-100,4,1,0,40,0,0
17900,-100,4,2,0,40,0,0
19433,-100,4,1,1,40,0,0
19652,-100,4,2,1,40,0,0
19871,-100,4,2,1,40,0,0
21184,-100,4,1,1,40,0,0
21403,-100,4,2,1,40,0,0
21622,-100,4,1,1,40,0,0
21841,-100,4,2,1,40,0,0
22060,-100,4,1,1,40,0,0
22498,-100,4,2,1,40,0,0
22936,-100,4,1,1,40,0,0
23155,-100,4,2,1,40,0,0
23374,-100,4,1,1,40,0,0
23593,-100,4,2,1,40,0,0
24688,-100,4,1,1,40,0,0
24907,-100,4,2,1,40,0,0
26002,-100,4,1,1,40,0,0
26440,-100,4,1,1,45,0,0
26878,-100,4,1,1,50,0,0
27316,-100,4,1,1,55,0,0
29725,-100,4,2,1,60,0,0
29944,-100,4,2,1,40,0,0
36951,-100,4,2,1,45,0,0
37827,-100,4,2,1,50,0,0
38703,-100,4,2,1,55,0,0
39141,-100,4,2,1,60,0,0
43958,-100,4,2,1,60,0,1
61476,-100,4,2,1,60,0,0
65418,-100,4,2,1,40,0,0
65527,-100,4,2,1,50,0,0
67169,-100,4,2,1,40,0,0
67279,-100,4,2,1,50,0,0
68922,-100,4,2,1,40,0,0
69031,-100,4,2,1,50,0,0
70673,-100,4,2,1,40,0,0
70783,-100,4,2,1,50,0,0
72425,-100,4,2,1,40,0,0
72534,-100,4,2,1,50,0,0
93009,-100,4,2,1,65,0,1
103958,-133.333333333333,4,2,1,50,0,1
105272,-100,4,2,1,50,0,1
105710,-100,4,2,1,60,0,1
106148,-100,4,2,1,70,0,1
106586,-100,4,2,1,80,0,1
107024,-100,4,2,1,65,0,1
110090,-100,4,2,1,65,0,0
121038,-100,4,2,1,30,0,0
121476,-100,4,2,1,45,0,0
121914,-100,4,2,1,60,0,0
122352,-100,4,2,1,75,0,0
122790,-100,4,2,1,90,0,0
123885,-100,4,2,1,70,0,0
124542,-100,4,2,1,60,0,0
138557,-200,4,2,0,25,0,0
138776,-200,4,2,2,25,0,0
141622,-200,4,1,0,25,0,0
141841,-200,4,2,2,25,0,0
145126,-200,4,1,0,25,0,0
145199,-200,4,1,0,15,0,0
145564,-200,4,2,0,25,0,0
145783,-200,4,2,2,25,0,0
148630,-200,4,2,2,60,0,0
148849,-200,4,2,2,25,0,0
150819,-200,4,2,2,30,0,0
151257,-200,4,2,2,22,0,0
151695,-200,4,2,2,14,0,0
152133,-200,4,2,2,5,0,0
153776,-133.333333333333,4,2,0,20,0,0
154214,-133.333333333333,4,2,0,30,0,0
154433,-133.333333333333,4,2,0,20,0,0
154652,-133.333333333333,4,2,0,30,0,0
155090,-133.333333333333,4,2,0,40,0,0
155308,-133.333333333333,4,2,0,30,0,0
155527,-133.333333333333,4,2,0,50,0,0
155746,-133.333333333333,4,2,0,30,0,0
155965,-133.333333333333,4,2,0,50,0,0
156184,-133.333333333333,4,2,0,30,0,0
156403,-133.333333333333,4,2,0,50,0,0
156622,-133.333333333333,4,2,0,30,0,0
156841,-133.333333333333,4,2,0,50,0,0
157060,-133.333333333333,4,2,0,30,0,0
157279,-133.333333333333,4,2,0,50,0,0
157498,-133.333333333333,4,2,0,30,0,0
157717,-133.333333333333,4,2,0,50,0,0
157936,-133.333333333333,4,2,0,30,0,0
158155,-133.333333333333,4,2,0,50,0,0
158374,-133.333333333333,4,2,0,30,0,0
158593,-133.333333333333,4,2,0,50,0,0
158812,-133.333333333333,4,2,0,30,0,0
159031,-133.333333333333,4,2,0,50,0,0
159250,-133.333333333333,4,2,0,30,0,0
159469,-133.333333333333,4,2,0,50,0,0
161330,-100,4,2,1,50,0,0
166038,-100,4,2,1,40,0,0
166257,-100,4,2,1,50,0,0
168666,-100,4,2,1,55,0,0
169104,-100,4,2,1,60,0,0
169542,-100,4,2,1,65,0,0
169980,-100,4,2,1,50,0,0
171841,-100,4,2,1,70,0,1
210162,-100,4,2,1,50,0,0

[Colours]
Combo1 : 128,255,255
Combo2 : 0,128,255
Combo3 : 5,5,240
SliderBorder : 255,255,255

[HitObjects]
88,64,1476,2,0,B|88:144,1,67.4999979883433
32,184,1914,2,0,B|32:264|112:280,1,134.999995976687,2|0
109,279,2571,1,0
109,279,2790,1,2
224,368,3228,2,0,B|280:312,1,67.4999979883433
344,344,3666,2,0,B|352:272|424:264|464:280,1,134.999995976687,2|0
440,274,4323,1,0
456,344,4542,2,0,B|504:336|512:296,1,67.4999979883433,2|0
408,112,5199,5,0
408,112,5418,2,0,B|336:80|256:112,1,134.999995976687,2|0
80,152,6075,1,0
80,152,6294,2,0,B|144:184|232:152,1,134.999995976687,2|0
211,158,6951,1,0
176,288,7170,5,2
304,256,7389,1,0
160,216,7608,1,0
288,184,7827,1,0
248,312,8046,1,2
400,328,8484,6,0,B|448:320|464:280,1,67.4999979883433
464,224,8922,2,0,B|416:280|336:288,1,134.999995976687,2|0
240,336,9579,1,0
240,336,9798,1,2
119,248,10235,1,0
119,248,10345,1,0
119,248,10454,1,0
0,296,10673,2,0,B|80:304|120:248,1,134.999995976687,2|0
240,336,11330,2,0,B|240:256,1,67.4999979883433,0|2
240,120,11987,1,0
352,72,12206,5,0
352,72,12316,1,0
352,72,12425,1,2
432,192,12644,1,0
304,192,12863,1,2
200,264,13082,1,0
200,264,13192,1,0
200,264,13301,1,2
176,136,13520,1,0
304,192,13739,1,0
352,72,13958,1,0
304,192,14177,6,0,B|280:256|232:264|176:264,1,134.999995976687,2|0
72,280,14834,1,0
176,136,15053,1,0
256,48,15272,1,8
256,328,15491,1,8
192,240,15710,1,0
192,240,15929,6,0,B|240:244|264:288,1,90
372,148,16367,2,0,B|372:204|332:244,1,90,2|0
216,116,16805,2,0,B|200:-4|340:0,1,180,0|2
460,172,17462,2,0,B|368:148,1,90
300,88,17900,2,0,B|272:188,1,90,0|2
220,268,18338,2,0,B|104:272|104:132,1,180
105,158,18885,1,0
105,158,18995,1,2
188,88,19214,1,0
384,52,19433,6,0,B|320:64|288:104,2,90,0|0|2
304,88,20090,1,0
248,180,20308,1,0
188,88,20527,1,0
168,196,20746,1,2
108,104,20965,1,0
88,212,21184,2,0,B|96:284|148:288,1,90
228,332,21622,2,0,B|212:276|244:248,1,90,0|0
344,284,22060,2,0,B|448:288|472:172,1,180,0|0
470,180,22717,1,0
300,104,22936,6,0,B|328:120|368:96|368:96|400:120,1,90,0|2
504,40,23374,2,0,B|476:56|436:56|436:56|404:40,1,90,0|0
376,144,23812,2,0,B|320:212|224:176|200:116,1,180,0|2
116,180,24469,2,0,B|88:128|136:72,1,90
216,144,24907,2,0,B|228:200|204:244,1,90,0|2
116,288,25345,1,0
116,288,25564,2,0,B|200:248|264:308,1,135,0|0
292,316,26002,1,0
344,324,26111,1,0
400,320,26221,1,0
484,252,26440,6,0,B|500:184|464:132,1,90
392,100,26878,2,0,B|412:144|408:196,1,90
300,192,27316,2,0,B|232:200|204:244,1,90
124,284,27754,1,0
164,320,27863,1,0
216,340,27973,1,0
268,344,28082,1,0
324,344,28192,6,0,B|376:328|396:288,1,90
492,244,28630,2,0,B|448:232|428:176,1,90
412,76,29068,1,0
360,64,29177,1,0
304,64,29287,2,0,B|256:64|208:104,1,90
176,124,29615,1,0
148,172,29725,1,0
144,224,29834,1,0
160,276,29944,1,4
354,180,30162,5,0
354,180,30272,1,0
354,180,30381,1,10
254,242,30600,1,0
146,196,30819,2,0,B|102:298,1,90,0|10
366,196,31257,2,0,B|410:298,1,90,0|10
256,320,31695,6,0,B|256:168,2,135,0|10|2
152,264,32571,1,8
256,208,32790,1,2
360,264,33009,1,10
256,320,33228,5,0
256,320,33338,1,0
256,320,33447,2,0,B|224:272|176:248,1,90,2|0
76,276,33885,2,0,B|120:244|141:174,1,90,2|0
104,90,34323,2,2,B|156:177|251:199,1,180,10|2
353,158,34980,1,2
250,214,35199,5,8
96,308,35418,1,2
168,144,35637,1,8
216,320,35856,1,2
80,208,36075,1,0
168,288,36294,5,10
168,288,36403,1,0
168,288,36513,1,10
203,176,36732,1,0
203,176,36841,1,0
203,176,36951,2,2,B|275:183|349:139,1,135,2|0
374,105,37389,2,0,B|373:159|411:202,1,90,10|0
322,277,37827,2,0,B|229:240|105:294,1,180,0|10
145,278,38484,5,0
331,80,38703,5,2
292,190,38922,1,0
471,171,39141,5,10
395,260,39360,1,0
286,303,39579,2,0,B|99:320,1,180,2|8
63,97,40235,5,0
96,112,40345,1,0
128,128,40454,2,0,B|160:264,1,135,2|0
136,313,40892,2,0,B|171:270|210:257,1,90,8|2
275,163,41330,2,0,B|259:211|279:268,1,90,0|0
369,320,41768,1,10
369,320,41987,1,2
256,192,42206,12,4,43082
240,264,43520,5,0
376,328,43958,6,0,B|440:312|488:256|464:160,1,180,4|8
416,120,44615,1,0
440,32,44834,1,2
80,48,45272,5,8
56,136,45491,1,0
144,120,45710,2,0,B|248:104|296:192,1,180,2|8
328,280,46367,1,0
304,368,46586,1,0
64,320,47024,6,0,B|40:224,1,90,8|0
16,144,47462,1,2
432,272,47900,5,8
456,184,48119,1,0
392,120,48338,2,0,B|352:144|304:128,1,90,0|2
216,104,48776,2,0,B|128:80,1,90,8|0
16,256,49214,5,2
128,216,49433,1,0
248,224,49652,1,8
352,280,49871,1,0
432,368,50090,1,2
480,32,50527,6,0,B|504:72|496:120,1,90,8|0
472,208,50965,2,0,B|288:184,1,180,4|8
224,120,51622,1,0
240,32,51841,1,2
48,216,52279,6,0,B|88:248|80:304,1,90,8|0
40,376,52717,1,2
144,328,52936,1,0
256,344,53155,1,8
224,232,53374,1,0
288,136,53593,2,0,B|352:216|448:176,1,180,0|8
496,96,54250,1,0
464,8,54469,1,2
160,48,54907,5,0
168,352,55345,1,0
472,320,55783,2,0,B|496:280|488:232,1,90
456,152,56221,5,0
320,168,56440,1,2
264,56,56659,5,8
280,192,56878,1,0
168,256,57097,5,2
304,240,57316,1,0
360,352,57535,5,8
344,216,57754,1,2
232,136,57973,2,2,B|152:68|152:68|184:152|159:224|39:226|11:152,1,360,4|2
408,96,59287,1,0
256,192,59725,12,4,61476
160,80,64980,6,0,B|120:96|80:144|88:200|112:240,1,180,6|8
208,336,65637,2,0,B|248:320|288:272|280:216|256:176,1,180,0|0
260,184,66294,1,2
432,120,66732,2,0,B|432:64|408:32,2,90,0|0|8
376,216,67389,1,0
376,216,67608,2,0,B|280:248|192:216,1,180,0|2
128,88,68265,1,0
56,168,68484,6,0,B|8:264|80:336,1,180,0|8
160,264,69141,1,0
256,304,69360,2,0,B|296:336|344:320,2,90,0|0|2
160,264,70017,1,0
136,160,70235,2,0,B|80:160|48:208,2,90,0|0|8
232,112,70892,1,0
312,184,71111,2,0,B|344:280|272:352,1,180,0|2
104,224,71768,5,0
104,224,71878,1,0
104,224,71987,2,0,B|96:272|128:312,2,90,0|0|8
192,168,72644,1,0
264,248,72863,2,0,B|368:272|424:176,1,180,0|2
400,80,73520,1,0
304,32,73739,1,0
216,192,73958,1,0
304,32,74177,1,8
216,192,74396,1,0
136,120,74615,6,0,B|56:176|80:280,1,180,0|2
208,320,75272,1,0
232,296,75381,1,0
272,288,75491,2,0,B|320:280|360:320,2,90,0|0|8
176,176,76148,2,0,B|128:184|88:144,2,90
280,192,76805,1,2
352,112,77024,1,0
256,48,77243,6,0,B|184:104|80:96,1,180,4|8
48,200,77900,1,0
48,200,78119,2,0,B|144:208|168:320,1,180,4|8
232,232,78776,1,0
152,112,78995,6,0,B|256:144,1,90,6|0
398,165,79433,2,0,B|312:192,1,90,0|0
232,232,79871,1,2
144,256,80090,1,0
127,271,80199,1,0
111,285,80308,2,0,B|160:344|224:336,1,90
304,304,80746,6,0,B|360:288|392:256|392:200,1,135,2|0
392,192,81184,1,0
336,120,81403,1,0
256,152,81622,2,0,B|144:152,1,90,2|0
166,152,82060,5,0
40,336,82279,1,0
96,264,82498,6,0,B|192:264,1,90,2|0
240,336,82936,1,0
328,336,83155,1,0
384,264,83374,1,2
384,264,83812,6,0,B|424:232|408:160,1,90
368,80,84250,2,0,B|309:88|304:160,1,90,2|0
272,240,84688,2,0,B|208:240|192:184,1,90,0|0
152,104,85126,2,0,B|112:112|72:144|64:192|80:256,1,180,2|0
83,266,85673,1,0
89,287,85783,1,0
100,306,85892,1,0
113,324,86002,6,0,B|209:287,1,90,6|0
399,324,86440,2,0,B|303:287,1,90,2|0
176,200,86878,6,0,B|217:99,1,90,2|0
336,200,87316,2,0,B|295:99,1,90,2|0
256,16,87754,6,0,B|192:16|152:48|128:104,1,135,6|0
256,192,88411,1,0
256,192,88630,2,0,B|312:192|368:136,1,90,2|0
358,150,88958,1,0
369,130,89068,2,0,B|425:130|481:186,1,90,0|0
376,240,89506,5,6
192,296,89725,2,0,B|240:352,2,45
136,224,90162,5,6
216,48,90381,2,0,B|143:61,2,45
304,32,90819,1,4
448,160,91038,5,0
264,224,91257,1,2
112,104,91476,1,0
96,120,91586,1,2
80,136,91695,1,0
64,152,91805,1,0
48,168,91914,1,0
48,168,92133,5,0
176,320,92571,6,0,B|232:264|320:280,1,135,2|0
368,272,93009,6,0,B|424:256|448:176,1,90,12|0
392,48,93447,2,0,B|336:64|312:144,1,90,8|0
240,176,93885,2,0,B|176:96|48:112,1,180,2|8
24,200,94542,5,0
64,224,94652,1,0
88,264,94761,2,0,B|112:304|112:352,1,90,0|0
304,352,95199,2,0,B|280:312|280:264,1,90,8|0
336,176,95637,2,0,B|272:144|176:168,1,135,4|0
136,160,96075,6,0,B|80:152|32:96,1,90,8|0
168,312,96513,2,0,B|208:272|208:272|280:304|368:280,1,180,4|8
400,208,97170,1,0
416,168,97279,1,0
448,136,97389,2,0,B|440:88|440:32,1,90,2|0
288,224,97827,2,0,B|296:272|296:328,1,90,8|0
160,336,98265,5,12
56,304,98484,1,0
264,168,98703,1,12
376,160,98922,1,0
168,296,99141,5,4
288,128,99360,1,8
40,264,99579,1,12
416,192,99798,1,8
416,192,99907,1,0
416,192,100017,6,0,B|440:136|432:96,1,90,4|0
248,288,100454,2,0,B|224:232|232:192,1,90,8|0
256,168,100783,1,0
272,128,100892,2,0,B|288:72|272:24,1,90,2|0
96,128,101330,5,8
40,232,101549,1,0
208,176,101768,1,0
216,296,101987,1,0
344,144,102206,1,8
408,248,102425,1,0
408,248,102535,1,0
408,248,102644,2,0,B|336:256|280:360,1,135,6|0
248,344,103082,6,0,B|192:352|128:344,1,90,8|0
64,152,103520,1,2
64,152,103958,6,0,B|120:128|184:160|224:136,1,134.999995976687,0|2
280,112,104615,1,0
280,112,104725,1,0
280,112,104834,1,8
368,136,105053,1,8
456,136,105272,6,0,B|472:80|472:32,1,90,8|8
280,208,105710,2,0,B|264:264|264:312,1,90,8|8
208,120,106148,2,0,B|224:64|224:16,1,90,8|8
32,192,106586,2,0,B|16:248|16:296,1,90,8|8
144,320,107024,5,12
160,168,107243,1,8
160,168,107352,1,8
320,176,107571,1,8
320,176,107681,1,8
432,88,107900,6,0,B|408:32,1,45,8|8
432,264,108228,2,0,B|472:304,1,45,8|8
320,176,108557,1,8
168,232,108776,5,12
312,104,108995,1,8
312,104,109104,1,0
336,296,109323,1,8
336,296,109433,5,8
272,200,109652,5,8
272,200,109761,1,8
272,200,109871,1,8
80,80,110090,6,0,B|144:60|196:80,1,90
208,84,110418,1,0
244,104,110527,1,6
324,104,110746,1,0
324,104,110856,2,0,B|476:104,2,135
324,144,111622,1,0
380,204,111841,2,0,B|404:248|372:308,1,90,2|0
272,248,112279,5,2
180,320,112498,1,0
76,264,112717,1,0
100,148,112936,1,0
216,144,113155,2,0,B|192:80|228:32,2,90,0|0|2
324,100,113812,1,0
432,52,114031,6,0,B|456:100|432:144|432:144|432:196,2,135,2|0|0
352,52,114907,2,0,B|244:20,1,90
284,104,115345,2,0,B|168:120,1,90,2|0
244,184,115783,6,0,B|148:240,2,90,2|0|0
324,176,116440,1,0
444,164,116768,1,0
396,276,117097,1,2
316,276,117316,2,0,B|200:276,1,90,0|2
80,200,117973,5,2
84,120,118192,2,0,B|108:80|180:44|256:44,1,180
324,44,118849,1,2
324,44,119068,1,0
408,44,119287,6,0,B|504:44,2,90,2|0|2
368,116,119944,2,0,B|416:200|364:296,1,180
308,344,120600,2,0,B|196:344,1,90,2|0
140,316,121038,5,0
60,272,121257,1,0
40,176,121476,1,0
68,72,121695,1,0
172,44,121914,2,0,B|276:44,1,90
352,160,122352,2,0,B|240:160,1,90
220,160,122681,1,0
180,160,122790,5,4
448,52,123228,1,4
472,168,123447,1,4
200,308,123885,1,2
84,284,124104,1,0
160,196,124323,1,2
164,80,124542,6,0,B|252:40,1,90
328,44,124980,1,2
400,84,125199,2,0,B|452:84,2,45,0|2|0
328,124,125637,1,0
260,168,125856,1,2
328,216,126075,1,2
396,172,126294,6,0,B|396:272,1,90
328,216,126732,2,0,B|264:312,1,90,2|0
220,236,127170,2,0,B|112:272,3,90,0|0|2|0
140,184,128046,1,4
112,168,138557,6,0,B|92:212,1,45,4|0
185,223,138995,2,0,B|231:216,1,45,0|2
194,136,139433,2,0,B|192:84|244:51|293:80,1,135,2|4
287,76,140308,1,4
419,146,140746,2,0,B|461:120,1,45
465,216,141184,1,2
291,329,141622,1,0
224,285,141841,1,6
147,260,142060,6,0,B|177:219|148:173,1,90,6|0
74,137,142717,2,0,B|44:96|73:50,1,90,2|0
71,52,143374,1,2
192,102,143593,1,4
192,102,143812,1,4
389,136,145126,6,0,B|389:114,3,15,0|0|0|0
426,216,145564,6,0,B|467:251,1,45,4|0
382,291,146002,2,0,B|326:305,1,45,0|2
343,216,146440,2,0,B|304:190|298:142,1,90,2|0
300,59,147097,1,4
212,82,147316,2,0,B|171:65,1,45,4|0
134,140,147754,2,0,B|140:194,1,45
219,172,148192,2,0,B|227:221|199:259|145:272,1,135,2|4
86,320,149068,6,0,B|62:284|75:234,1,90,6|0
38,157,149725,2,0,B|49:113|96:90,1,90,2|0
175,125,150381,1,2
149,27,150600,1,6
244,52,150819,1,4
256,192,150929,12,2,152571
88,88,153885,6,0,B|248:88,1,134.999995976687,0|2
280,88,154542,1,2
320,56,154761,2,0,B|320:128,1,67.4999979883433,2|2
368,96,155199,2,0,B|368:168,1,67.4999979883433,2|2
416,136,155637,2,0,B|416:216,1,67.4999979883433,2|2
456,272,156075,6,0,B|360:272,1,67.4999979883433,2|2
320,224,156513,2,0,B|320:328,1,67.4999979883433,2|2
368,360,156951,2,0,B|280:360,1,67.4999979883433,2|2
248,296,157389,2,0,B|248:200,1,67.4999979883433,2|2
248,120,157827,6,0,B|200:64,1,67.4999979883433,2|2
96,56,158265,2,0,B|160:8,1,67.4999979883433,2|2
136,120,158703,2,0,B|200:192,1,67.4999979883433,2|2
168,280,159141,2,0,B|240:208,1,67.4999979883433,2|2
288,152,159579,5,0
408,88,159798,1,0
488,200,160017,1,0
424,320,160235,1,0
296,280,160454,1,0
40,192,160892,6,0,B|184:192,1,134.999995976687,0|8
352,192,161768,2,0,B|408:184|464:256|424:320,1,180,8|8
304,184,162644,2,0,B|300:127|377:78|437:123,1,180,8|8
288,224,163520,2,0,B|231:222|188:141|239:85,1,180,8|4
344,232,164396,6,0,B|366:284|311:356|238:334,1,180,0|4
80,264,165272,2,0,B|28:240|28:144|80:112,1,180
128,192,165929,1,8
128,192,166148,2,0,B|256:192,1,90,8|0
304,156,166586,1,8
332,72,166805,1,0
304,228,167024,1,0
332,312,167243,1,0
380,156,167462,5,0
448,96,167681,1,8
380,228,167900,1,8
448,288,168119,1,4
468,192,168338,5,2
468,192,168557,1,2
380,192,168776,1,2
380,192,168995,1,2
280,192,169214,1,2
280,192,169433,1,2
172,192,169652,1,2
172,192,169871,1,2
56,192,170090,5,8
56,192,170308,1,8
112,84,170527,2,0,B|112:148,1,45,8|8
112,300,170856,2,0,B|112:236,1,45,8|8
172,192,171184,2,0,B|288:192|312:256|256:288|200:248|224:192|336:192,1,270,0|4
432,148,172060,5,0
352,76,172279,2,0,B|232:56,1,90,8|0
172,120,172717,2,0,B|292:140,1,90,0|0
340,208,173155,2,0,B|364:276|332:316|332:316|248:320,1,180,8|0
184,248,173812,1,0
96,312,174031,2,0,B|16:356,2,90,8|0|0
52,100,174907,6,0,B|112:108|152:60|152:60|232:104,1,180,8|4
404,192,175783,2,0,B|404:248|352:280,1,90,8|0
309,141,176221,2,0,B|272:164|272:220,1,90,0|0
272,328,176659,2,0,B|204:350|152:344|100:284,1,180,8|4
28,368,177316,1,0
28,260,177535,1,12
128,200,177754,2,0,B|176:120,1,90,8|4
260,64,178411,5,0
336,136,178630,2,0,B|444:136,1,90,0|12
456,180,178958,1,0
428,228,179068,2,0,B|312:228,1,90,0|8
76,300,179506,2,0,B|168:300,1,90,0|0
264,344,179944,1,0
364,308,180162,6,0,B|400:352|480:348,1,90,8|0
492,248,180600,2,0,B|456:204|376:208,1,90,4|0
384,104,181038,2,0,B|360:16,2,90,8|0|4
256,276,181914,2,0,B|152:292|84:204,1,180,0|4
56,116,182571,1,0
136,44,182790,1,8
152,152,183009,1,0
456,116,183228,1,0
376,44,183447,1,0
360,152,183666,2,0,B|312:256,1,90,8|0
212,320,184104,6,0,B|124:304,1,90,4|0
300,64,184542,2,0,B|388:80,1,90,8|0
388,303,184980,2,0,B|300:320,1,90,4|0
123,80,185418,2,0,B|212:64,1,90,8|0
192,172,185856,1,4
256,260,186075,2,0,B|256:304,2,45,0|0|8
320,172,186513,1,8
256,88,186732,2,0,B|256:136,2,45,8|0|8
152,60,187170,2,0,B|56:28,1,90,8|0
360,60,187608,6,0,B|456:28,1,90,4|0
488,64,187936,1,0
468,112,188046,2,0,B|384:140|384:140,1,90,8|8
444,228,188484,1,0
428,280,188593,1,0
412,332,188703,2,0,B|352:344|308:276,1,90,8|8
256,224,189141,1,8
184,116,189360,6,0,B|184:20,1,90,4|0
328,26,189798,2,0,B|328:116,1,90,8|0
256,224,190235,2,0,B|240:336|96:348,1,180,0|8
144,124,191111,2,0,B|64:160|52:276,1,180,0|8
152,228,191768,2,0,B|226:146|226:146|312:148,1,180
360,236,192425,5,8
408,212,192535,1,0
428,160,192644,2,0,B|444:120|428:68,1,90
332,120,193082,2,0,B|216:120,1,90,0|8
144,76,193520,2,0,B|129:124|145:164,1,90
208,252,193958,1,0
316,252,194177,2,0,B|436:252,1,90,8|0
256,120,194615,6,0,B|256:28,1,90,4|0
193,228,195053,2,0,B|113:274,1,90,4|0
318,228,195491,2,0,B|396:280|396:280|504:280,1,180,4|0
420,72,196367,5,4
312,52,196586,1,0
204,52,196805,2,0,B|180:100|108:132,1,90,8|0
92,20,197243,2,0,B|256:156,1,180,0|8
152,336,198119,2,0,B|208:384|292:364|320:288,1,180,4|0
200,312,198776,2,0,B|216:363|300:383|356:335,1,180,4|0
424,256,199433,2,4,B|488:176,1,90,4|0
400,112,199871,5,4
312,52,200090,1,0
256,144,200308,1,8
196,52,200527,1,0
112,112,200746,2,0,B|80:204,1,90
184,156,201184,2,0,B|152:260,1,90,8|0
252,296,201622,2,0,B|316:332|316:332|388:332,2,135,4|0|0
256,188,202498,2,0,B|320:152|320:152|392:152,2,135,4|0|0
168,252,203374,6,0,B|96:240,1,45,4|0
16,212,203703,2,0,B|92:196,1,45,0|8
160,156,204031,2,0,B|88:144,1,45,0|0
32,92,204360,2,0,B|108:76,1,45,0|8
180,60,204688,2,0,B|228:44|228:44|288:44,1,90,8|0
344,252,205126,6,0,B|416:240,1,45,4|0
496,212,205455,2,0,B|420:196,1,45,0|8
352,156,205783,2,0,B|424:144,1,45,0|0
480,92,206112,2,0,B|404:76,1,45,0|8
332,60,206440,2,0,B|284:44|284:44|224:44,1,90,8|0
256,192,206878,12,2,210162
