osu file format v5

[General]
AudioFilename: 01. phosphorus.mp3
AudioLeadIn: 1996
PreviewTime: -1
Countdown: 0
SampleSet: Soft
StackLeniency: 0.7
Mode: 0
LetterboxInBreaks: 1
EditorBookmarks: 894,14957,95957

[Metadata]
Title:phosphorus
Artist:eufonius
Creator:kioukiou
Version:Normal
Source:
Tags:

[Difficulty]
HPDrainRate:3
CircleSize:4
OverallDifficulty:5
SliderMultiplier:1.2
SliderTickRate:2

[Events]
//Background and Video events
0,0,"phosphorus.jpg"
//Break Periods
2,90157,94757
//Storyboard Layer 0 (Background)
//Storyboard Layer 1 (Failing)
//Storyboard Layer 2 (Passing)
//Storyboard Layer 3 (Foreground)
//Storyboard Sound Samples
//Background Colour Transformations
3,100,163,162,255

[TimingPoints]
332,375,4,2,1,100,1,0
14207,-100,4,2,1,0,0,0
14582,-100,4,2,1,100,0,0
21707,-100,4,2,2,80,0,0
21894,-100,4,2,1,100,0,0
40082,-100,4,2,2,80,0,0
40269,-100,4,2,1,100,0,0
50957,-100,4,1,1,80,0,0
94457,-100,4,2,1,100,0,0
96707,-100,4,2,2,80,0,0
96894,-100,4,2,1,100,0,0
102707,-100,4,2,2,80,0,0
102894,-100,4,2,1,100,0,0
107207,-100,4,1,2,80,0,0
131019,-100,4,1,1,80,0,0

[Colours]
Combo1 : 255,150,0
Combo2 : 128,0,255
Combo3 : 5,5,240
Combo4 : 255,0,255

[HitObjects]
72,160,894,6,0,B|72:72,2,60
72,224,1457,2,0,B|72:336|200:336,1,180
184,200,2394,1,0
184,64,2769,2,0,B|328:64|328:160,1,180
320,272,3707,1,0
320,272,3894,1,2
120,264,4457,6,0,B|176:328|240:248,1,120
224,200,5019,1,0
224,64,5394,1,0
336,128,5769,2,0,B|472:128,2,120
272,128,6707,5,2
136,128,7082,1,2
136,256,7457,1,2
256,192,7832,12,0,8957
416,56,9332,6,0,B|416:200,2,120
280,56,10457,1,0
280,184,10832,1,0
280,184,11019,1,0
144,184,11394,2,0,B|32:184|32:64,1,180,0|0
256,192,12519,12,0,14207
440,88,14957,6,0,B|440:232,1,120
384,248,15519,2,0,B|256:248,2,120
256,96,16832,1,0
168,192,17207,1,2
256,288,17582,1,0
344,192,17957,2,0,B|432:192|432:96,2,120,0|0|2
208,192,19082,5,0
144,192,19269,1,0
64,88,19644,2,0,B|64:16,2,60
64,152,20207,2,0,B|64:288,1,120,2|0
192,272,20957,5,0
192,136,21332,1,0
192,136,21519,2,0,B|248:88|320:152,1,120
304,272,22269,2,0,B|360:320|424:264,2,120
304,208,23207,6,0,B|304:120,2,60,2|0|0
240,208,23769,2,0,B|104:208,2,120
240,72,24894,1,0
240,72,25082,1,0
240,72,25269,2,0,B|384:72,2,120
176,72,26207,1,2
176,200,26582,1,0
304,200,26957,6,0,B|408:200|408:80,1,180
272,80,27894,1,0
136,80,28269,1,0
136,280,28832,2,0,B|0:280,2,120,0|2|0
264,280,29957,2,0,B|384:280|384:168|472:160,1,240
464,96,30894,1,0
400,96,31082,1,0
336,96,31269,2,0,B|80:96,1,240
96,224,32394,1,0
96,224,32582,1,2
224,224,32957,6,0,B|168:160|240:104,1,120
288,120,33519,2,0,B|344:184|272:240,2,120
88,128,34832,1,2
160,240,35207,1,2
224,128,35582,1,2
296,240,35957,2,0,B|424:240|424:64,1,240
288,72,37082,1,2
288,72,37269,1,2
152,72,37644,6,0,B|72:72,2,60,0|2|0
152,136,38207,2,0,B|152:280,2,120,0|2|0
280,136,39332,1,2
280,136,39519,1,0
216,248,39894,2,0,B|344:248,2,120
216,184,40832,5,2
216,48,41207,1,0
328,112,41582,2,0,B|384:72|464:128,2,120,2|0|2
328,176,42519,1,0
192,176,42894,1,0
192,176,43082,1,2
192,176,43269,2,0,B|192:336|352:336,1,240
432,248,44394,5,0
432,248,44582,1,2
432,248,44769,2,0,B|432:104|248:104,1,240
144,104,45894,1,0
144,104,46082,1,2
144,232,46457,5,0
272,232,46832,1,2
216,112,47207,1,0
344,112,47582,1,2
400,232,47957,2,0,B|400:360,2,120,0|2|0
400,168,48894,1,0
400,168,49082,1,2
400,168,49269,1,0
256,192,49457,12,4,50957
80,64,51332,5,0
80,64,51519,2,0,B|80:216|232:216,1,240
336,56,52832,1,0
336,184,53207,1,0
224,120,53582,1,0
224,248,53957,2,4,B|224:376,2,120
88,248,55082,1,0
88,248,55269,1,4
440,64,56394,6,0,B|360:64,2,60
480,120,56957,2,0,B|480:256,1,120
424,280,57519,2,0,B|280:280,2,120
360,160,58644,1,0
360,160,58832,1,8
224,160,59207,2,0,B|136:160,2,60,0|0|8
216,288,59957,6,0,B|72:288,1,120,0|8
96,224,60519,2,0,B|224:224,2,120
96,88,61644,1,0
96,88,61832,1,8
224,88,62207,1,0
224,216,62582,1,8
344,152,62957,1,0
344,280,63332,2,0,B|504:280|504:112,1,240,8|8
400,48,64457,6,0,B|264:48,2,120,0|8|0
400,176,65582,1,8
400,176,65957,2,0,B|296:176|296:304,1,180
160,296,66894,1,0
160,160,67269,1,0
160,160,67457,2,0,B|160:48|24:48,1,180
48,176,68394,6,0,B|48:256,2,60
88,120,68957,2,0,B|232:120,1,120
248,176,69519,2,0,B|248:320,2,120
376,168,70644,1,0
376,168,70832,1,8
376,296,71207,2,0,B|376:368,2,60,0|0|8
256,240,71957,5,0
120,240,72332,1,8
120,240,72519,2,0,B|64:176|144:112,2,120
256,240,73644,1,0
320,240,73832,1,8
320,104,74207,6,0,B|176:104,1,120,4|4
96,192,74957,2,0,B|232:192,2,120,4|4|4
96,256,75894,6,0,B|96:336,2,60,0|0|0
104,56,76832,1,4
232,56,77207,1,4
232,56,77394,2,0,B|296:56,2,60
224,256,78332,1,4
352,256,78707,1,4
400,208,78894,1,0
352,160,79082,1,0
216,152,79457,6,0,B|216:16,1,120
112,112,80207,2,0,B|112:248,1,120
240,224,80957,1,0
240,224,81144,1,0
368,224,81519,2,0,B|472:224|472:104,1,180
336,104,82457,1,0
272,104,82644,1,8
208,104,82832,1,8
208,304,83394,5,0
208,304,83582,1,0
208,304,83769,2,0,B|352:304|352:192,1,180
216,216,84707,2,0,B|128:216,2,60,0|8|8
216,80,85457,6,0,B|360:80,1,120
216,144,86207,2,0,B|80:144,1,120
96,272,86957,2,0,B|96:344,2,60
256,192,87519,12,0,89957
440,56,95957,5,0
440,184,96332,1,0
440,184,96519,2,0,B|440:272|352:272,2,120
240,184,97832,2,0,B|160:184|160:96,2,120,0|2|0
240,48,98957,2,0,B|328:48|328:128,2,120,0|0|2
104,48,100082,1,0
104,48,100269,2,0,B|16:136|120:224,1,180
232,208,101207,2,0,B|312:208,2,60,2|0|0
232,336,101957,5,0
360,336,102332,1,0
360,336,102519,2,0,B|416:272|336:216,1,120
232,232,103269,2,0,B|120:128|240:24,1,240
368,40,104394,5,0
368,40,104582,1,0
368,40,104769,2,0,B|368:176,2,120
264,128,105894,1,0
264,128,106082,1,0
264,128,106269,2,0,B|264:256,2,120
128,128,107394,1,0
128,128,107582,1,2
176,248,107957,6,0,B|264:320|360:232,1,180,4|0
336,112,108894,1,0
336,112,109269,2,0,B|248:40|152:128,1,180
72,200,110207,1,2
72,328,110582,1,0
192,264,110957,2,0,B|328:264,2,120,0|0|2
192,128,112082,5,0
320,128,112457,1,0
448,128,112832,2,0,B|504:80,2,60,0|0|2
384,240,113582,2,0,B|384:368,1,120
264,304,114332,5,0
264,304,114519,2,0,B|200:352|136:288,2,120
264,104,115832,2,0,B|320:56|384:112,2,120,0|2|0
176,200,116957,2,0,B|32:200,2,120,0|0|2
304,200,118082,1,0
304,200,118269,1,2
432,200,118644,1,0
432,200,118832,1,0
432,200,119019,1,2
360,88,119394,6,0,B|264:32|168:88,1,180
184,208,120332,1,2
248,208,120519,1,0
376,208,120894,2,0,B|440:152|352:88,2,120
312,208,121832,2,0,B|248:264|336:328,2,120,2|0|2
312,72,122957,5,0
176,72,123332,1,2
176,72,123519,1,0
248,184,123894,2,0,B|248:104,2,60,0|2|0
248,312,124644,1,0
248,312,124832,1,2
448,312,125394,5,0
448,312,125582,1,2
448,312,125769,2,0,B|504:224|424:128,1,180,0|2
304,144,126707,2,0,B|304:56,2,60,0|0|2
304,272,127457,6,0,B|168:272,1,120,0|2
64,208,128207,2,0,B|200:208,2,120,0|2|0
64,72,129332,1,2
192,72,129707,2,0,B|192:8,2,60,0|0|2
192,136,130269,2,0,B|192:256|320:256,1,180
432,256,131207,1,0
432,256,131394,1,0
432,256,131582,1,0
368,136,131957,5,0
232,136,132332,1,0
232,136,132519,2,0,B|172:92|112:142,2,120
232,336,133832,1,0
344,272,134207,1,0
232,200,134582,1,0
344,128,134957,2,0,B|480:128,2,120,4|4|4
232,56,136082,1,0
232,56,136269,1,4
48,192,137394,6,0,B|48:280,2,60
88,136,137957,2,0,B|232:136,1,120
248,192,138519,2,0,B|248:336,2,120
248,56,139644,1,0
248,56,139832,1,8
352,136,140207,2,0,B|440:136,2,60,0|0|8
216,136,140957,5,0
80,136,141332,1,8
80,136,141519,2,0,B|24:200|96:264,2,120
144,136,142457,1,8
144,136,142644,1,8
344,136,143207,2,0,B|488:136,1,120,0|8
400,256,143957,2,0,B|272:256,1,120,0|8
144,256,144707,1,0
264,192,145082,1,8
144,128,145457,1,0
256,56,145832,6,0,B|400:56,2,120,8|0|8
120,56,146957,1,0
120,184,147332,1,8
120,184,147519,1,0
120,312,147894,2,0,B|64:352,2,60,0|8|0
184,312,148457,2,0,B|320:312,1,120,0|8
304,312,149019,1,0
304,176,149394,5,0
304,176,149582,1,8
304,176,149769,1,0
304,112,149957,2,0,B|256:48|192:120,1,120,0|8
200,176,150519,2,0,B|152:240|88:168,2,120
200,40,151644,1,0
200,40,151832,1,8
328,40,152207,2,0,B|416:40,2,60,0|0|8
328,168,152957,5,0
328,296,153332,1,8
328,296,153519,2,0,B|264:344|192:280,2,120
456,296,154644,1,0
456,296,154832,1,8
456,160,155207,6,0,B|456:24,1,120,4|4
344,112,155957,2,4,B|344:256,2,120,4|4|4
288,72,156894,2,0,B|200:72,2,60
288,272,157832,1,4
152,272,158207,1,4
88,272,158394,6,0,B|88:352,2,60
88,72,159332,1,4
216,72,159707,1,4
272,32,159894,1,0
328,72,160082,1,0
328,200,160457,5,0
248,304,160832,1,0
160,200,161207,1,0
80,304,161582,1,0
80,168,161957,2,0,B|80:80,2,60
80,232,162519,2,0,B|264:232,1,180
392,232,163457,5,0
392,232,163644,1,8
392,232,163832,1,8
392,96,164207,1,0
328,96,164394,6,0,B|328:32,2,60
328,296,165332,1,0
192,296,165707,2,0,B|192:360,2,60,0|8|8
192,160,166457,5,0
56,160,166832,1,0
120,272,167207,1,0
256,272,167582,1,0
328,160,167957,2,0,B|328:72,2,60
256,192,168519,12,4,170957
