osu file format v6

[General]
AudioFilename: Reflectier.mp3
AudioLeadIn: 0
PreviewTime: -1
Countdown: 1
SampleSet: Soft
StackLeniency: 0.7
Mode: 0
LetterboxInBreaks: 1

[Editor]
DistanceSpacing: 0.800000011920929
BeatDivisor: 4
GridSize: 16

[Metadata]
Title:Reflectier (TV Size)
Artist:eufonius
Creator:Jurgan
Version:Hard
Source:
Tags:

[Difficulty]
HPDrainRate:5
CircleSize:5
OverallDifficulty:5
SliderMultiplier:1.4
SliderTickRate:1

[Events]
//Background and Video events
0,0,"True_Tears.jpg"
//Break Periods
//Storyboard Layer 0 (Background)
//Storyboard Layer 1 (Fail)
//Storyboard Layer 2 (Pass)
//Storyboard Layer 3 (Foreground)
//Storyboard Sound Samples
//Background Colour Transformations
3,100,163,162,255

[TimingPoints]
7446,483.870967741935,4,2,0,100,1,0

[HitObjects]
48,48,7687,1,0
64,112,7929,1,0
112,160,8171,1,0
176,192,8413,1,0
224,192,8534,1,0
240,160,8655,1,0
192,112,8897,1,0
192,48,9139,2,0,B|256:64|288:96|304:144,1,140
304,208,9865,1,0
176,240,10470,5,0
176,240,10712,1,0
176,240,10833,1,0
176,240,10954,1,0
176,240,11195,1,0
64,48,11558,5,0
64,48,11800,1,0
64,48,12042,1,0
64,48,12284,1,0
64,48,12526,1,0
64,48,12647,1,0
64,48,12768,1,0
128,48,13010,2,0,B|192:64|224:112,1,140
235,130,13736,1,0
80,80,15429,5,0
160,80,15671,1,0
80,80,15913,1,0
160,80,16155,1,0
208,128,16397,1,0
224,192,16639,1,0
272,144,16881,2,0,B|240:128|176:112|96:160|112:256,1,280
115,290,18091,5,0
208,288,18333,1,0
256,240,18575,1,0
288,176,18816,1,0
288,176,19058,2,0,B|272:144|224:112|160:96,1,210
108,83,20026,5,0
96,32,20268,1,0
160,32,20510,1,0
224,48,20752,1,0
288,64,20994,2,0,B|320:112|288:160|320:192,1,140
288,256,21720,1,0
288,256,21962,1,0
80,64,23171,5,0
144,80,23413,1,0
192,128,23655,1,0
240,192,23897,1,0
288,256,24139,1,0
320,320,24381,1,0
320,320,24623,2,0,B|368:272|400:224,1,140
352,64,25954,5,0
352,64,26196,1,0
352,64,26316,1,0
352,64,26437,1,0
352,64,26679,1,0
352,64,27042,5,0
288,96,27284,1,0
240,48,27526,1,0
192,96,27768,1,0
144,48,28010,1,0
96,96,28252,1,0
48,48,28494,2,0,B|32:128|64:176,1,175
32,208,29341,1,0
400,256,29946,5,0
416,64,30429,1,0
416,64,30671,1,0
368,112,30913,1,0
320,144,31155,1,0
256,144,31397,1,0
256,144,31518,1,0
256,144,31639,1,0
208,96,31881,5,0
208,96,32123,1,0
272,64,32365,1,0
272,64,32486,1,0
272,64,32607,1,0
336,320,33575,5,0
288,256,33816,1,0
208,256,34058,1,0
144,320,34300,1,0
240,320,34542,2,0,B|208:288|192:240|240:192|320:208|256:128,1,280
240,80,35752,1,0
304,96,35994,1,0
368,112,36236,2,0,B|384:160|368:224|304:256,1,245
217,255,37325,1,0
64,48,38413,6,0,B|48:112|64:176|112:208,1,245
176,64,39502,1,0
176,160,39744,1,0
176,160,39986,2,0,B|208:112|272:80|352:80|416:96,1,280
432,160,41196,1,0
416,240,41800,6,0,B|384:192|304:160,1,210
208,208,42768,1,0
233,149,43010,1,0
206,208,43252,1,0
233,149,43494,1,0
208,208,43736,2,0,B|272:224|320:256,1,210
320,80,44946,5,0
320,80,45429,1,0
272,144,45913,1,0
272,144,46155,2,0,B|272:96|224:64,1,140
112,48,46881,1,0
64,112,47365,5,0
64,112,47607,1,0
64,112,47849,2,0,B|48:176|64:224|96:240|160:224|176:160|128:128|48:144|32:320|48:320,1,315
96,336,49300,1,0
176,320,49542,1,0
240,288,49784,1,0
288,240,50026,2,0,B|352:192|336:112|208:112,1,280
128,208,51236,5,0
160,144,51478,1,0
192,80,51720,2,0,B|240:48|336:48|416:128,1,280
288,176,52929,1,0
208,176,53171,5,0
208,240,53413,1,0
208,240,53534,1,0
208,304,53897,1,0
144,272,54139,1,0
96,224,54381,1,0
64,160,54623,1,0
112,112,55107,5,0
112,112,55349,1,0
112,112,55591,1,0
112,112,55712,1,0
160,48,56075,1,0
64,64,56558,5,0
64,64,56800,1,0
64,64,57042,1,0
64,64,57284,1,0
128,112,57768,1,0
192,144,58010,1,0
256,144,58252,1,0
320,112,58494,1,0
352,48,58736,1,0
272,48,58978,5,0
208,48,59220,1,0
144,48,59462,1,0
144,48,59583,1,0
448,64,60429,5,0
400,112,60671,1,0
448,176,60913,1,0
368,176,61155,1,0
240,48,61639,1,0
240,112,61881,1,0
240,176,62123,1,0
240,240,62365,1,0
304,208,62849,5,0
304,208,63091,1,0
304,208,63333,1,0
304,208,63454,2,0,B|288:176|208:144,1,105
218,151,64058,1,0
192,32,64300,5,0
128,80,64542,1,0
80,128,64784,1,0
64,192,65026,1,0
96,256,65268,1,0
160,288,65510,2,0,B|208:224|304:240,1,210
416,64,67204,5,0
352,64,67446,1,0
384,128,67687,5,0
384,128,67808,5,0
384,128,67929,5,0
384,192,68171,6,0,B|336:176,1,70
448,144,68655,1,0
48,48,69381,5,0
48,48,69623,1,0
48,48,69865,1,0
48,48,70107,1,0
144,48,70591,5,0
144,48,70833,1,0
144,48,71075,1,0
144,48,71196,2,0,B|112:96|160:128|208:112,1,140
272,96,72042,1,0
272,160,72284,1,0
272,96,72526,1,0
272,160,72768,1,0
432,240,73252,5,0
368,240,73494,1,0
304,240,73736,1,0
240,256,73978,2,0,B|288:304,1,70
224,336,74462,1,0
160,336,74704,1,0
96,336,74946,1,0
96,336,75066,1,0
432,48,75913,5,0
304,48,76155,1,0
432,48,76397,1,0
304,48,76639,1,0
64,48,77123,5,0
64,48,77365,1,0
64,48,77607,1,0
64,48,77849,1,0
192,96,78333,1,0
240,144,78575,1,0
176,160,78816,2,0,B|192:192|256:256,1,140
320,208,79542,5,0
272,272,79784,1,0
320,208,80026,1,0
352,144,80268,1,0
384,208,80510,1,0
352,272,80752,1,0
304,336,80994,1,0
240,336,81236,1,0
272,272,81478,2,0,B|208:240|160:336,1,210
64,48,82687,5,0
128,96,82929,1,0
192,48,83171,1,0
256,96,83413,1,0
320,48,83655,1,0
368,112,83897,1,0
416,48,84139,1,0
432,112,84381,2,0,B|432:144,1,70
400,176,84865,1,0
256,208,85107,12,0,87284
112,112,88252,5,0
336,272,88494,5,0
