osu file format v5

[General]
AudioFilename: eufonius - Reflectia (Tv Size).mp3
AudioLeadIn: 0
PreviewTime: -1
Countdown: 0
SampleSet: Soft
StackLeniency: 0.5
Mode: 0
EditorBookmarks: 7132,11002,14872,17775,19710,22613,45835,50189,56599,56720,69057

[Metadata]
Title:Reflectia (Tv Size)
Artist:eufonius
Creator:numbers
Version:Poco Adagio

[Difficulty]
HPDrainRate:2
CircleSize:3
OverallDifficulty:1
SliderMultiplier:1.4
SliderTickRate:2

[Events]
//Background and Video events
0,0,"16qk7.jpg"
//Break Periods
2,25474,28674
2,64418,67377
//Storyboard Layer 0 (Background)
//Storyboard Layer 1 (Failing)
//Storyboard Layer 2 (Passing)
//Storyboard Layer 3 (Foreground)
//Storyboard Sound Samples
//Background Colour Transformations
3,100,209,208,255

[TimingPoints]
7132,483.870967741935,4,2,0,100

[Colours]
Combo1 : 222,165,58
Combo2 : 43,177,206
Combo3 : 80,216,86
Combo4 : 220,86,126

[HitObjects]
64,288,7132,6,0,B|103:192|408:192|440:304,1,420
440,152,9067,1,0
304,152,9550,6,6,B|152:152,2,140
368,32,11002,5,0
224,32,11486,1,0
80,32,11970,1,0
80,304,12938,1,0
224,304,13421,1,6
472,192,14872,5,0
336,192,15356,1,0
200,192,15839,1,0
64,48,16807,1,0
208,48,17291,1,6
352,48,17775,5,0
496,48,18259,1,0
496,192,18743,1,0
488,328,19227,1,6
352,336,19710,5,0
216,336,20194,1,0
72,336,20678,1,6
464,40,22613,5,0
464,176,23097,1,0
320,192,23580,1,0
320,336,24064,1,0
176,336,24548,1,0
176,192,25032,1,2
464,40,30354,5,0
368,136,30838,1,0
280,240,31321,1,0
104,256,32289,1,6
8,152,32773,1,2
472,192,34224,5,6
336,192,34708,1,0
200,192,35191,1,0
64,192,35675,1,0
64,48,36159,1,0
208,48,36643,1,6
352,48,37127,5,0
496,48,37611,1,0
496,192,38095,1,0
488,328,38579,1,6
352,336,39062,5,0
280,336,39304,1,6
208,336,39546,1,6
136,336,39788,1,6
256,192,41481,5,6
256,192,41723,1,6
480,192,43416,5,6
480,192,43658,1,6
64,48,45835,5,0
208,48,46319,1,0
352,48,46803,1,0
496,48,47286,1,0
488,336,48254,5,0
352,336,48738,1,0
216,336,49221,1,0
80,304,49705,2,0,B|124:224|512:240,2,420
80,160,53092,5,0
160,48,53576,1,0
288,96,54059,5,0
432,88,54543,1,0
432,224,55027,1,0
296,224,55511,1,0
160,224,55995,5,0
160,152,56236,1,6
160,80,56478,1,6
24,80,56962,1,0
32,216,57446,5,0
176,216,57930,1,0
464,216,58897,1,0
384,328,59381,1,4
248,328,59865,1,0
104,328,60349,1,6
104,184,60833,6,0,B|104:40,1,140
248,48,61800,6,0,B|392:48,1,140
392,184,62768,6,0,B|392:336,1,140
256,328,63735,6,0,B|112:328,1,140
256,192,69057,5,0
144,96,69541,5,0
288,96,70025,5,0
432,96,70508,5,6
432,240,71002,5,0
288,240,71486,1,0
144,240,71970,1,0
0,240,72454,1,0
80,128,72938,1,0
176,32,73411,1,6
304,96,73895,5,0
448,96,74379,1,0
448,240,74863,1,0
304,240,75347,1,6
160,240,75830,5,0
160,96,76314,1,0
16,96,76798,1,6
16,240,77281,5,0
160,240,77765,1,0
304,240,78249,1,0
448,240,78732,1,6
304,240,79216,5,0
272,96,79700,1,0
128,96,80183,1,0
128,240,80667,1,0
272,240,81152,1,6
416,240,81635,1,6
336,352,82119,5,0
192,352,82603,1,0
64,352,83087,1,0
16,224,83571,1,6
160,224,84054,5,0
304,224,84538,1,0
368,224,84780,1,0
432,224,85022,1,6
432,80,85506,5,0
288,80,85990,1,0
144,80,86474,1,0
144,224,86957,1,0
288,224,87441,1,0
432,224,87925,1,6
432,224,88167,1,6
