osu file format v5

[General]
AudioFilename: eufonius - Reflectia (Tv Size).mp3
AudioLeadIn: 0
PreviewTime: -1
Countdown: 0
SampleSet: Soft
StackLeniency: 0.1
Mode: 0
EditorBookmarks: 7132,11002,14872,17775,19710,22613,30599,38099,45835,48865,50189,56599,56720,60841,61325,64228,69057

[Metadata]
Title:Reflectia (Tv Size)
Artist:eufonius
Creator:numbers
Version:Allegro Molto

[Difficulty]
HPDrainRate:7
CircleSize:6
OverallDifficulty:7
SliderMultiplier:1.4
SliderTickRate:2

[Events]
//Background and Video events
0,0,"16qk7.jpg"
//Break Periods
2,45557,50022
//Storyboard Layer 0 (Background)
//Storyboard Layer 1 (Failing)
//Storyboard Layer 2 (Passing)
//Storyboard Layer 3 (Foreground)
//Storyboard Sound Samples
//Background Colour Transformations
3,100,175,175,255

[TimingPoints]
7132,483.870967741935,4,2,0,100

[Colours]
Combo1 : 222,165,58
Combo2 : 43,177,206
Combo3 : 80,216,86
Combo4 : 220,86,126

[HitObjects]
416,256,4954,5,0
416,128,5438,1,0
416,64,5680,1,0
304,112,6164,1,0
272,64,6406,1,0
304,112,6648,1,0
192,48,7132,5,6
112,144,7615,5,0
64,176,7857,1,0
112,224,8099,1,0
240,208,8583,1,0
304,208,8825,1,0
304,80,9309,1,0
240,80,9551,6,2,C|112:80|64:176|112:192,1,280
160,160,10761,1,0
96,256,11244,2,2,B|240:264,1,140
224,192,11970,1,0
176,144,12212,2,0,B|272:136,1,70
304,160,12696,1,2
352,112,12938,1,0
336,48,13180,2,2,B|472:64|504:64,1,140
480,128,13906,6,0,C|328:128,1,140
224,176,14873,1,0
160,176,15115,1,0
144,240,15357,2,2,B|240:248|288:248,1,140
304,304,16083,1,0
352,272,16325,1,2
400,240,16567,1,0
448,192,16809,2,2,C|384:128|352:128|320:160,1,140
288,176,17535,1,0
272,112,17777,5,2
176,32,18261,1,2
160,160,18744,1,2
96,48,19228,1,2
64,112,19470,1,0
16,160,19712,5,2
64,208,19954,1,0
16,256,20196,1,2
64,304,20438,1,0
128,288,20680,6,2,C|288:288|304:240,1,210
302,247,21648,5,6
192,64,22615,1,6
144,112,22857,1,0
112,160,23099,1,2
224,208,23583,1,0
224,208,23704,1,0
128,240,24067,1,2
176,272,24309,1,0
112,304,24551,5,0
64,272,24793,1,0
80,144,25277,1,0
80,144,25398,1,0
128,224,25761,1,0
160,176,26002,1,2
208,208,26244,5,0
208,208,26365,1,0
272,160,26728,5,0
272,160,26849,1,0
336,256,27212,1,0
368,208,27454,1,0
416,176,27696,5,0
368,128,27938,1,2
304,96,28180,2,0,B|216:96|152:104,1,140
128,48,28906,1,2
32,208,29631,1,0
32,144,29873,1,2
96,144,30115,2,0,B|96:224,1,70
160,240,30599,5,0
176,304,30841,1,0
224,272,31083,1,0
272,224,31325,1,0
256,160,31567,1,0
192,176,31809,1,2
192,176,31930,1,0
176,112,32293,2,2,B|256:120|336:112,1,140
352,64,33019,1,0
288,64,33261,1,2
288,128,33502,2,2,B|376:128,1,70
416,128,33986,1,0
368,176,34228,2,2,B|300:166|216:168,1,140
176,208,34954,1,0
240,224,35196,2,2,B|240:376,1,140
192,320,35922,1,0
128,320,36164,2,2,B|120:232|144:168,1,140
176,128,36890,1,0
224,80,37131,1,2
288,176,37615,5,6
272,304,38099,6,0,C|128:304,1,140
128,240,38825,2,0,C|48:240,1,70
0,240,39309,2,0,C|0:160|0:144,1,70
32,112,39793,2,0,C|96:176|160:80,1,210
272,176,41486,5,2
272,176,41728,1,0
224,208,41970,2,2,C|224:336|96:224,1,280
64,128,43422,5,2
64,128,43664,1,0
96,80,43906,6,2,C|240:80,1,140
272,128,44631,2,0,C|272:224,1,70
208,192,45115,1,0
144,192,45357,1,6
256,192,50922,12,0,52373
304,240,52857,5,2
240,256,53099,1,0
240,256,53220,1,2
192,176,53583,1,4
128,192,53825,1,0
96,128,54067,1,2
96,64,54309,2,0,B|192:64|240:72,1,140
304,80,55035,5,2
336,128,55277,1,0
336,128,55398,1,0
288,208,55761,1,0
240,160,56002,1,2
240,224,56244,5,0
176,208,56486,1,2
128,256,56728,1,0
64,240,56970,2,2,B|72:136,1,70
128,160,57454,2,0,C|192:64|336:64|368:80,1,280
384,128,58664,5,2
416,176,58906,1,0
464,224,59148,1,2
432,288,59390,6,0,C|352:288,1,70
320,176,60115,1,0
288,112,60357,1,2
288,48,60599,2,0,B|368:40,2,70
224,48,61325,6,0,C|224:128,1,70
176,160,61809,1,0
112,160,62051,1,0
48,272,62535,1,0
112,272,62777,6,0,C|112:192,1,70
112,144,63261,1,0
192,48,63745,1,0
176,112,63986,2,2,B|312:184,1,140
352,224,64712,1,0
240,272,65196,1,6
112,224,65680,1,0
112,160,65922,2,2,B|288:160,1,140
320,160,66648,1,0
384,160,66890,6,2,C|384:64,2,70
336,208,67615,1,0
384,256,67857,1,2
416,192,68099,1,0
352,80,68583,1,2
288,112,68825,1,0
256,160,69067,5,4
160,256,69551,1,4
64,176,70035,1,4
128,176,70277,1,0
160,128,70519,1,2
32,112,71002,1,0
0,176,71486,5,2
32,240,71728,1,0
80,288,71970,2,2,C|144:336|160:272,1,140
160,224,72696,1,0
160,160,72938,6,2,C|304:160,1,140
352,112,73664,1,0
400,64,73906,1,2
400,192,74390,2,2,C|336:240|112:240,1,280
112,176,75599,1,0
112,176,75841,1,2
16,96,76325,1,2
144,112,76809,5,2
192,160,77051,1,0
128,176,77293,1,2
96,224,77535,2,0,B|184:248|248:248,1,140
288,256,78261,1,2
288,192,78502,2,0,B|400:176|440:176,1,140
400,112,79228,1,2
336,96,79470,1,0
272,80,79712,2,0,B|192:64,1,70
144,96,80196,2,2,B|144:184,2,70
80,80,80922,1,0
80,144,81164,1,2
32,192,81648,1,2
32,192,82131,1,2
80,224,82373,6,0,C|160:224,3,70
208,256,83341,6,0,C|288:256,2,70
208,192,84067,2,0,B|304:200,1,70
256,128,84551,1,0
256,192,84793,12,2,87454
224,80,87938,5,2
224,80,88180,1,2
