osu file format v5

[General]
AudioFilename: eufonius - Reflectia (Tv Size).mp3
AudioLeadIn: 0
PreviewTime: -1
Countdown: 0
SampleSet: Soft
StackLeniency: 0.3
Mode: 0
EditorBookmarks: 7132,11002,14872,17775,19710,22613,45835,50189,56599,56720,60841,64228,69057

[Metadata]
Title:Reflectia (Tv Size)
Artist:eufonius
Creator:numbers
Version:Allegretto

[Difficulty]
HPDrainRate:5
CircleSize:4
OverallDifficulty:4
SliderMultiplier:1.4
SliderTickRate:2

[Events]
//Background and Video events
0,0,"16qk7.jpg"
//Break Periods
2,25474,28674
2,64418,67377
//Storyboard Layer 0 (Background)
//Storyboard Layer 1 (Failing)
//Storyboard Layer 2 (Passing)
//Storyboard Layer 3 (Foreground)
//Storyboard Sound Samples
//Background Colour Transformations
3,100,163,162,255

[TimingPoints]
7132,483.870967741935,4,2,0,100

[Colours]
Combo1 : 222,165,58
Combo2 : 43,177,206
Combo3 : 80,216,86
Combo4 : 220,86,126

[HitObjects]
368,352,7132,6,0,B|480:345|480:40|352:0,1,420
72,152,9067,1,0
208,152,9551,6,6,B|360:152,2,140
96,64,11002,5,0
48,128,11244,1,0
96,176,11486,1,4
240,192,11970,1,2
304,64,12454,1,0
352,112,12696,1,0
240,192,13180,1,0
192,144,13422,1,6
304,64,13906,5,0
448,80,14390,1,0
448,224,14873,5,0
336,144,15357,1,0
224,48,15841,1,2
176,176,16325,1,0
240,208,16567,1,2
304,240,16809,1,0
416,160,17293,1,6
272,160,17777,5,0
128,160,18261,1,0
64,160,18502,1,2
128,160,18744,1,0
272,160,19228,1,6
272,304,19712,5,0
352,192,20196,1,0
304,144,20438,1,0
352,96,20680,1,6
112,32,22615,5,0
64,80,22857,1,0
16,128,23099,1,0
128,208,23583,1,0
208,128,24067,1,0
208,288,24551,1,0
320,208,25035,1,2
256,208,25277,1,6
48,40,30357,5,0
96,88,30599,1,0
144,136,30841,1,0
144,272,31325,1,0
256,192,31809,1,0
256,336,32293,1,6
368,256,32777,1,2
368,256,33019,1,2
368,256,33261,1,6
224,256,33744,1,0
80,256,34228,5,6
80,112,34712,1,0
192,192,35196,1,0
336,192,35680,1,0
400,192,35922,1,0
464,192,36164,1,0
464,48,36648,1,6
320,48,37132,5,0
176,48,37615,1,0
240,48,37857,1,0
176,48,38099,1,0
320,48,38583,1,6
320,192,39067,5,0
320,256,39309,1,6
256,256,39551,1,6
256,320,39793,1,6
48,256,40519,5,0
112,128,41002,1,0
208,224,41486,5,6
208,224,41728,1,6
288,32,42454,5,0
176,112,42938,1,0
96,224,43422,5,6
96,224,43664,1,6
224,176,44148,5,0
224,304,44632,1,0
352,304,45115,1,0
416,304,45357,1,6
416,176,45841,5,0
288,176,46325,1,0
160,176,46809,1,0
32,176,47293,1,0
256,336,48261,5,0
256,208,48744,1,0
384,240,49228,1,0
432,112,49712,6,0,B|274:193|176:48,1,280
192,64,50922,5,0
128,64,51164,6,0,B|47:222|192:320,1,280
320,336,52615,5,6
384,224,53099,5,0
432,176,53341,1,6
384,128,53583,1,0
240,96,54067,5,0
96,96,54551,1,4
96,240,55035,1,0
224,176,55519,1,6
352,224,56002,5,0
352,152,56244,1,6
352,80,56486,1,6
224,112,56970,1,2
96,64,57454,5,0
48,128,57696,1,0
96,176,57938,1,4
224,112,58422,1,2
352,64,58906,1,0
384,128,59148,1,0
336,176,59390,1,4
192,192,59873,1,0
192,192,60115,1,4
192,192,60357,1,6
400,192,60841,2,0,B|516:174|528:15|384:32,1,280
352,96,62051,5,6
352,160,62293,6,0,B|288:288|80:208|48:128,1,350
128,144,63744,5,0
192,144,63986,5,4
256,144,64228,1,6
224,192,69067,5,0
368,192,69551,5,2
224,192,70035,5,0
368,192,70519,5,6
368,48,71002,5,0
224,48,71486,1,0
80,48,71970,1,6
80,192,72454,1,0
80,256,72696,1,2
80,320,72938,1,6
208,320,73422,1,6
320,256,73906,5,0
320,128,74390,1,0
256,128,74632,1,0
192,128,74873,1,2
64,128,75357,1,6
80,256,75841,5,0
80,112,76325,1,0
144,112,76567,1,6
80,112,76809,1,6
80,256,77293,5,0
192,176,77777,1,4
304,80,78261,1,0
304,224,78744,1,6
160,224,79228,5,0
160,80,79712,1,0
304,80,80196,1,0
448,80,80680,1,0
384,80,80922,1,6
448,80,81164,1,6
304,80,81648,1,6
304,224,82132,5,0
176,176,82615,1,0
128,224,82857,1,0
64,256,83099,1,6
272,64,84067,5,0
128,64,84551,1,0
192,64,84793,1,0
128,64,85035,1,6
32,176,85519,5,0
96,304,86002,1,0
240,304,86486,1,0
320,176,86970,1,0
176,160,87454,1,0
176,16,87938,1,6
176,16,88180,1,6
