osu file format v12

[General]
AudioFilename: kokoro.mp3
AudioLeadIn: 0
PreviewTime: 52664
Countdown: 0
SampleSet: Soft
StackLeniency: 0.3
Mode: 0
LetterboxInBreaks: 0
WidescreenStoryboard: 0

[Editor]
Bookmarks: 21492,23226
DistanceSpacing: 1.4
BeatDivisor: 2
GridSize: 4
TimelineZoom: 1.4

[Metadata]
Title:Paradigm (TV Size)
TitleUnicode:パラダイム (TV Size)
Artist:eufonius
ArtistUnicode:eufonius
Creator:Momochikun
Version:Normal
Source:ココロコネクト
Tags:opening kokoro connect netsukawa fumika oyatsu
BeatmapID:387277
BeatmapSetID:158332

[Difficulty]
HPDrainRate:3
CircleSize:4
OverallDifficulty:4
ApproachRate:5
SliderMultiplier:1.05
SliderTickRate:1

[Events]
//Background and Video events
0,0,"Kokoro BG.jpg",0,0
Video,-400,"Video.avi"
//Break Periods
2,6364,12276
//Storyboard Layer 0 (Background)
//Storyboard Layer 1 (Fail)
//Storyboard Layer 2 (Pass)
//Storyboard Layer 3 (Foreground)
//Storyboard Sound Samples
//Background Colour Transformations
3,100,163,162,255

[TimingPoints]
164,375,4,2,2,70,1,0
257,-100,4,2,1,70,0,0
1101,-100,4,1,1,70,0,0
1289,-100,4,1,1,70,0,0
1382,-100,4,2,1,70,0,0
2226,-100,4,1,1,70,0,0
2414,-100,4,2,1,70,0,0
2601,-100,4,1,1,70,0,0
2789,-100,4,1,1,30,0,0
3164,-100,4,1,2,70,0,0
3351,-100,4,2,1,70,0,0
3539,-100,4,2,2,70,0,0
3632,-100,4,2,1,70,0,0
3914,-100,4,2,1,30,0,0
4101,-100,4,2,1,35,0,0
4289,-100,4,2,1,30,0,0
4476,-100,4,2,2,70,0,0
5039,-100,4,1,1,70,0,0
5132,-100,4,2,1,70,0,0
5320,-100,4,1,1,70,0,0
5414,-100,4,2,1,70,0,0
5882,-100,4,1,2,50,0,0
6164,-100,4,2,2,70,0,1
6257,-100,4,2,2,70,0,0
13476,-100,4,2,2,70,0,0
13570,-100,4,2,2,5,0,0
14226,-100,4,1,1,35,0,0
15164,-100,4,1,2,50,0,0
15257,-100,4,2,1,50,0,0
16664,-100,4,1,1,50,0,0
16757,-100,4,2,1,50,0,0
17226,-100,4,1,1,50,0,0
17414,-100,4,2,1,50,0,0
17601,-100,4,1,1,50,0,0
17789,-100,4,2,1,50,0,0
18164,-100,4,1,1,50,0,0
18257,-100,4,2,1,50,0,0
19101,-100,4,1,1,50,0,0
19289,-100,4,2,1,50,0,0
19664,-100,4,1,1,50,0,0
20039,-100,4,2,1,50,0,0
20226,-100,4,1,1,50,0,0
20789,-100,4,2,1,50,0,0
21164,-100,4,1,1,50,0,0
21257,-100,4,2,1,50,0,0
22101,-100,4,1,1,50,0,0
22289,-100,4,2,1,50,0,0
22664,-100,4,1,1,50,0,0
23039,-100,4,2,1,50,0,0
23226,-100,4,1,1,50,0,0
23414,-100,4,2,1,50,0,0
23601,-100,4,1,1,50,0,0
23789,-100,4,2,1,50,0,0
24164,-100,4,1,1,50,0,0
24257,-100,4,2,1,50,0,0
25101,-100,4,1,1,50,0,0
25289,-100,4,2,1,50,0,0
25664,-100,4,1,1,50,0,0
25757,-100,4,2,1,50,0,0
26226,-100,4,1,1,50,0,0
26414,-100,4,2,1,50,0,0
26601,-100,4,1,1,50,0,0
26695,-100,4,2,1,50,0,0
27164,-100,4,1,1,50,0,0
27257,-100,4,2,1,50,0,0
28101,-100,4,1,1,50,0,0
28289,-100,4,2,1,50,0,0
28664,-100,4,1,1,50,0,0
28757,-100,4,2,1,50,0,0
29226,-100,4,1,1,50,0,0
29789,-100,4,2,1,50,0,0
30164,-100,4,1,1,50,0,0
30257,-100,4,2,1,50,0,0
30726,-100,4,1,1,50,0,0
31289,-100,4,2,1,50,0,0
31664,-100,4,1,1,50,0,0
31757,-100,4,2,1,50,0,0
32226,-100,4,1,1,50,0,0
32414,-100,4,2,1,50,0,0
32601,-100,4,1,1,50,0,0
32789,-100,4,2,1,50,0,0
33164,-100,4,1,1,50,0,0
33257,-100,4,2,1,50,0,0
34101,-100,4,1,1,50,0,0
34195,-100,4,2,1,50,0,0
34664,-100,4,1,1,50,0,0
34757,-100,4,2,1,50,0,0
35226,-100,4,1,1,50,0,0
35789,-100,4,2,1,50,0,0
36164,-100,4,1,1,50,0,0
36445,-100,4,2,1,50,0,0
37101,-100,4,1,1,50,0,0
37289,-100,4,2,1,50,0,0
37476,-100,4,1,1,40,0,0
38601,-100,4,2,1,70,0,0
39164,-100,4,2,2,80,0,0
39257,-100,4,2,1,60,0,0
40101,-100,4,1,1,50,0,0
40289,-100,4,2,1,60,0,0
40664,-100,4,1,1,50,0,0
40757,-100,4,2,1,60,0,0
41226,-100,4,1,1,50,0,0
41414,-100,4,2,1,60,0,0
41601,-100,4,1,1,50,0,0
41789,-100,4,2,1,60,0,0
42164,-100,4,1,1,50,0,0
42539,-100,4,2,1,60,0,0
43664,-100,4,1,1,50,0,0
44039,-100,4,2,1,60,0,0
44226,-100,4,1,1,50,0,0
44414,-100,4,2,1,60,0,0
44601,-100,4,1,1,50,0,0
44789,-100,4,2,1,60,0,0
44976,-100,4,2,1,60,0,0
45164,-100,4,1,1,50,0,0
45539,-100,4,2,1,60,0,0
45914,-100,4,1,1,50,0,0
46289,-100,4,2,1,60,0,0
46664,-100,4,1,1,50,0,0
47039,-100,4,2,1,60,0,0
47414,-100,4,1,1,45,0,0
47789,-100,4,2,2,60,0,0
47976,-100,4,2,1,60,0,0
48539,-100,4,1,2,45,0,0
48632,-100,4,2,1,60,0,0
49101,-100,4,1,1,50,0,0
49289,-100,4,2,2,60,0,0
49664,-100,4,1,1,50,0,0
50039,-100,4,2,2,60,0,0
50601,-100,4,1,1,50,0,0
50695,-100,4,2,2,60,0,0
51351,-100,4,1,1,50,0,0
51445,-100,4,2,2,60,0,0
52101,-100,4,1,1,50,0,0
52195,-100,4,2,2,60,0,0
52851,-100,4,2,2,50,0,0
53414,-100,4,2,2,40,0,0
53601,-100,4,1,1,50,0,0
53789,-100,4,2,2,40,0,0
54164,-100,4,2,2,70,0,1
54726,-100,4,1,1,55,0,1
55289,-100,4,2,2,70,0,1
55664,-100,4,1,1,55,0,1
55851,-100,4,2,2,70,0,1
56226,-100,4,1,1,55,0,1
56789,-100,4,2,2,70,0,1
57164,-100,4,1,1,55,0,1
57351,-100,4,2,2,70,0,1
58101,-100,4,1,1,55,0,1
58289,-100,4,2,2,70,0,1
58664,-100,4,1,1,55,0,1
58851,-100,4,2,2,70,0,1
59226,-100,4,1,1,55,0,1
59320,-100,4,2,2,70,0,1
60164,-100,4,1,1,55,0,1
60351,-100,4,2,2,70,0,1
60726,-100,4,1,1,55,0,1
61289,-100,4,2,2,70,0,1
61664,-100,4,2,2,40,0,1
61757,-100,4,2,2,70,0,1
62226,-100,4,1,2,55,0,1
62601,-100,4,1,1,55,0,1
62789,-100,4,2,2,70,0,1
63164,-100,4,1,1,55,0,1
63351,-100,4,2,2,70,0,1
64101,-100,4,1,1,55,0,1
64289,-100,4,2,2,70,0,1
65601,-100,4,2,2,55,0,0
66070,-100,4,2,2,35,0,0
66164,-100,4,2,2,70,0,1
66726,-100,4,1,1,55,0,1
67289,-100,4,2,2,70,0,1
67664,-100,4,1,1,55,0,1
67851,-100,4,2,2,70,0,1
68226,-100,4,1,1,55,0,1
68789,-100,4,2,2,70,0,1
69164,-100,4,1,1,55,0,1
69351,-100,4,2,2,70,0,1
70101,-100,4,1,1,55,0,1
70289,-100,4,2,2,70,0,1
70664,-100,4,1,1,55,0,1
70851,-100,4,2,2,70,0,1
71601,-100,4,1,1,55,0,1
71789,-100,4,2,2,70,0,1
72726,-100,4,2,2,70,0,1
73101,-100,4,2,2,70,0,1
74226,-100,4,2,2,70,0,1
74601,-100,4,1,1,55,0,1
74789,-100,4,2,2,70,0,1
74976,-100,4,2,2,35,0,1
75164,-100,4,2,2,70,0,1
75726,-100,4,1,1,55,0,1
75914,-100,4,2,2,70,0,1
76101,-100,4,1,1,55,0,1
76289,-100,4,2,2,70,0,1
76664,-100,4,1,1,55,0,1
77039,-100,4,2,2,70,0,1
77132,-100,4,1,1,55,0,1
77601,-100,4,2,2,70,0,1
78070,-100,4,2,2,70,0,0
78164,-100,4,2,2,70,0,1
78257,-100,4,2,2,60,0,0
78914,-100,4,1,1,50,0,0
79289,-100,4,2,2,60,0,0
80601,-100,4,1,1,50,0,0
80789,-100,4,2,2,60,0,0
81914,-100,4,1,1,50,0,0
82289,-100,4,2,2,60,0,0
82851,-100,4,1,1,50,0,0
83039,-100,4,2,2,60,0,0
83414,-100,4,1,1,50,0,0
83601,-100,4,2,2,60,0,0
83976,-100,4,1,2,50,0,0
84070,-100,4,2,2,60,0,0
84726,-100,4,2,2,60,0,0
85101,-100,4,1,1,45,0,0
85289,-100,4,2,2,60,0,0
85476,-100,4,2,2,60,0,0
85851,-100,4,1,1,45,0,0
86039,-100,4,2,2,60,0,0
86976,-100,4,2,2,70,0,1
87070,-100,4,2,2,5,0,0

[Colours]
Combo1 : 171,84,84
Combo2 : 255,140,85
Combo3 : 255,255,64
Combo4 : 0,107,159

[HitObjects]
355,49,164,6,0,L|347:175,1,105,2|0,0:3|0:0,0:0:0:0:
226,235,914,2,0,L|232:130,1,105,0|0,0:0|0:0,0:0:0:0:
192,68,1476,2,0,P|140:44|76:49,1,105,4|2,0:0|0:0,0:0:0:0:
57,188,2226,2,0,P|109:212|173:207,1,105,0|8,0:0|0:3,0:0:0:0:
226,235,2789,2,0,L|334:226,1,105,4|2,0:3|0:3,0:0:0:0:
397,94,3539,6,0,L|501:102,1,105,8|8,0:0|0:0,0:0:0:0:
485,174,4101,2,0,L|432:178,1,52.5,4|8,1:2|0:0,0:0:0:0:
373,221,4476,2,0,P|325:220|267:171,1,105,4|8,0:0|0:3,0:0:0:0:
243,124,5039,2,0,P|200:94|148:92,2,105,0|2|2,0:0|0:0|0:0,0:0:0:0:
312,253,6164,5,4,0:0:0:0:
256,192,13476,12,0,14789,0:2:0:0:
337,244,15164,6,0,P|378:274|430:277,2,105,2|8|2,0:3|0:0|0:0,0:0:0:0:
257,120,16289,1,8,0:0:0:0:
154,225,16664,2,0,L|137:345,1,105,0|8,0:0|0:0,0:0:0:0:
68,308,17226,2,0,L|82:204,1,105,2|0,0:0|0:0,0:0:0:0:
91,130,17789,1,8,0:0:0:0:
222,63,18164,6,0,P|274:40|329:41,1,105,0|8,0:0|0:0,0:0:0:0:
432,136,18914,2,0,L|456:186,2,52.5,0|0|8,0:0|0:0|0:0,0:0:0:0:
296,194,19664,2,0,L|284:312,1,105,0|8,0:0|0:0,0:0:0:0:
329,358,20226,2,0,P|279:371|231:347,1,105,2|2,0:0|0:0,0:0:0:0:
175,306,20789,6,0,L|55:324,2,105,8|2|8,0:0|0:0|0:0,0:0:0:0:
304,235,21914,2,0,L|361:225,2,52.5,0|0|8,0:0|0:0|0:0,0:0:0:0:
164,186,22664,2,0,P|173:135|166:78,1,105,0|8,0:0|0:0,0:0:0:0:
156,8,23226,1,0,0:0:0:0:
256,116,23601,1,0,0:0:0:0:
291,180,23789,6,0,P|338:160|405:157,2,105,8|2|8,0:0|0:0|0:0,0:0:0:0:
174,269,24914,2,0,P|139:265|117:248,2,52.5,0|2|8,0:0|0:0|0:0,0:0:0:0:
291,180,25664,2,0,P|303:119|282:62,1,105,0|8,0:0|0:0,0:0:0:0:
354,117,26226,2,0,L|462:128,1,105,2|2,0:0|0:0,0:0:0:0:
500,188,26789,1,8,0:0:0:0:
352,204,27164,6,0,P|292:210|252:241,1,105,4|10,0:2|0:0,0:0:0:0:
128,300,27914,2,0,L|73:308,2,52.5,0|0|8,0:0|0:0|0:0,0:0:0:0:
35,186,28664,2,0,B|142:171|142:171|181:139,2,157.5,2|2|8,0:0|0:0|0:0,0:0:0:0:
169,246,30164,6,0,L|284:231,1,105,0|8,0:0|0:0,0:0:0:0:
327,182,30726,2,0,B|367:160|407:176|407:176|433:149|425:95,1,157.5,2|8,0:0|0:0,0:0:0:0:
306,21,31664,2,0,P|280:78|275:122,1,105,0|8,0:0|0:0,0:0:0:0:
222,170,32226,2,0,P|258:221|293:247,1,105,2|2,0:0|0:0,0:0:0:0:
262,314,32789,6,0,P|199:319|159:337,2,105,8|2|8,0:0|0:0|0:0,0:0:0:0:
402,358,33914,2,0,L|463:348,2,52.5,0|0|8,0:0|0:0|0:0,0:0:0:0:
357,217,34664,2,0,L|379:95,1,105,0|8,0:0|0:0,0:0:0:0:
392,41,35226,2,0,P|346:74|277:67,1,105,0|0,0:0|0:0,0:0:0:0:
232,43,35789,6,0,L|125:55,1,105,8|0,0:0|0:0,0:0:0:0:
32,166,36539,2,0,B|8:274|8:274|32:319,1,157.5,8|2,0:0|0:0,0:0:0:0:
96,346,37289,6,0,L|157:340,1,52.5,8|4,0:0|0:2,0:0:0:0:
256,240,37851,2,0,L|136:253,1,105,4|4,0:2|0:2,0:0:0:0:
236,130,38601,2,0,L|297:124,1,52.5,4|4,0:0|0:0,0:0:0:0:
420,59,39164,6,0,P|439:109|426:176,1,105,2|8,0:3|0:0,0:0:0:0:
360,283,39914,2,0,L|348:339,2,52.5,0|2|8,0:0|0:0|0:0,0:0:0:0:
244,196,40664,2,0,B|174:181|147:228|147:228|108:201,2,157.5,0|0|8,0:0|0:0|0:0,0:0:0:0:
296,53,42164,6,0,P|232:34|166:37,1,105,2|8,0:0|0:0,0:0:0:0:
180,104,42726,2,0,P|244:123|310:120,1,105,2|2,0:0|1:2,0:0:0:0:
351,112,43289,2,0,L|477:102,1,105,8|0,0:0|0:0,0:0:0:0:
388,234,44039,2,0,L|328:238,1,52.5,8|2,0:0|0:0,0:0:0:0:
231,340,44601,2,0,L|283:343,2,52.5,2|8|2,0:0|0:0|0:0,0:0:0:0:
159,356,45164,6,0,B|137:328|137:328|143:240,1,105,0|8,0:0|0:0,0:0:0:0:
225,137,45914,2,0,L|239:249,1,105,0|8,0:0|0:0,0:0:0:0:
368,173,46664,2,0,L|354:68,1,105,0|8,0:0|0:0,0:0:0:0:
225,137,47414,2,0,L|231:84,2,52.5,0|0|8,0:0|0:0|0:0,0:0:0:0:
159,169,47976,6,0,P|110:173|57:143,1,105,4|2,0:0|0:0,0:0:0:0:
9,95,48539,2,0,L|18:223,1,105,8|2,0:2|0:0,0:0:0:0:
96,322,49289,2,0,P|141:297|193:300,1,105,8|0,0:0|0:0,0:0:0:0:
321,228,50039,2,0,P|372:231|418:206,1,105,8|2,0:0|0:0,0:0:0:0:
389,274,50601,2,0,L|374:339,1,52.5,0|8,0:0|0:0,0:0:0:0:
256,192,50976,12,2,52664,0:0:0:0:
160,120,53601,6,0,L|136:64,2,52.5,2|2|2,0:0|0:3|0:0,0:0:0:0:
227,152,54164,2,0,P|265:154|333:112,1,105,4|8,0:2|0:0,0:0:0:0:
363,62,54726,2,0,P|361:100|403:168,1,105,2|2,0:0|0:0,0:0:0:0:
429,220,55289,2,0,L|417:333,1,105,8|0,0:0|0:0,0:0:0:0:
276,356,56039,2,0,L|268:305,1,52.5,8|2,0:0|0:0,0:0:0:0:
148,220,56601,2,0,L|152:168,1,52.5,2|8,0:0|0:0,0:0:0:0:
226,39,57164,6,0,P|280:38|334:63,1,105,0|8,0:0|0:0,0:0:0:0:
404,182,57914,2,0,P|350:183|296:158,1,105,2|8,0:0|0:0,0:0:0:0:
166,111,58664,2,0,B|125:86|125:86|85:115|12:97,2,157.5,0|2|8,0:0|0:0|0:0,0:0:0:0:
209,170,59976,1,2,0:0:0:0:
153,218,60164,6,0,B|136:303|136:303|172:321|178:362,1,157.5,0|2,0:0|0:0,0:0:0:0:
319,319,61101,2,0,P|312:293|297:269,2,52.5,2|8|2,0:0|0:0|0:0,0:0:0:0:
381,358,61664,2,0,P|416:338|493:337,1,105,4|8,0:0|0:0,0:0:0:0:
502,263,62226,2,0,L|483:144,1,105,2|2,2:3|0:0,0:0:0:0:
464,88,62789,1,8,0:0:0:0:
337,163,63164,6,0,P|286:170|230:148,1,105,2|8,0:0|0:0,0:0:0:0:
115,69,63914,2,0,P|81:56|45:52,2,52.5,10|0|8,0:0|0:0|0:0,0:0:0:0:
158,128,64476,1,2,0:0:0:0:
101,175,64664,2,0,B|76:282|76:282|108:328,1,157.5,4|2,0:0|0:3,0:0:0:0:
248,301,65601,6,0,L|237:357,2,52.5,2|8|2,0:0|0:0|0:0,0:0:0:0:
282,236,66164,2,0,P|329:215|399:220,1,105,4|8,0:0|0:0,0:0:0:0:
441,258,66726,2,0,P|420:211|425:141,1,105,2|2,0:0|0:0,0:0:0:0:
464,99,67289,1,8,0:0:0:0:
328,42,67664,2,0,L|309:147,1,105,0|8,0:0|0:0,0:0:0:0:
244,176,68226,2,0,B|184:192|136:148|136:148|100:148|80:176,1,157.5,2|8,0:0|0:0,0:0:0:0:
104,304,69164,6,0,P|152:328|216:328,1,105,2|8,0:0|0:0,0:0:0:0:
340,276,69914,2,0,P|293:252|241:249,1,105,2|8,0:0|0:0,0:0:0:0:
184,204,70476,1,2,0:0:0:0:
232,148,70664,2,0,B|239:100|239:100|212:48|128:64,2,157.5,0|2|8,0:0|0:0|0:0,0:0:0:0:
184,204,71976,1,8,0:0:0:0:
220,268,72164,6,0,P|268:296|336:284,1,105,4|8,0:0|0:0,0:0:0:0:
368,240,72726,2,0,P|419:238|463:265,1,105,2|2,0:3|0:0,0:0:0:0:
456,192,73289,2,0,L|448:136,1,52.5,8|8,0:0|0:0,0:0:0:0:
412,76,73664,6,0,P|364:52|308:52,1,105,4|8,0:0|0:0,0:0:0:0:
276,116,74226,2,0,P|322:139|374:141,1,105,2|2,0:3|0:0,0:0:0:0:
448,140,74789,2,0,L|456:192,1,52.5,8|8,0:0|0:0,0:0:0:0:
396,236,75164,6,0,L|376:360,2,105,4|8|0,0:0|0:0|0:0,0:0:0:0:
424,92,76289,1,8,0:0:0:0:
288,148,76664,2,0,P|232:152|184:112,1,105,0|8,0:0|0:0,0:0:0:0:
60,64,77414,1,2,0:0:0:0:
100,204,77789,1,8,0:0:0:0:
256,192,78164,12,2,80414,0:0:0:0:
432,92,80976,6,0,P|356:92|300:156,1,157.5,4|8,0:0|0:0,0:0:0:0:
216,264,81914,2,0,P|164:267|121:239,1,105,2|8,0:0|0:0,0:0:0:0:
64,192,82476,2,0,L|76:312,1,105,4|2,0:0|0:0,0:0:0:0:
120,356,83039,1,8,0:0:0:0:
268,368,83414,2,0,L|328:356,2,52.5,0|0|8,0:0|0:0|0:0,0:0:0:0:
384,276,84164,6,0,B|408:228|408:228|396:120,1,157.5,4|2,0:0|0:3,0:0:0:0:
272,48,85101,2,0,L|284:116,1,52.5,2|8,0:0|0:0,0:0:0:0:
236,160,85476,2,0,B|188:168|156:152|156:152|136:208|92:220,1,157.5,2|8,0:3|0:0,0:0:0:0:
8,108,86414,2,0,P|24:88|56:72,1,52.5,2|0,0:0|0:0,0:0:0:0:
120,56,86789,2,0,L|180:48,1,52.5,10|4,0:0|0:0,0:0:0:0:
